#TITLE:DANGER! DANGER! DANGER!;
#SUBTITLE:;
#ARTIST:MEMODEMO;
#TITLETRANSLIT:;
#SUBTITLETRANSLIT:;
#ARTISTTRANSLIT:;
#GENRE:;
#CREDIT:;
#MUSIC:DANGER! DANGER! DANGER!.ogg;
#BANNER:DANGER! DANGER! DANGER!.png;
#BACKGROUND:DANGER! DANGER! DANGER!-bg.png;
#CDTITLE:;
#SAMPLESTART:68.802;
#SAMPLELENGTH:15.000;
#SELECTABLE:YES;
#OFFSET:-0.002;
#BPMS:0.000=150.000;
#STOPS:;
#BGCHANGES:;
#FGCHANGES:;

//--------------- dance-single - chr! ----------------
#NOTES:
     dance-single:
     chr!:
     Beginner:
     2:
     0,0,0,0,0:
0000
0000
0000
0000
,
0000
0000
0000
0000
,
0000
0000
0000
0000
,
0001
0000
0001
0000
,
1000
0000
1000
0000
,
0100
0000
0100
0000
,
0010
0000
0010
0000
,
0001
0000
0100
0000
,
0001
0000
1000
0000
,
0100
0000
1000
0000
,
0001
0000
1000
2000
,
3001
0000
0010
0000
,
0100
0100
0100
0000
,
1000
0000
0010
0000
,
0100
0100
0100
0000
,
0001
0000
0010
0000
,
0100
0100
0100
0000
,
1000
0000
0010
0000
,
0200
0000
0000
0300
,
0001
0000
0010
0000
,
0100
0000
1000
0000
,
0001
0000
0100
0000
,
0010
0000
1000
0000
,
0001
0001
0001
0000
,
1000
1000
1000
0000
,
0001
1000
0002
0000
,
2003
0000
0000
3000
,
0001
0000
0010
0000
,
0100
0010
0100
0000
,
1000
0000
0010
0000
,
0100
0010
0100
0000
,
0001
0000
0010
0000
,
0100
0010
0100
0000
,
1000
0000
0010
0000
,
0100
0010
0100
0000
,
1001
0000
0000
0000
,
1000
0000
0000
0000
,
0100
0000
0000
0000
,
0010
0000
0001
0001
,
0001
0000
0100
0000
,
0010
0000
1000
0000
,
0001
0000
1000
0000
,
0001
1000
0001
0000
,
1000
0001
1000
0000
,
0100
0000
0010
0010
,
0010
0000
0001
0000
,
0100
0000
0001
1000
,
0001
0000
0010
0000
,
0100
0100
0100
0000
,
1000
0000
0010
0000
,
0001
0000
0100
0000
,
1000
0000
0010
0000
,
1000
0000
0001
0001
,
0001
0000
0010
0000
,
0001
0000
0001
1000
,
0001
0000
0100
0000
,
0010
0000
1000
0001
,
1000
0000
0100
0000
,
0010
0000
0001
2000
,
3001
0000
0001
0000
,
1000
0000
1000
0000
,
0010
0000
0010
0000
,
0100
0000
0100
0000
,
0001
0000
0001
0000
,
1000
0000
1000
0000
,
0100
0000
0100
0000
,
2002
0000
0000
0000
,
3003
0000
0000
0000
;

//--------------- dance-single - chronon! ----------------
#NOTES:
     dance-single:
     chronon!:
     Easy:
     6:
     0,0,0,0,0:
0000
0000
0000
0000
,
0000
0000
0000
0000
,
0000
0000
0000
0000
,
1001
0000
1000
0000
,
0100
0000
0010
0000
,
0001
0000
0001
0000
,
0100
0000
0010
0000
,
1000
0100
0100
0000
,
1000
0010
0010
0000
,
1000
0100
0100
1000
,
1000
0010
0010
2000
,
3001
0010
0100
0100
,
1000
0010
0100
0100
,
0001
0010
0100
0100
,
1000
0010
0001
0010
,
1000
0100
0010
0010
,
0001
0100
0010
0010
,
1000
0100
0010
0010
,
0002
0000
0000
0003
,
1000
0010
1000
0000
0001
0010
0001
0000
,
1000
0100
1000
0000
0001
0000
0001
0000
,
1000
0100
1000
0000
0001
0100
0001
0000
,
1000
0010
1000
0000
0001
0000
0001
0000
,
1000
0100
1000
0000
1000
0100
1000
0000
,
0001
0100
0001
0000
0100
0001
0100
0000
,
0010
1000
0001
0010
,
0200
0000
0000
0300
,
2000
3010
0001
0010
,
0100
0001
0010
1000
,
0010
0100
0020
0031
,
1000
0000
0010
0000
0100
0000
0001
1000
,
0001
0010
1000
0010
,
0100
1000
0010
0001
,
0010
0100
0020
1030
,
0001
0000
0010
0000
0100
0000
1000
0001
,
2000
0000
0000
0000
,
3200
0000
0000
0000
,
0320
0000
0000
0000
,
0032
0000
1003
1000
,
0002
0000
1000
0000
,
0023
0000
0001
0000
,
0130
1000
0001
1000
,
0010
0100
0002
1003
,
0001
2001
3100
0010
,
0100
1000
0001
1000
,
0001
1000
0010
0100
,
0010
1000
0100
0001
,
0020
1030
0100
0010
,
0001
0100
1000
0100
,
0002
0103
0002
0013
,
0002
0000
2003
0000
3100
0010
0100
0000
,
1000
0000
1002
0000
0103
0000
0010
0100
,
0010
0100
1000
0100
,
0002
0000
0013
0000
0100
0010
0100
0000
,
0010
0100
0002
0103
,
0200
0000
1300
0000
0001
0100
0001
0000
,
0100
0010
0001
0010
,
0100
0001
1000
0100
,
1000
0001
0020
0230
,
1300
0000
0010
0000
,
0100
0000
0001
0000
,
1000
0000
0100
0000
,
0010
0000
0001
0000
,
1000
0000
0010
0000
,
0100
0000
0001
0000
,
1000
0000
0100
0000
,
2002
0000
0000
0000
,
3003
0000
0000
0000
;

//--------------- dance-single - chrononical! ----------------
#NOTES:
     dance-single:
     chrononical!:
     Medium:
     9:
     0,0,0,0,0:
0000
0000
0000
0000
,
0000
0000
0000
0000
,
0000
0000
0000
0000
,
1001
1000
0100
0000
,
1000
1000
0010
0000
,
1000
0001
0010
0000
,
0001
1000
0010
0000
,
1000
0100
0010
0001
,
1000
0000
1000
0000
,
0001
0100
0010
1000
,
0001
0001
1000
2000
,
3001
0010
0100
0000
0020
0000
0100
0000
,
0031
0100
0010
0000
0200
0000
0010
0000
,
0301
0010
0100
0000
0020
0000
0100
0000
,
0031
0100
0010
0000
1000
0000
0001
0000
,
1000
0100
0010
0000
0200
0000
0001
0000
,
1300
0010
0100
0000
0020
0000
0001
0000
,
1030
0100
0010
0000
0200
0000
0001
0000
,
2300
0000
0000
3000
,
1001
0000
0001
0000
0010
0100
0010
0000
,
0001
0000
0010
0000
0100
0010
0100
1000
,
0001
0000
0001
0000
0100
0010
0100
0000
,
0001
0000
0100
0000
0010
0100
0010
1000
,
0001
1000
0100
0000
1000
0001
0100
0000
,
0001
1000
0100
0000
0100
1000
0001
0000
,
0100
0010
0100
0000
0001
1000
0001
1000
,
0002
0000
0000
0003
,
2001
0000
3100
0000
0001
0000
0100
1000
,
0001
0100
0010
0001
,
0010
0000
0200
0000
0001
0000
0310
1000
,
0001
0000
0010
0000
1000
0000
0010
0001
,
1000
0000
0010
0000
0001
0000
0010
1000
,
0001
0010
0100
0001
,
0100
0010
0200
0000
0010
0000
1300
0001
,
1000
0000
0010
0000
0001
0000
0010
1000
,
0002
0000
0000
0000
,
0023
0000
0000
0000
,
0230
0000
0000
0000
,
2300
0000
3001
1000
,
0002
1000
0100
0000
,
0203
0001
0010
0000
,
0310
1000
0001
0000
0010
0100
0010
0000
,
0001
0000
1000
0000
0001
0100
0001
0000
,
1000
0000
1002
0000
0013
0100
1000
0200
,
0000
0000
0310
0001
0010
0000
0001
0000
,
1000
0000
0010
0000
0100
0001
0100
0020
,
0000
0000
0130
0001
0100
0000
1001
0000
,
0100
0000
2001
0000
3100
1000
0100
0020
,
0000
0000
0130
1000
0001
0000
0100
0000
,
0010
1000
0001
0000
0100
0001
1000
0000
,
0100
0010
0001
0000
1000
0001
1000
0001
,
1000
0000
1002
0000
0103
0010
0100
0001
,
1000
0100
0010
0001
,
1000
0000
1002
0000
0013
0100
0010
0001
,
1000
0010
0001
0010
,
1000
0000
2001
0000
3100
0010
0100
1000
,
0001
0100
1000
0100
,
0001
0010
0100
1000
,
0001
1000
0001
0000
0200
0000
0320
0000
,
1030
0100
0100
0000
,
1000
0010
0010
0000
,
0100
0001
0001
0000
,
0010
0001
0001
0000
,
1000
0010
0010
0000
,
1000
0100
0100
0000
,
0010
0001
0001
0000
,
2002
0000
0000
0000
,
3003
0000
0000
0000
;

//--------------- dance-single - chrononical! chrononical! ----------------
#NOTES:
     dance-single:
     chrononical! chrononical!:
     Hard:
     13:
     0,0,0,0,0:
0000
0000
0000
0000
,
0000
0000
0000
0000
,
0000
0000
0000
0000
,
1001
0001
0100
0010
,
1000
1000
0100
0010
,
0001
0001
0100
0010
,
1000
0100
0001
0100
,
1000
0001
0100
0000
0010
0000
0010
0000
,
1000
0001
0010
0000
0100
0000
0100
0000
,
1000
0001
0100
0000
0001
1000
0100
0000
,
0010
0001
1000
0010
0100
0001
2000
0000
,
3001
0000
1000
0000
0100
0010
0000
0200
0000
0000
0001
0000
0000
0010
0000
0000
,
1300
0000
0010
0000
0100
0000
0001
0200
0000
1000
0000
0010
0000
0000
0001
0000
,
0301
0000
1000
0000
0010
0100
0000
0020
0000
0000
0001
0000
0000
0100
0000
0000
,
1030
0000
0100
0000
0010
0000
0001
0020
0000
1000
0000
0100
0000
0000
0001
0000
,
0031
0000
1000
0000
0100
0010
0000
0200
0000
0000
1000
0000
0000
0001
0000
0000
,
1300
0000
0010
0000
0100
0000
0001
0200
0000
1000
0000
0001
0000
0000
0010
0000
,
0301
0000
1000
0000
0010
0100
0000
0020
0000
0000
0001
0000
0000
1000
0000
0000
,
2030
0000
0000
3000
,
0001
0010
0100
0000
0100
1000
0001
1000
,
0001
0100
0010
0000
0010
0100
0010
1000
,
1000
0100
0010
0000
0010
0001
1000
0001
,
1000
0010
0100
0000
0100
0010
0100
0001
,
2000
0100
3001
0000
2000
0010
3001
0000
,
2000
0100
3001
0000
1000
0010
0001
0010
,
1000
0100
0010
0100
1000
1000
0001
0001
,
0200
0000
0000
0300
,
1002
0000
0000
0000
0013
0000
0000
1000
0000
0000
0010
0000
0001
0000
0100
0010
,
0100
0000
0001
0000
1000
0000
0010
0100
0000
0000
1000
0000
0100
0000
0001
0000
,
1000
0000
0100
0000
0020
0000
0000
0130
0000
0000
1000
0001
0100
0000
0010
0000
,
1000
0000
0001
0010
0000
0000
0100
0000
0001
0000
0100
0000
1000
0000
0001
0000
,
1000
0000
0010
0000
0100
0000
0000
1000
0000
0000
0100
0000
0001
0000
0010
0100
,
0010
0000
0001
0000
1000
0000
0100
0010
0000
0000
1000
0000
0010
0000
0001
0000
,
1000
0000
0010
0100
0010
0000
0100
0000
0001
0000
1000
0001
0010
0000
0001
0000
,
0100
0000
1000
0000
0100
0000
0010
1000
0000
0000
0001
0000
0010
0000
0100
0000
,
2000
0000
0000
0000
,
3002
0000
0000
0000
,
0203
0000
0000
0000
,
0320
0000
0001
0100
,
2030
0001
0001
0100
,
3200
0010
0010
1000
,
1300
0001
0100
0000
0001
1000
0100
0000
,
0010
0000
0000
0000
0010
0000
0001
0000
0000
0000
0001
0000
1000
0000
0000
0010
0000
0000
0001
0000
0000
0010
0000
0000
,
1000
0000
0000
0000
1001
0000
1000
0000
0001
0000
0010
0100
0000
1000
0100
0000
,
0010
0000
0100
0000
1000
0000
0001
0000
1000
0000
0010
0100
0000
0001
0100
0000
,
0010
0000
0100
0000
0001
0000
1000
0000
0001
0000
0010
0100
0000
0001
0100
0000
,
0010
0000
0100
0000
1000
0000
0001
0000
1000
0000
0010
0100
0010
0000
1000
0001
,
2000
0000
0000
0000
3100
0000
0010
0000
0001
0000
0100
0010
0000
0100
0001
0000
,
0100
0000
0010
0000
1000
0000
0100
0000
0001
0000
0100
0010
0000
0100
1000
0000
,
0001
0100
1000
0200
0000
0310
0001
0020
,
0000
0000
1030
0000
0002
0000
0013
0000
0100
1000
0100
0000
0010
0000
0001
0000
,
2000
0000
0000
3000
1001
0000
0001
0000
1000
0000
0100
0000
0010
0000
0100
1000
,
0100
0000
0010
0001
0010
0000
0001
1000
0001
0000
0100
0000
1000
0000
0200
0000
,
0010
0000
0000
0000
0301
0000
0010
0000
0100
0000
1000
0000
0010
0000
0100
0001
,
1000
0000
0001
0000
0010
0000
0001
1000
0020
0000
0000
0030
0210
0000
0000
0000
,
0302
0000
0000
0003
1001
0000
1000
0000
0100
0000
0010
0000
0100
0000
1000
0000
,
0001
0000
0100
0010
0100
0000
0001
0000
0020
0000
0000
0030
0210
0000
0000
0000
,
1300
0000
0100
0000
0010
0000
0001
1000
0001
0000
0100
0000
0010
0000
1000
0000
,
0001
1000
0001
0000
0010
0000
0100
0000
0020
0000
0000
0000
0230
0000
0000
0000
,
1300
1000
0001
0001
,
0100
0100
0010
0010
,
1000
1000
0001
0001
,
0010
0010
0100
0100
,
1000
1000
0001
0001
,
0100
0100
0010
0010
,
1000
1000
0001
0001
,
2002
0000
0000
0000
,
3003
0000
0000
0000
;

//--------------- dance-single - chrononical! chrononical! chrononical! ----------------
#NOTES:
     dance-single:
     chrononical! chrononical! chrononical!:
     Challenge:
     16:
     0,0,0,0,0:
0000
0000
0000
0000
,
0000
0000
0000
0000
,
0000
0000
0000
0000
,
1001
1000
0100
0010
,
0001
0001
0100
0010
,
1000
0100
0010
0000
0001
0000
1000
0000
,
0001
0100
0010
0000
0100
0000
0100
0000
,
0001
1000
0100
0010
0001
1000
0001
0000
,
1000
0001
0100
0010
1000
0001
1000
0000
,
0001
1000
0100
0010
0001
1000
0001
0100
,
0010
0000
0100
0000
0001
0000
1000
0100
0000
0010
0000
0100
4000
0000
0000
0000
,
3001
0000
0100
0010
1000
0001
0000
1000
0000
0100
0010
0000
0001
0010
0000
0100
,
1000
0000
0001
0100
0010
0100
0001
0100
0000
1000
0000
0100
0000
0010
0100
0010
,
1000
0000
0100
0010
0001
1000
0000
0001
0000
0100
0010
0000
1000
0010
0000
1000
,
0001
0000
1000
0100
0010
0100
1000
0100
0000
0001
0000
1000
0000
0010
0100
0010
,
0001
0000
0010
0100
1000
0001
0000
1000
0000
0010
0100
0000
0001
0100
0000
0010
,
1000
0000
0001
0010
0100
0010
0001
0010
0000
1000
0000
0010
0000
0100
0010
0100
,
1000
0000
0001
0100
0010
1000
0000
0001
0000
0010
0100
0000
1000
0100
0000
1000
,
0002
0000
0000
0003
,
1002
0000
0000
0000
0000
0000
0103
0000
0000
0001
0000
0000
1000
0000
0000
0000
0000
0000
0010
0000
0000
1000
0000
0000
0001
0000
0000
0010
0000
0000
0100
0000
1000
0000
0001
0000
1000
0000
0000
0010
0000
0000
0100
0000
0000
0001
0000
0000
,
1000
0000
0100
1000
0001
0000
0010
0001
1000
0010
M010
0001
1000
0100
0010
0001
,
1000
0000
0000
0000
0000
0000
0010
0000
0000
1000
0000
0000
0001
0000
0000
0000
0000
0000
0100
0000
0000
0001
0000
0000
1000
0000
0000
0100
0000
0000
0010
0000
0001
0000
1000
0000
0001
0000
0000
0100
0000
0000
0010
0000
0000
1000
0000
0000
,
0001
0000
0010
0001
1000
0000
0100
1000
0001
0100
010M
1000
0001
0100
0010
1000
,
0001
0000
0010
0001
1000
0000
0010
M010
0001
0000
0100
0001
1000
0000
0100
M100
,
0001
0000
0010
0001
1000
0000
0010
M010
0001
0100
010M
1000
0001
0000
0010
001M
,
1000
0000
0010
0100
0001
0000
1000
0100
0010
0000
1000
0000
0010
0000
0001
0000
,
1000
0000
0010
0100
0001
1000
0100
0000
0010
0000
0010
0001
1000
0000
0001
0000
,
2001
0000
0000
0000
3010
0100
0000
1000
0000
0100
0010
0000
1000
0000
0100
M100
,
0001
0000
0001
0000
1000
0000
0100
0010
0000
0100
0001
0100
1000
0001
0200
0000
,
0320
0000
1030
0001
0020
0000
0000
1000
0000
0130
1000
0001
0100
0000
01M0
0000
,
1000
0000
0100
0010
0000
0010
0001
0100
1000
0100
0010
0000
0010
0000
0010
0000
,
1002
0000
0013
0100
1000
0001
0100
1000
0000
0100
0010
0000
1000
0000
0010
M010
,
0001
0000
0001
0000
1000
0100
0010
0100
0000
0010
1000
0010
0001
0000
1000
0010
,
0100
0000
0010
1000
0010
M010
0001
0100
0000
0010
1000
0001
0010
0100
1000
0001
,
1000
0000
0010
0001
0010
0100
0010
1000
0000
0000
1001
0000
0011
0000
0010
0100
,
2000
0000
0000
0000
0000
0000
0000
0000
3002
0000
0000
0203
0000
0000
0320
0000
,
0000
0000
0000
0000
0000
0000
2030
0000
3200
0000
0000
0320
0000
0000
0032
0000
,
0000
0000
0000
0000
0000
0000
0000
0000
2003
0000
0000
3020
0000
0000
0230
0000
,
0000
0000
0000
0000
0000
0000
0302
0000
0023
0000
0000
0230
0000
0000
2300
0000
,
0001
0010
0100
0100
,
3002
0100
0010
0010
,
1003
0010
0100
0010
1000
0100
0010
0100
,
1000
0000
0100
0000
0010
0000
0001
0000
1000
0000
0010
0000
0200
0000
0000
1000
0000
0000
0010
0000
0000
0001
0000
0000
,
0302
0000
0000
0003
0001
1000
0100
0000
1000
0001
0100
0000
0001
1000
0100
0000
,
1000
0100
0010
0000
0001
0010
0100
0000
1000
0010
0100
0000
0001
0100
0010
0000
,
1000
0001
0010
0000
0001
1000
0010
0000
1000
0001
0010
0000
0001
1000
0010
0000
,
1000
0010
0100
0000
0001
0100
0010
0000
1000
0000
0100
01M0
0001
0000
0010
001M
,
1000
0010
0100
0000
1000
0100
0010
0000
1000
0100
0010
0000
1000
0010
0001
0000
,
0001
0100
0010
0000
0001
0010
0100
0000
0001
0010
0100
0000
0001
0100
1000
0000
,
2000
0001
0010
3002
1000
1000
0013
2000
,
0001
0000
3001
0000
0020
0000
0001
0000
0130
0010
0100
0000
1000
0000
0001
0000
,
0200
0000
0000
0300
0110
0000
0010
1000
0001
0010
0100
0000
0001
0000
0100
0010
,
0100
0000
0100
1000
0001
0100
0010
0100
1000
0100
0001
1000
0100
0000
M100
0000
,
0002
0000
0000
0003
0011
0000
0010
0001
1000
0010
0100
0001
1000
0100
0010
2000
,
0000
0000
3010
0001
1000
0000
0010
1000
0002
0000
0000
0003
0102
0000
0000
0000
,
2003
0000
0000
3000
1100
0000
0100
1000
0001
0100
0010
0000
0100
0000
1000
0000
,
0100
0000
0001
1000
0100
0010
0100
0000
2000
0000
0000
3000
1001
0000
0000
0000
,
0101
0000
0000
0000
0000
0000
0001
0000
0000
0100
0000
0000
0010
0000
0000
0100
0000
0000
0001
0000
1000
0000
0001
0000
0010
0000
0000
0100
0000
0000
1000
0000
0000
0001
0000
0000
0100
0000
0000
0001
0000
0000
1000
0000
0000
0010
0000
0000
,
1000
0000
0001
0000
1000
0000
0100
0000
0000
0010
0000
0000
0001
0000
0000
1000
0000
0000
0010
0000
0000
0200
0000
0000
1000
0000
0000
0000
0000
0000
0000
0000
0000
0000
0000
0000
0320
0000
0000
0000
0000
0000
0000
0000
0000
0030
0000
0000
,
0110
0010
0100
0100
,
0001
0001
1000
1000
,
0100
0100
0010
0010
,
0001
0001
1000
1000
,
0001
0001
0100
0100
,
0010
0010
1000
1000
,
0001
0001
0010
0010
,
2002
0000
0000
0000
,
3003
0000
0000
0000
;
