#VERSION:0.83;
#TITLE:DADDY MULK;
#SUBTITLE:;
#ARTIST:MASAKI (ZUNTATA);
#TITLETRANSLIT:;
#SUBTITLETRANSLIT:;
#ARTISTTRANSLIT:;
#GENRE:THE NINJA WARRIORS;
#ORIGIN:;
#CREDIT:;
#BANNER:DADDY MULK.png;
#BACKGROUND:DADDY MULK-bg.png;
#PREVIEWVID:;
#JACKET:DADDY MULK-jacket.png;
#CDIMAGE:;
#DISCIMAGE:;
#LYRICSPATH:;
#CDTITLE:;
#MUSIC:DADDY MULK.ogg;
#OFFSET:-0.252090;
#SAMPLESTART:41.022255;
#SAMPLELENGTH:15.620000;
#SELECTABLE:YES;
#BPMS:0.000=153.000;
#STOPS:;
#DELAYS:;
#WARPS:;
#TIMESIGNATURES:0.000=4=4;
#TICKCOUNTS:0.000=4;
#COMBOS:0.000=1;
#SPEEDS:0.000=1.000=0.000=0;
#SCROLLS:0.000=1.000;
#FAKES:;
#LABELS:0.000=Song Start;
#BGCHANGES:;
#KEYSOUNDS:;
#ATTACKS:
;

//---------------dance-single - ----------------
#NOTEDATA:;
#CHARTNAME:;
#STEPSTYPE:dance-single;
#DESCRIPTION:;
#CHARTSTYLE:;
#DIFFICULTY:Hard;
#METER:13;
#RADARVALUES:0.692690,0.769090,0.236330,0.578600,0.317823,595.000000,566.000000,29.000000,71.000000,0.000000,0.000000,0.000000,0.000000,0.000000,0.692690,0.769090,0.236330,0.578600,0.317823,595.000000,566.000000,29.000000,71.000000,0.000000,0.000000,0.000000,0.000000,0.000000;
#CREDIT:BlindedVanguard573;
#NOTES:
// measure 0
0000
0000
0000
0000
,  // measure 1
0000
0000
0000
0000
,  // measure 2
0000
0000
0000
0000
,  // measure 3
0000
0000
0000
0000
,  // measure 4
0000
0000
0000
0000
0000
0000
0000
2002
,  // measure 5
3003
0000
0001
0000
0001
0000
0100
0010
0100
0000
0001
0000
1000
0000
2100
0000
,  // measure 6
0000
0000
3001
0000
1000
0010
0100
0102
,  // measure 7
0000
0000
1003
0000
0001
0010
0100
2001
,  // measure 8
0000
3100
0001
0100
1000
0001
1000
0020
,  // measure 9
0000
0000
0100
0000
0130
0000
0001
1000
0001
0000
1000
0000
2001
0000
0000
0000
,  // measure 10
3001
1000
0100
1000
0010
1000
0000
0001
,  // measure 11
0100
0001
1000
0001
0000
0010
0010
0010
,  // measure 12
0100
1000
0001
0100
0010
1000
0001
0010
,  // measure 13
0100
1000
0100
1000
0100
1000
0100
1000
0002
0000
1000
0000
1000
0000
1003
0000
,  // measure 14
1001
0000
0001
0100
1000
0200
0000
0302
,  // measure 15
0000
0010
0013
0000
0100
1000
0001
0100
,  // measure 16
0020
0100
0130
0010
1010
1000
1001
0000
,  // measure 17
1100
1000
0001
0102
0000
0010
0010
0013
,  // measure 18
0011
0000
0001
0010
1000
0020
0000
0032
,  // measure 19
0000
0100
0103
0000
0010
1000
0001
0010
,  // measure 20
0200
0000
1000
0000
1300
0000
0001
0100
0001
0000
0101
0000
0000
0000
0000
0000
,  // measure 21
0011
0000
0000
1100
0000
0000
0101
0000
0000
1010
0000
0000
1000
0000
0001
0000
,  // measure 22
2000
0000
0100
0100
0000
0010
3010
0000
,  // measure 23
1000
0000
0000
1000
0010
0000
0200
0000
0001
0000
0000
0000
0310
0000
0000
0000
,  // measure 24
0100
0001
1000
0100
0010
0100
1000
0001
,  // measure 25
1000
0000
0010
0000
0001
0000
0010
0000
1000
0001
1000
0001
0200
0000
0300
0000
,  // measure 26
0001
0010
2200
3300
0000
1000
0010
0001
,  // measure 27
0010
0100
0202
0300
1000
0000
0013
0000
,  // measure 28
0001
0000
0010
0000
0100
1000
0100
1000
0100
0000
1000
0000
0001
0000
0100
0000
,  // measure 29
0010
0000
1000
0001
1000
0000
1000
0000
0010
0000
0010
0000
0100
0000
0100
0000
,  // measure 30
0001
0010
1000
0010
0210
0000
1300
0010
,  // measure 31
0100
0001
0000
1000
0100
0010
0001
0000
,  // measure 32
1000
0100
0001
0100
0120
0000
0031
0100
,  // measure 33
0010
0000
1000
0000
0000
0000
0001
0000
0010
0000
0100
0000
1000
0000
0001
1000
,  // measure 34
0002
0000
0010
0010
0000
0100
0103
0000
,  // measure 35
0001
0100
1000
0100
0010
0010
1000
0000
,  // measure 36
0001
0000
0010
0000
0010
0000
0100
0000
1000
0001
1000
0001
1000
0001
1000
0001
,  // measure 37
0200
0000
0000
0000
0320
0000
0000
0000
1030
0001
1000
0000
0100
0000
1200
0000
,  // measure 38
0000
1000
1000
1000
1000
1000
1000
1300
,  // measure 39
0100
1000
0100
0000
1000
0000
0001
0000
0100
0001
0100
0000
0001
0000
1000
0000
,  // measure 40
0020
0000
1030
0000
0002
0000
1003
0000
0200
0000
1300
0000
0001
0000
1000
0010
,  // measure 41
1000
0000
0001
0000
0010
0000
0001
0100
0001
0000
1000
0000
0010
0000
1000
0100
,  // measure 42
1000
0000
0001
0000
0100
0000
0001
0010
0001
0000
1000
0000
0100
0000
1000
0000
,  // measure 43
0001
0100
0010
0000
0100
0000
0001
0000
1000
0100
0010
0000
0100
0000
1000
0001
,  // measure 44
1000
0000
0010
0000
0010
0000
0100
0000
0100
0000
0001
0000
0001
0000
1000
0001
,  // measure 45
0010
0010
0010
0010
0010
0010
0010
0010
,  // measure 46
0100
0000
1000
0001
0100
0000
0010
0000
1000
0000
0001
1000
0100
0000
0010
0000
,  // measure 47
0001
0000
0100
0000
0010
0000
0100
0000
1000
0000
0100
0000
0010
0000
1000
0010
,  // measure 48
0100
0000
0001
0000
0001
0000
1000
0000
1000
0000
0100
0000
0100
0000
0010
0001
,  // measure 49
1000
0000
0010
0000
0010
0000
0100
0000
0100
0000
0001
0000
0001
0000
1000
0001
,  // measure 50
0100
0000
0010
0000
1000
0000
0001
1000
0100
0000
0010
0000
0001
0000
1000
0010
,  // measure 51
0100
0000
0001
0000
1000
0000
0001
0010
0100
0000
1000
0000
0001
0000
1000
0000
,  // measure 52
0001
0100
0010
0000
0100
0000
0001
0000
1000
0100
0010
0000
0100
0000
1000
0000
,  // measure 53
0001
0010
0100
0000
0010
0000
0001
0000
1000
0010
0100
0000
0010
0000
1000
0000
,  // measure 54
0002
0103
0020
0130
2000
3100
0020
0130
,  // measure 55
0002
0013
0200
0310
2000
3010
0200
0310
,  // measure 56
0002
1000
1000
1000
1000
1000
1000
1003
,  // measure 57
0020
0100
0100
0130
0002
1000
1000
1003
,  // measure 58
0001
0010
0001
0010
0001
0000
1000
0000
0010
1000
0010
1000
0010
0000
0100
0000
,  // measure 59
0001
0100
0001
0100
0001
0000
1000
0000
0100
1000
0100
1000
0100
0000
0010
0000
,  // measure 60
0001
0000
0000
0001
0100
0000
0000
0100
0010
0000
0000
0010
1000
0000
0000
1000
,  // measure 61
0100
0000
0000
0100
0010
0000
0000
0010
0001
0000
0000
0001
1000
0000
0000
1000
,  // measure 62
0001
0100
0000
0001
0100
0000
0010
1000
0000
0010
1000
0000
0001
0010
0001
1000
,  // measure 63
0001
0010
0100
1000
0100
0010
0001
0100
0010
2000
0000
0000
,  // measure 64
3000
0000
0000
0000
0001
0100
0010
0120
,  // measure 65
0000
0230
0302
2003
3100
0001
0100
1000
,  // measure 66
0001
0000
0200
0000
2300
0000
3200
0000
0310
0000
1000
0000
0001
1000
0100
0000
,  // measure 67
1000
0020
0230
0302
0023
0230
2300
3002
,  // measure 68
1003
0010
0000
1000
0010
0000
0100
0001
0000
0100
0001
0000
1000
0000
2001
0000
,  // measure 69
0000
3200
0302
0203
0310
0001
0100
1000
,  // measure 70
0100
0020
2030
3002
1003
0010
0100
0001
,  // measure 71
1000
0000
0002
0000
0023
0000
0230
0000
1300
0001
0100
0001
1000
0000
1002
0000
,  // measure 72
0000
1003
1000
0010
0010
0001
1000
0100
,  // measure 73
0100
0010
0010
2000
0000
0100
0001
3100
,  // measure 74
1000
0100
0100
0001
0100
0010
0000
0011
,  // measure 75
0011
1100
1100
2002
3003
0000
0000
0000
;

//---------------dance-single - ----------------
#NOTEDATA:;
#CHARTNAME:;
#STEPSTYPE:dance-single;
#DESCRIPTION:;
#CHARTSTYLE:;
#DIFFICULTY:Beginner;
#METER:4;
#RADARVALUES:0.223524,0.245294,0.016299,0.016299,0.000000,192.000000,190.000000,2.000000,2.000000,0.000000,0.000000,0.000000,0.000000,0.000000,0.223524,0.245294,0.016299,0.016299,0.000000,192.000000,190.000000,2.000000,2.000000,0.000000,0.000000,0.000000,0.000000,0.000000;
#CREDIT:BlindedVanguard573;
#NOTES:
// measure 0
0000
0000
0000
0000
,  // measure 1
0000
0000
0000
0000
,  // measure 2
0000
0000
0000
0000
,  // measure 3
0000
0000
0000
0000
,  // measure 4
0000
0000
0000
0000
,  // measure 5
0000
0000
1000
1000
,  // measure 6
2000
0000
3000
0000
,  // measure 7
0002
0000
0003
0000
,  // measure 8
0100
0000
0010
0000
,  // measure 9
1000
1000
1000
1000
,  // measure 10
1000
0000
0001
0000
,  // measure 11
0010
0000
0100
0100
,  // measure 12
0100
0000
1000
0000
,  // measure 13
0001
0001
0001
0001
,  // measure 14
0001
0000
0100
0000
,  // measure 15
0010
0000
1000
0000
,  // measure 16
0001
0001
0001
0000
,  // measure 17
1000
1000
1000
1000
,  // measure 18
1000
0000
0010
0000
,  // measure 19
0100
0000
0001
0000
,  // measure 20
1000
1000
1000
0000
,  // measure 21
0001
0001
0001
0001
,  // measure 22
0001
0000
0010
0000
,  // measure 23
0100
0100
0100
0000
,  // measure 24
1000
0000
0001
0000
,  // measure 25
0100
0100
0100
0000
,  // measure 26
0010
0010
0000
1000
,  // measure 27
1000
0000
1001
0000
,  // measure 28
0001
0001
0000
0010
,  // measure 29
0010
0000
0110
0000
,  // measure 30
1000
1000
0000
0001
,  // measure 31
0001
0000
0100
0100
,  // measure 32
0100
0100
0000
0010
,  // measure 33
0010
0000
1000
1000
,  // measure 34
1000
0000
0001
0000
,  // measure 35
0010
0000
0100
0000
,  // measure 36
1000
1000
1000
0000
,  // measure 37
0001
0001
0001
0000
,  // measure 38
0100
0000
0100
0000
,  // measure 39
0010
0000
0010
0000
,  // measure 40
1000
1000
1000
0000
,  // measure 41
0001
0001
0001
0000
,  // measure 42
0010
0010
0010
0000
,  // measure 43
0100
0100
0100
0000
,  // measure 44
1000
1000
1000
0000
,  // measure 45
0001
0000
0001
0000
,  // measure 46
0100
0000
0100
0000
,  // measure 47
0010
0010
0010
0010
,  // measure 48
0010
0000
1000
0000
,  // measure 49
0001
0000
0100
0000
,  // measure 50
0001
0001
0001
0000
,  // measure 51
1000
1000
1000
0000
,  // measure 52
0010
0000
0100
0000
,  // measure 53
1000
0000
0001
0000
,  // measure 54
0100
0100
0100
0000
,  // measure 55
0010
0010
0010
0000
,  // measure 56
1000
1000
1000
0000
,  // measure 57
0001
0001
0001
0000
,  // measure 58
0010
0010
0010
0010
,  // measure 59
0010
0010
0010
0000
,  // measure 60
0100
0100
0100
0100
,  // measure 61
0100
0100
0100
0000
,  // measure 62
1000
1000
1000
1000
,  // measure 63
1000
1000
1000
1000
,  // measure 64
0000
0000
0001
0001
,  // measure 65
0001
0000
0010
0010
,  // measure 66
0010
0000
0100
0100
,  // measure 67
0100
0000
1000
0000
,  // measure 68
0001
0000
0100
0100
,  // measure 69
0100
0000
0010
0010
,  // measure 70
0010
0000
1000
1000
,  // measure 71
1000
0000
0001
0000
,  // measure 72
0000
0010
0010
0000
,  // measure 73
0100
0100
0000
1000
,  // measure 74
0000
0001
0001
0000
,  // measure 75
1000
1000
0000
0000
;

//---------------dance-single - ----------------
#NOTEDATA:;
#CHARTNAME:;
#STEPSTYPE:dance-single;
#DESCRIPTION:;
#CHARTSTYLE:;
#DIFFICULTY:Easy;
#METER:7;
#RADARVALUES:0.344599,0.337839,0.105941,0.032597,0.000000,296.000000,283.000000,13.000000,4.000000,0.000000,0.000000,0.000000,0.000000,0.000000,0.344599,0.337839,0.105941,0.032597,0.000000,296.000000,283.000000,13.000000,4.000000,0.000000,0.000000,0.000000,0.000000,0.000000;
#CREDIT:BlindedVanguard573;
#NOTES:
// measure 0
0000
0000
0000
0000
,  // measure 1
0000
0000
0000
0000
,  // measure 2
0000
0000
0000
0000
,  // measure 3
0000
0000
0000
0000
,  // measure 4
0000
0000
0000
0000
,  // measure 5
0000
0000
1000
0001
,  // measure 6
0002
0003
0100
0010
,  // measure 7
0020
0030
1000
0001
,  // measure 8
1000
0100
0001
0100
,  // measure 9
1000
0001
1000
1001
,  // measure 10
0001
0100
0100
0010
,  // measure 11
0100
0100
0001
1000
,  // measure 12
0100
0010
0010
0100
,  // measure 13
1000
1000
0001
1001
,  // measure 14
1000
0100
1000
0100
,  // measure 15
0010
0001
0010
0001
,  // measure 16
1000
0001
0001
1001
,  // measure 17
0001
0100
0010
1001
,  // measure 18
0001
0010
0001
0010
,  // measure 19
0100
1000
0100
1000
,  // measure 20
0001
1000
1000
1001
,  // measure 21
1000
0100
0010
1001
,  // measure 22
1000
0010
0001
0010
,  // measure 23
0100
0100
0002
1003
,  // measure 24
0001
0010
1000
0010
,  // measure 25
0100
0100
1000
1001
,  // measure 26
1000
0010
0100
1000
,  // measure 27
0100
0100
0010
1001
,  // measure 28
0001
0100
0010
0001
,  // measure 29
0010
0010
0100
1001
,  // measure 30
0001
0000
0001
0001
0000
0000
1000
0000
,  // measure 31
1000
1000
0000
0000
0010
0000
1001
0000
,  // measure 32
0100
0000
0100
0100
0000
0000
0010
0000
,  // measure 33
0010
0010
0000
0000
0100
0000
1001
0000
,  // measure 34
1000
0100
0001
0100
,  // measure 35
1000
0000
0010
0000
0100
0100
0100
0000
,  // measure 36
0001
0010
1000
0010
,  // measure 37
0100
0000
1000
0000
0001
0001
0001
0000
,  // measure 38
0000
1000
1000
0000
1000
0000
1000
0000
,  // measure 39
0010
0100
0001
1000
,  // measure 40
0100
0000
0100
0000
0010
0000
0010
0010
,  // measure 41
0010
0001
0100
0001
,  // measure 42
1000
0010
1000
0100
,  // measure 43
1000
0010
0001
0010
,  // measure 44
0100
0001
1000
0001
,  // measure 45
1000
1000
1000
1000
,  // measure 46
0001
0001
0100
0100
,  // measure 47
0010
0010
0010
0010
,  // measure 48
1000
1000
1000
0100
,  // measure 49
0001
0001
0001
0100
,  // measure 50
0010
0010
0100
0100
,  // measure 51
1000
1000
0001
0001
,  // measure 52
0100
0100
0010
0010
,  // measure 53
1000
1000
0001
0001
,  // measure 54
1000
0100
0010
0100
,  // measure 55
0001
0100
0010
0100
,  // measure 56
1000
1000
1000
1000
,  // measure 57
0010
0010
0100
0100
,  // measure 58
0001
0001
0001
0000
0010
0000
0100
0000
,  // measure 59
1000
1000
1000
0000
0010
0000
0100
0000
,  // measure 60
0001
0100
1000
0100
,  // measure 61
0010
0100
0001
1000
,  // measure 62
0100
0100
0010
0010
,  // measure 63
0001
1000
0001
2000
,  // measure 64
3000
0000
0001
0100
,  // measure 65
0010
0010
0100
0001
,  // measure 66
1000
1000
0100
0010
,  // measure 67
0100
1000
0001
0100
,  // measure 68
1000
0100
0001
1001
,  // measure 69
1000
0100
0010
0010
,  // measure 70
0001
1000
0100
0100
,  // measure 71
1000
0010
0001
0010
,  // measure 72
0100
0001
0001
1000
,  // measure 73
0100
0100
0010
1001
,  // measure 74
1000
0010
0001
0010
,  // measure 75
1000
0001
1000
0001
0000
0000
0000
0000
;

//---------------dance-single - ----------------
#NOTEDATA:;
#CHARTNAME:;
#STEPSTYPE:dance-single;
#DESCRIPTION:;
#CHARTSTYLE:;
#DIFFICULTY:Medium;
#METER:10;
#RADARVALUES:0.541346,0.553745,0.179284,0.171135,0.024448,465.000000,443.000000,22.000000,21.000000,0.000000,0.000000,0.000000,0.000000,0.000000,0.541346,0.553745,0.179284,0.171135,0.024448,465.000000,443.000000,22.000000,21.000000,0.000000,0.000000,0.000000,0.000000,0.000000;
#CREDIT:BlindedVanguard573;
#NOTES:
// measure 0
0000
0000
0000
0000
,  // measure 1
0000
0000
0000
0000
,  // measure 2
0000
0000
0000
0000
,  // measure 3
0000
0000
0000
0000
,  // measure 4
0000
0000
0000
0000
,  // measure 5
0000
0000
0000
0000
1000
0001
1000
0002
,  // measure 6
0000
0000
0103
0000
0001
1000
0001
2000
,  // measure 7
0000
0000
3100
0000
1000
0001
1000
0002
,  // measure 8
0000
0023
0000
2030
0000
3020
0000
0230
,  // measure 9
0000
0010
0010
0010
0310
0000
1001
0000
,  // measure 10
0001
0100
0001
0100
0010
0100
0000
0001
,  // measure 11
1000
0001
1000
0100
0000
0010
0001
1000
,  // measure 12
0000
0001
0100
0010
0100
0001
0000
1000
,  // measure 13
0100
0010
0100
1000
0000
0001
1000
0001
,  // measure 14
1001
0000
1000
0100
1000
0100
0000
0020
,  // measure 15
0000
0100
0130
0000
1000
0001
0000
1000
,  // measure 16
0010
0100
0100
0000
0010
0000
1001
0000
,  // measure 17
0001
0010
1000
0010
0000
0100
1000
0001
,  // measure 18
1001
0000
0001
0010
0001
0010
0000
0100
,  // measure 19
0000
0010
0010
0000
0001
1000
0001
0100
,  // measure 20
0000
0010
0010
0100
0100
0001
0001
0000
,  // measure 21
1000
0000
0000
0100
0000
0000
0001
0000
0000
0010
0000
0000
1000
0000
0001
0000
,  // measure 22
1000
1100
0001
0101
,  // measure 23
1000
0100
0001
0100
0020
0000
0130
0000
,  // measure 24
1000
0010
0100
0000
0001
0100
0010
0000
,  // measure 25
1000
0100
0001
0100
1000
0001
1000
0000
,  // measure 26
0010
0010
0100
0000
0000
0001
0001
0001
,  // measure 27
1000
0100
0010
0000
0110
0000
1001
0000
,  // measure 28
1000
1000
0001
0000
0000
1000
0010
0100
,  // measure 29
0010
0010
1000
1000
0001
0001
0100
0100
,  // measure 30
0001
0010
0100
0010
0000
0000
0001
0100
,  // measure 31
0010
0100
0000
0001
1000
0001
1000
0000
,  // measure 32
0100
1000
0010
1000
0000
0000
0001
0100
,  // measure 33
0001
0010
0000
0100
1000
0001
1001
0000
,  // measure 34
2000
3010
0200
0301
,  // measure 35
1000
0100
0010
0001
0010
0100
1000
0000
,  // measure 36
0001
0100
0001
0100
0010
1000
0010
1000
,  // measure 37
0001
0010
0100
1000
0100
0010
0001
2000
,  // measure 38
0000
0100
0100
3100
,  // measure 39
1000
0010
0100
0000
0100
0010
1000
0000
,  // measure 40
0101
0000
1010
0000
0101
0000
1010
1000
,  // measure 41
0001
0010
0010
0000
0100
1000
1000
0000
,  // measure 42
0001
0100
0100
0000
0010
1000
1000
0000
,  // measure 43
0001
0001
1000
1000
0010
0010
0100
0100
,  // measure 44
0001
0100
0010
0000
0010
0100
0001
1000
,  // measure 45
0001
0010
0001
0010
0001
0010
0001
0010
,  // measure 46
0100
1000
0100
1000
0100
1000
0100
1000
,  // measure 47
0001
0100
1000
0000
1000
0100
0001
1000
,  // measure 48
1000
0100
0100
0010
0010
0001
0001
0010
,  // measure 49
0010
0100
0100
1000
1000
0001
0001
1000
,  // measure 50
1000
0010
0010
0100
0100
0001
0001
0100
,  // measure 51
0100
0010
0010
1000
1000
0001
0001
0100
,  // measure 52
0100
0000
0010
0010
0010
0000
1000
1000
,  // measure 53
1000
0000
0001
0001
0001
0000
0010
0010
,  // measure 54
0110
1001
0110
1001
,  // measure 55
1100
0011
0101
1010
,  // measure 56
0010
1000
0100
1000
0010
1000
0100
0000
,  // measure 57
0010
0001
0100
0001
0010
0001
0100
0000
,  // measure 58
0001
1000
0100
0000
1000
0001
0010
0000
,  // measure 59
0001
1000
0010
0000
1000
0001
0100
0000
,  // measure 60
0001
0010
0100
1000
0100
0010
0001
1000
,  // measure 61
0001
0100
0010
1000
0010
0100
0001
1000
,  // measure 62
0001
0000
0000
0010
0000
0000
0100
0000
0000
1000
0000
0000
0001
0000
0100
0000
,  // measure 63
0010
0100
0010
0100
0010
0100
0020
0030
,  // measure 64
0000
0000
0000
0000
1000
0001
1000
0002
,  // measure 65
0000
0100
0100
0103
0001
1000
0001
2000
,  // measure 66
0000
0100
0100
3100
1000
0001
1000
0002
,  // measure 67
0000
0103
1000
0100
0001
1000
0001
1000
,  // measure 68
0100
0000
0000
0100
0000
0000
0010
0000
0000
0010
0000
0000
0001
0000
2000
0000
,  // measure 69
0000
0010
0010
3010
1000
0001
0010
0002
,  // measure 70
0000
0100
0100
0103
0001
1000
0100
0020
,  // measure 71
0000
0130
1000
0001
0100
1000
0100
0010
,  // measure 72
0000
1000
1000
0100
0100
0010
0001
1000
,  // measure 73
1000
0010
0100
0001
0000
1000
0100
0001
,  // measure 74
0000
0100
0100
0010
0010
0001
0000
1000
,  // measure 75
1000
0001
0001
0220
0330
0000
0000
0000
;
