#VERSION:0.83;
#TITLE:Crystalia;
#SUBTITLE:;
#ARTIST:DJ TOTTO;
#TITLETRANSLIT:;
#SUBTITLETRANSLIT:;
#ARTISTTRANSLIT:;
#GENRE:;
#ORIGIN:;
#CREDIT:;
#BANNER:Crystalia.png;
#BACKGROUND:Crystalia-bg.png;
#PREVIEWVID:;
#JACKET:Crystalia-jacket.png;
#CDIMAGE:;
#DISCIMAGE:;
#LYRICSPATH:;
#CDTITLE:;
#MUSIC:Crystalia.ogg;
#OFFSET:-0.451000;
#SAMPLESTART:91.759895;
#SAMPLELENGTH:12.000000;
#SELECTABLE:YES;
#BPMS:0.000=270.000;
#STOPS:;
#DELAYS:;
#WARPS:;
#TIMESIGNATURES:0.000=4=4;
#TICKCOUNTS:0.000=4;
#COMBOS:0.000=1;
#SPEEDS:0.000=1.000=0.000=0;
#SCROLLS:0.000=0.666,
124.000=1.000,
316.000=0.666,
409.000=1.000;
#FAKES:;
#LABELS:0.000=Song Start,
219.000=XX XX XXX 1,
225.000=2,
231.000=3,
237.000=4,
243.000=5,
249.000=6,
255.000=7,
261.000=8,
267.000=9,
273.000=10,
279.000=11,
285.000=12,
291.000=13,
297.000=14,
303.000=15,
309.000=16,
411.000=A,
423.000=B,
435.000=C,
447.000=D,
459.000=E,
471.000=F,
483.000=G,
495.000=H;
#BGCHANGES:;
#KEYSOUNDS:;
#ATTACKS:
;

//---------------dance-single - ----------------
#NOTEDATA:;
#CHARTNAME:;
#STEPSTYPE:dance-single;
#DESCRIPTION:;
#CHARTSTYLE:;
#DIFFICULTY:Challenge;
#METER:15;
#RADARVALUES:0.556354,0.937804,0.222306,0.601051,0.000000,473.000000,446.000000,27.000000,73.000000,4.000000,0.000000,0.000000,0.000000,0.000000,0.556354,0.937804,0.222306,0.601051,0.000000,473.000000,446.000000,27.000000,73.000000,4.000000,0.000000,0.000000,0.000000,0.000000;
#CREDIT:;
#NOTES:
// measure 0
0000
0000
0000
0000
,  // measure 1
0000
0000
0000
0000
,  // measure 2
0000
0000
0000
0000
,  // measure 3
0000
0000
0000
0000
,  // measure 4
0000
0000
0000
0000
,  // measure 5
0000
0000
0000
0000
,  // measure 6
0000
0000
0000
0000
,  // measure 7
0000
0000
0000
0000
,  // measure 8
0000
0000
0000
0000
,  // measure 9
0000
0000
0000
0000
,  // measure 10
0000
0000
0000
0000
,  // measure 11
0000
0000
0000
0000
,  // measure 12
0000
0000
0000
0000
,  // measure 13
2000
0000
0000
0000
,  // measure 14
0000
0000
0000
0000
0002
0000
0000
3000
,  // measure 15
0000
0000
0200
0000
0000
0003
0000
0000
,  // measure 16
0020
0000
0000
0300
0000
0000
2000
0000
,  // measure 17
0000
0000
0030
0000
,  // measure 18
0000
3002
0023
0230
,  // measure 19
2300
0000
0000
0000
,  // measure 20
0000
0000
0000
0000
0020
0000
0000
3000
,  // measure 21
0000
0000
0200
0000
0000
0030
0000
0000
,  // measure 22
0002
0000
0000
0300
,  // measure 23
0000
0000
0020
0000
,  // measure 24
0000
0003
0000
0000
,  // measure 25
0130
0000
0000
1000
,  // measure 26
0000
0000
0010
0000
,  // measure 27
0000
0001
0000
0000
,  // measure 28
0100
0000
0000
1000
,  // measure 29
0000
0000
0010
0000
,  // measure 30
0000
0002
0000
0000
,  // measure 31
1003
1100
0000
0001
,  // measure 32
0011
0000
1000
1010
,  // measure 33
0000
0001
0100
0010
,  // measure 34
1000
1010
0000
0001
,  // measure 35
0011
0000
1000
1100
,  // measure 36
0000
0000
0001
1000
0010
0000
0100
0000
,  // measure 37
0001
1100
0000
1000
,  // measure 38
0011
0000
0001
1010
,  // measure 39
0000
0001
0100
0010
,  // measure 40
1010
1001
0000
0011
,  // measure 41
1001
0000
0000
0000
1010
0000
1000
0001
,  // measure 42
0000
0001
1000
0100
0010
0000
0001
0000
,  // measure 43
0101
0000
0100
0010
0000
0000
0001
0000
,  // measure 44
0010
1000
1100
0101
,  // measure 45
1000
0001
0010
0100
,  // measure 46
1100
0000
0100
0010
0000
0000
1000
0000
,  // measure 47
0010
0001
0101
1100
,  // measure 48
0001
0000
1000
0010
0100
0000
0001
0000
,  // measure 49
0011
0000
0010
1000
0000
0000
0010
0000
,  // measure 50
0001
0100
1010
1100
,  // measure 51
0100
1000
0010
0100
,  // measure 52
1010
0000
0010
0001
0000
0000
0010
0000
,  // measure 53
1000
0100
0011
0101
,  // measure 54
0100
0000
0001
0010
0100
0000
0100
1000
,  // measure 55
0001
0100
0000
0001
0100
0000
0010
1000
,  // measure 56
0001
0000
0010
0000
0100
1000
0000
0100
,  // measure 57
1000
0000
0001
0100
0010
1000
0001
0000
,  // measure 58
1000
0100
0000
1000
0100
0000
0010
0001
,  // measure 59
1000
0000
0010
0000
0100
0001
0000
0100
,  // measure 60
0001
0000
1000
0100
0010
0001
0100
0000
,  // measure 61
0010
0100
0000
0100
0010
0000
1000
0100
,  // measure 62
0010
0000
0001
0000
0010
0100
0000
0100
,  // measure 63
0010
0000
0001
0100
0010
1000
0100
0000
,  // measure 64
0100
0010
0000
0010
0100
0000
0010
0001
,  // measure 65
0100
0000
1000
0000
0100
0010
0000
0010
,  // measure 66
0100
0000
0010
1000
0100
0001
0100
1000
,  // measure 67
0010
1000
0000
1000
0010
0000
0100
0001
,  // measure 68
0010
0000
1000
0000
0010
0001
0000
0001
,  // measure 69
0010
0000
0100
1000
0010
0100
0010
1000
,  // measure 70
0100
1000
0000
1000
0100
0000
0010
0001
,  // measure 71
0100
0000
1000
0000
0100
0001
0000
0001
,  // measure 72
0100
0000
0010
0100
0001
0010
0001
0100
,  // measure 73
0010
1000
0000
1000
0100
0000
0001
0100
,  // measure 74
1000
0000
0001
0000
0010
0001
0000
0001
,  // measure 75
0100
0000
0100
1000
0100
0001
1000
0100
,  // measure 76
0010
0001
0000
0001
0100
0000
1000
0100
,  // measure 77
0001
0000
0010
0000
0100
1000
0000
1000
,  // measure 78
0010
0000
0100
0001
0010
1000
0001
0100
,  // measure 79
2000
0000
0000
0200
,  // measure 80
0000
3000
0000
0000
0020
0000
0000
0300
,  // measure 81
0000
0000
0002
0000
0000
0030
0000
0000
,  // measure 82
0203
0000
0000
0010
0000
0000
0010
0000
,  // measure 83
0000
0000
0000
0000
0302
0000
0000
0010
,  // measure 84
0000
0010
0000
0000
,  // measure 85
0200
0000
0000
0003
0000
0000
0020
0000
,  // measure 86
0000
0300
0000
0000
2000
0000
0000
0030
,  // measure 87
0000
0000
0200
0000
0000
3000
0000
0000
,  // measure 88
0320
0000
0000
0001
0000
0000
0001
0000
,  // measure 89
0032
2003
3002
0000
,  // measure 90
0000
0000
0200
0000
0000
0003
0000
0000
,  // measure 91
0320
0000
0000
2000
,  // measure 92
0000
0030
0000
0000
0200
0000
0000
3000
,  // measure 93
0000
0000
0002
0000
0000
0300
0000
0000
,  // measure 94
0200
0000
0000
0003
,  // measure 95
0000
0000
0320
0000
,  // measure 96
0002
0030
0200
0003
,  // measure 97
0020
0000
0000
0000
0000
0300
0000
0000
,  // measure 98
2030
3200
0002
0000
,  // measure 99
0000
0300
0000
0000
2003
0000
3020
0000
,  // measure 100
0002
0000
0000
0030
,  // measure 101
0000
0000
0200
0000
,  // measure 102
0303
0000
MMMM
0000
0000
0000
0001
0100
,  // measure 103
0010
1000
0001
1000
0002
0000
0013
0001
,  // measure 104
1000
0001
2000
0000
3100
1000
0001
1000
,  // measure 105
0002
0000
0103
0001
1000
0000
1000
0100
,  // measure 106
0010
0001
1000
0001
1000
0010
0200
0000
,  // measure 107
0301
0100
0010
1000
0002
0000
0023
0000
,  // measure 108
0230
0000
2300
0000
3000
0000
0010
1000
,  // measure 109
0100
0010
0001
1000
0002
0000
0103
0010
,  // measure 110
1000
0001
2000
0000
3100
0010
0001
1000
,  // measure 111
0001
0100
0010
1000
0100
0001
0100
0010
,  // measure 112
0002
0000
0103
2000
,  // measure 113
0000
0000
3100
0001
0020
0000
2030
0000
,  // measure 114
3002
0203
2300
3020
,  // measure 115
0130
0001
0010
0100
0020
0000
0130
1000
,  // measure 116
0010
0100
0020
0000
0130
0001
0010
0100
,  // measure 117
0010
1000
0010
0100
2000
0000
3100
0010
,  // measure 118
0001
0010
0001
0100
0001
0010
0200
0000
,  // measure 119
1300
0010
0100
0001
0020
0000
0230
0000
,  // measure 120
2300
0000
3002
0000
0000
0000
1003
0010
,  // measure 121
0100
1000
0100
0010
0100
0001
0010
0100
,  // measure 122
0001
0100
0010
1000
0010
0100
1000
0010
,  // measure 123
0100
1000
0100
0010
0100
0001
1000
0000
,  // measure 124
0001
0100
1000
0100
0001
0000
1000
0100
,  // measure 125
0001
0100
1000
0100
0010
0001
0100
1000
,  // measure 126
0001
0010
1000
0010
0001
0010
0100
0000
,  // measure 127
0000
0000
0000
0000
,  // measure 128
0220
0000
0000
0000
,  // measure 129
0000
0000
0000
0000
,  // measure 130
0000
0000
0000
0000
,  // measure 131
0000
0000
0000
0000
,  // measure 132
0000
0000
0000
0000
,  // measure 133
0000
0000
0000
0000
,  // measure 134
0330
0000
0000
0000
;

//---------------dance-single - ----------------
#NOTEDATA:;
#CHARTNAME:;
#STEPSTYPE:dance-single;
#DESCRIPTION:;
#CHARTSTYLE:;
#DIFFICULTY:Hard;
#METER:14;
#RADARVALUES:0.478723,0.821299,0.082336,0.609284,0.000000,407.000000,397.000000,10.000000,74.000000,0.000000,0.000000,0.000000,0.000000,0.000000,0.478723,0.821299,0.082336,0.609284,0.000000,407.000000,397.000000,10.000000,74.000000,0.000000,0.000000,0.000000,0.000000,0.000000;
#CREDIT:;
#NOTES:
0000
0000
0000
0000
,
0000
0000
0000
0000
,
0000
0000
0000
0000
,
0000
0000
0000
0000
,
0000
0000
0000
0000
,
0000
0000
0000
0000
,
0000
0000
0000
0000
,
0000
0000
0000
0000
,
0000
0000
0000
0000
,
0000
0000
0000
0000
,
0000
0000
0000
0000
,
0000
0000
0000
0000
,
0000
0000
0000
0000
,
2000
0000
0000
0000
,
0000
0000
3002
0000
,
0000
0203
0000
0000
,
0320
0000
0000
2030
,
0000
0000
0000
0000
,
0000
3002
0023
0230
,
2300
0000
0000
0000
,
0000
0000
3020
0000
,
0000
0230
0000
0000
,
0302
0000
0000
0000
,
0000
0000
2000
0000
,
0000
0000
0000
3003
,
0001
0000
0000
0010
,
0000
0000
0100
0000
,
0000
1000
0000
0000
,
0010
0000
0000
0100
,
0000
0000
0001
0000
,
0000
2000
0000
0000
,
3010
0010
0000
1000
,
1000
0000
0100
0100
,
0000
0010
0100
1000
,
0010
0010
0000
0100
,
0100
0000
0001
0001
,
0000
0000
1000
0100
0010
0000
0001
0000
,
0100
0101
0000
0010
,
0110
0000
1000
1100
,
0000
0001
0010
0100
,
1000
1010
0000
0001
,
0101
0000
0000
0000
1000
0000
1000
0001
,
0000
0001
1000
0000
0100
0000
0010
0000
,
0001
0000
1000
0010
0000
0000
0100
0000
,
0001
0010
0100
1100
,
0100
0010
1000
0010
,
0001
0000
1000
0010
0000
0000
0100
0000
,
0001
0010
0100
0110
,
1000
0000
0001
0100
0010
0000
1000
0000
,
0100
0000
0010
0001
0000
0000
1000
0000
,
0001
0100
0010
0110
,
0100
1000
0100
0001
,
0010
0000
0100
1000
0000
0000
0010
0000
,
0100
0001
0010
0110
,
1000
0000
0001
0100
0010
0000
1000
0000
,
0001
0010
0000
0001
0010
0000
0200
0000
,
1300
0000
0001
0000
1000
0010
0000
1000
,
0010
0200
0302
0023
,
0130
0010
0000
0100
0010
0000
0002
0000
,
0103
0000
0010
0000
1000
0010
0000
1000
,
0010
0000
0100
0001
0000
0010
0001
0000
,
0001
0100
0000
0010
1000
0000
0002
0000
,
0013
0000
0100
0000
1000
0100
0000
0010
,
0001
2000
3020
0230
,
0301
0010
0000
0100
1000
0000
0002
0000
,
0103
0000
0010
0000
1000
0010
0000
0100
,
0001
0000
1000
0001
1000
0001
1000
0000
,
0010
1000
0000
0100
0010
0000
0001
1000
,
0001
0000
0010
0000
0100
0010
0000
0001
,
0100
0020
2030
3200
,
0310
0001
0000
0100
0010
0000
1000
0001
,
1000
0000
0100
0000
0010
0100
0000
1000
,
0010
0000
0100
0001
0000
0010
0100
0000
,
1000
0100
0000
0001
0100
0000
0010
0100
,
0010
0000
0100
0000
1000
0010
0000
0001
,
0010
0000
0100
0001
1000
0001
0100
0000
,
0001
0010
0000
1000
0010
0000
0100
1000
,
0100
0000
0010
0000
0001
0100
0000
1000
,
0100
0000
0010
1000
0010
1000
0100
0010
,
0002
0000
0000
2003
,
0000
0000
3020
0000
,
0000
0230
0000
0000
,
0302
0000
0000
0000
,
0000
0000
2003
0000
,
0000
0000
0000
0000
,
3200
0000
0000
0320
,
0000
0000
0032
0000
,
0000
0203
0000
0000
,
0320
0000
0000
0000
,
2030
3002
2003
0000
,
0000
3200
0000
0000
,
2300
0000
0000
3020
,
0000
0000
0230
0000
,
0000
0302
0000
0000
,
0023
0000
0000
0000
,
0000
0000
0230
0000
,
2300
0000
3020
0000
,
0230
0000
0000
0000
,
0302
0023
0230
0000
,
0000
0000
2300
3020
,
0230
0000
0000
0000
,
0000
0000
0302
0000
,
0000
1003
0000
0000
,
0001
0000
0100
0001
0100
0000
0010
0000
,
1000
0010
1000
0000
0100
0000
1000
0100
,
1000
0000
0100
0010
0001
0000
1000
0000
,
0001
0000
0100
0010
0100
0010
1000
0000
,
0100
0001
0100
1000
,
0010
0200
0000
0301
,
1000
0000
0100
1000
0100
0000
0010
0000
,
0001
0010
0001
0000
0100
0000
0001
0100
,
0001
0000
1000
0100
1000
0100
1000
0000
,
0002
0000
0013
0200
,
0000
0000
1300
0001
2000
0000
3200
0000
,
0320
0032
0203
0320
,
1030
0001
1000
0001
1000
0000
0100
1000
,
0100
1000
0100
0000
0010
0001
0010
0001
,
0010
0000
0001
0100
0010
0000
1000
0000
,
0001
0100
0001
0100
0001
1000
0020
0000
,
0130
0000
0010
1000
0200
0000
0320
0000
,
0032
2003
0000
3001
,
1000
0010
0100
0000
0001
0010
0001
1000
,
0001
0000
0010
0001
0010
0100
0010
0000
,
0100
1000
0001
0000
0100
0000
0010
0000
,
1000
0010
0100
0001
1000
0000
0001
0010
,
0100
1000
0001
0000
0100
0010
0100
0000
,
0010
1000
0001
0010
0100
1000
0001
0000
,
0000
0000
0000
0000
,
0220
0000
0000
0000
,
0000
0000
0000
0000
,
0000
0000
0000
0000
,
0000
0000
0000
0000
,
0000
0000
0000
0000
,
0330
0000
0000
0000
;

//---------------dance-single - ----------------
#NOTEDATA:;
#CHARTNAME:;
#STEPSTYPE:dance-single;
#DESCRIPTION:;
#CHARTSTYLE:;
#DIFFICULTY:Medium;
#METER:11;
#RADARVALUES:0.351691,0.711792,0.016467,0.337576,0.000000,299.000000,297.000000,2.000000,41.000000,0.000000,0.000000,0.000000,0.000000,0.000000,0.351691,0.711792,0.016467,0.337576,0.000000,299.000000,297.000000,2.000000,41.000000,0.000000,0.000000,0.000000,0.000000,0.000000;
#CREDIT:;
#NOTES:
0000
0000
0000
0000
,
0000
0000
0000
0000
,
0000
0000
0000
0000
,
0000
0000
0000
0000
,
0000
0000
0000
0000
,
0000
0000
0000
0000
,
0000
0000
0000
0000
,
0000
0000
0000
0000
,
0000
0000
0000
0000
,
0000
0000
0000
0000
,
0000
0000
0000
0000
,
0000
0000
0000
0000
,
0000
0000
0000
0000
,
2000
0000
0000
0000
,
0000
0000
3002
0000
,
0000
0000
0000
0000
,
0203
0000
0000
0000
,
0000
0000
0320
0000
,
0000
0000
0000
0000
,
2030
0000
0000
0000
,
0000
0000
3200
0000
,
0000
0000
0000
0000
,
0320
0000
0000
0000
,
0000
0000
0032
0000
,
0000
0000
0000
0000
,
1003
0000
0000
0100
,
0000
0000
0010
0000
,
0000
0001
0000
0000
,
1000
0000
0000
0010
,
0000
0000
0100
0000
,
0000
0002
0000
0000
,
1003
1000
0000
0010
,
0010
0000
0100
0100
,
0000
0001
0010
0100
,
0010
0010
0000
0001
,
0001
0000
1000
1000
,
0000
0001
0100
0010
,
1000
0100
0000
0100
,
0010
0000
0010
0001
,
0000
0001
1000
0010
,
0100
1000
0000
0100
,
0010
0000
0100
0001
,
0000
1000
0100
0010
,
0001
0000
0000
0001
0000
0000
1000
0000
,
0010
0100
0001
0001
,
0000
0010
0010
0100
,
1000
0000
0000
1000
0000
0000
0001
0000
,
0100
0010
1000
1000
,
0000
0100
0100
0010
,
0001
0000
0000
0100
0000
0000
0010
0000
,
1000
0100
0010
0010
,
0000
0100
0010
0001
,
1000
0000
0000
0010
0000
0000
0100
0000
,
0001
0010
0100
0100
,
1000
2002
0000
3003
,
0001
0000
0000
0001
0000
0000
1000
0000
,
0010
0000
0100
0000
0010
0000
0000
0010
,
0000
1000
0100
0010
,
0001
0000
0000
0001
0000
0000
1000
0000
,
0001
0000
0100
0000
0010
0000
0000
0010
,
0000
0000
1000
0100
0000
1000
0100
0000
,
0010
0000
0000
0001
0000
0000
0100
0000
,
1000
0000
0100
0000
0001
0000
0000
0010
,
0000
0100
1000
0100
,
0001
0000
0000
0100
0000
0000
0010
0000
,
0001
0000
0100
0000
1000
0000
0000
0100
,
0000
0000
0001
1000
0001
0000
0010
0000
,
0100
0000
0000
0001
0000
0000
0100
0000
,
1000
0000
0010
0000
0100
0000
0000
1000
,
0000
0100
0001
0010
,
0100
0000
0000
0001
0000
0000
0100
0000
,
1000
0000
0010
0000
0100
0000
0000
1000
,
0000
0000
0100
0001
0000
0100
0001
0000
,
0010
0000
0000
1000
0000
0000
0010
0000
,
0001
0000
0100
0000
0010
0000
0000
0001
,
0000
0010
1000
0001
,
0010
0000
0000
1000
0000
0000
0010
0000
,
0100
0000
1000
0000
0010
0000
0000
0100
,
0000
0000
0001
1000
0001
0000
1000
0000
,
0200
0000
0000
0000
,
0000
0000
0320
0000
,
0000
0000
0000
0000
,
0032
0000
0000
0000
,
0000
0000
2003
0000
,
0000
0000
0000
0000
,
3002
0000
0000
0000
,
0000
0000
0203
0000
,
0000
0000
0000
0000
,
0320
0000
0000
0000
,
0000
0000
2030
0000
,
0000
0000
0000
0000
,
3200
0000
0000
0320
,
0000
0000
0032
0000
,
0000
2003
0000
0000
,
3020
0000
0000
0000
,
0000
0000
0230
0000
,
0302
0000
0023
0000
,
0230
0000
0000
0000
,
2300
3200
0320
0000
,
0000
0000
0032
0203
,
0320
0000
0000
0000
,
0000
0000
2030
0000
,
0000
3000
0000
0000
,
0001
0100
0001
1000
,
0100
1000
0001
0100
,
0001
0100
0010
1000
,
0100
0010
0100
1000
,
0001
1000
0010
0100
,
0001
2000
0000
3100
,
0010
0001
0010
0100
,
1000
0100
1000
0010
,
1000
0001
0100
0010
,
2000
0000
3100
0020
,
0000
0031
0100
0010
,
1000
0001
0001
0001
,
1000
1000
0100
0010
,
0010
0001
0100
0100
,
1000
0001
0010
1000
,
0001
0001
0010
0100
,
0100
1000
0010
0001
,
0010
2000
0000
3001
,
0010
0010
0010
0100
,
0100
0100
1000
1000
,
1000
0001
0001
0001
,
0100
0001
0100
0000
0001
0000
1000
0100
,
1000
0000
0100
0000
0010
0001
0010
0000
,
0001
0000
1000
0001
1000
0001
1000
0000
,
0000
0000
0000
0000
,
2002
0000
0000
0000
,
0000
0000
0000
0000
,
0000
0000
0000
0000
,
0000
0000
0000
0000
,
0000
0000
0000
0000
,
3003
0000
0000
0000
;

//---------------dance-single - ----------------
#NOTEDATA:;
#CHARTNAME:;
#STEPSTYPE:dance-single;
#DESCRIPTION:;
#CHARTSTYLE:;
#DIFFICULTY:Easy;
#METER:8;
#RADARVALUES:0.265827,0.485369,0.247007,0.247007,0.000000,226.000000,196.000000,30.000000,30.000000,0.000000,0.000000,0.000000,0.000000,0.000000,0.265827,0.485369,0.247007,0.247007,0.000000,226.000000,196.000000,30.000000,30.000000,0.000000,0.000000,0.000000,0.000000,0.000000;
#CREDIT:;
#NOTES:
0000
0000
0000
0000
,
0000
0000
0000
0000
,
0000
0000
0000
0000
,
0000
0000
0000
0000
,
0000
0000
0000
0000
,
0000
0000
0000
0000
,
0000
0000
0000
0000
,
0000
0000
0000
0000
,
0000
0000
0000
0000
,
0000
0000
0000
0000
,
0000
0000
0000
0000
,
0000
0000
0000
0000
,
0000
0000
0000
0000
,
0002
0000
0000
0000
,
0000
0000
2003
0000
,
0000
0000
0000
0000
,
3020
0000
0000
0000
,
0000
0000
0230
0000
,
0000
0000
0000
0000
,
0302
0000
0000
0000
,
0000
0000
0023
0000
,
0000
0000
0000
0000
,
0230
0000
0000
0000
,
0000
0000
2300
0000
,
0000
0000
0000
0000
,
3001
0000
0000
0010
,
0000
0000
0100
0000
,
0000
1000
0000
0000
,
0001
0000
0000
0100
,
0000
0000
0010
0000
,
0000
2000
3000
0000
,
1001
0000
0000
1001
,
0000
0000
1100
0000
,
0000
1000
0100
0010
,
0011
0000
0000
0011
,
0000
0000
0101
0000
,
0000
0001
0100
0010
,
1010
0000
0000
0101
,
0000
0000
0011
0000
,
0000
0001
0010
0100
,
1100
0000
0000
0011
,
0000
0000
0101
0000
,
0000
1000
0001
0100
,
0110
0000
0000
0010
,
1000
0010
1000
0000
,
0000
0001
0010
0100
,
1000
0000
0000
0001
,
0100
0001
0100
0000
,
0000
0010
1000
0100
,
0010
0000
0000
0001
,
1000
0001
1000
0000
,
0000
0001
0100
0010
,
1010
0000
0000
0101
,
0000
0000
0011
0000
,
0000
1100
0000
0000
,
0001
0000
0000
0001
,
0000
0000
1000
0000
,
0000
0001
0010
0100
,
0010
0000
0000
0010
,
0000
0000
0001
0000
,
0000
1000
0001
0100
,
0010
0000
0000
0010
,
0000
0000
1000
0000
,
0000
0001
1000
0100
,
0010
0000
0000
0010
,
0000
0000
0001
0000
,
0000
1000
0001
0100
,
0110
0000
0000
1010
,
0000
0000
0101
0000
,
0000
1000
0100
0010
,
0011
0000
0000
1100
,
0000
0000
1001
0000
,
0000
0110
0000
0000
,
1001
0000
0000
0101
,
0000
0000
0110
0000
,
0000
0010
1000
0100
,
0110
0000
0000
0011
,
0000
0000
1001
0000
,
0000
1000
0001
0100
,
0020
0000
0000
0000
,
0000
0000
2030
0000
,
0000
0000
0000
0000
,
3002
0000
0000
0000
,
0000
0000
0023
0000
,
0000
0000
0000
0000
,
0230
0000
0000
0000
,
0000
0000
2300
0000
,
0000
0000
0000
0000
,
3002
0000
0000
0000
,
0000
0000
0203
0000
,
0000
0000
0000
0000
,
0320
0000
0000
2030
,
0000
0000
3200
0000
,
0000
0320
0000
0000
,
0032
0000
0000
0000
,
0000
0000
2003
0000
,
3002
0000
0203
0000
,
0320
0000
0000
0000
,
0000
0000
2030
0000
,
0000
0000
0000
0000
,
3200
0000
0000
0000
,
0000
0000
0320
0000
,
0000
0030
0000
0000
,
0001
0000
0000
1000
,
0000
0000
0001
0000
,
0000
1000
0010
0001
,
0010
0000
0000
1000
,
0000
0000
0001
0010
,
0100
1000
0000
0001
,
1000
0000
0000
0001
,
0000
0000
1000
0000
,
0000
0001
0100
1000
,
0100
0000
0000
0001
,
0000
0000
0010
0100
,
0010
0100
0000
0000
,
1000
0000
0001
0100
,
0000
0001
1000
0000
,
0001
0010
0000
0000
,
0100
0000
1000
0001
,
0000
1000
0010
0100
,
0001
1000
0000
0001
,
0100
0000
0010
1000
,
0000
0100
0010
0000
,
0001
1000
0000
0010
,
0100
0001
0100
0001
,
1000
0001
1000
0100
,
1000
0100
0010
0001
,
0000
0000
0000
0000
,
2000
0000
0000
0000
,
0000
0000
0000
0000
,
0000
0000
0000
0000
,
3000
0000
0000
0000
;

//---------------dance-single - Challenge but jacks----------------
#NOTEDATA:;
#CHARTNAME:;
#STEPSTYPE:dance-single;
#DESCRIPTION:Challenge but jacks;
#CHARTSTYLE:;
#DIFFICULTY:Edit;
#METER:16;
#RADARVALUES:0.556354,0.937804,0.222306,0.592817,0.000000,473.000000,446.000000,27.000000,72.000000,4.000000,0.000000,0.000000,0.000000,0.000000,0.556354,0.937804,0.222306,0.592817,0.000000,473.000000,446.000000,27.000000,72.000000,4.000000,0.000000,0.000000,0.000000,0.000000;
#CREDIT:;
#NOTES:
0000
0000
0000
0000
,
0000
0000
0000
0000
,
0000
0000
0000
0000
,
0000
0000
0000
0000
,
0000
0000
0000
0000
,
0000
0000
0000
0000
,
0000
0000
0000
0000
,
0000
0000
0000
0000
,
0000
0000
0000
0000
,
0000
0000
0000
0000
,
0000
0000
0000
0000
,
0000
0000
0000
0000
,
0000
0000
0000
0000
,
2000
0000
0000
0000
,
0000
0000
0000
0000
0002
0000
0000
3000
,
0000
0000
0200
0000
0000
0003
0000
0000
,
0020
0000
0000
0300
0000
0000
2000
0000
,
0000
0000
0030
0000
,
0000
3002
0023
0230
,
2300
0000
0000
0000
,
0000
0000
0000
0000
0020
0000
0000
3000
,
0000
0000
0200
0000
0000
0030
0000
0000
,
0002
0000
0000
0300
,
0000
0000
0020
0000
,
0000
0003
0000
0000
,
0130
0000
0000
1000
,
0000
0000
0010
0000
,
0000
0001
0000
0000
,
0100
0000
0000
1000
,
0000
0000
0010
0000
,
0000
0002
0000
0000
,
1003
1100
0000
0001
,
0011
0000
1000
1010
,
0000
0001
0100
0010
,
1000
1010
0000
0001
,
0011
0000
1000
1100
,
0000
0000
0001
1000
0010
0000
0100
0000
,
0001
1100
0000
1000
,
0011
0000
0001
1010
,
0000
0001
0100
0010
,
1010
1001
0000
0011
,
1001
0000
0000
0000
1010
0000
1000
0001
,
0000
0001
1000
0100
0010
0000
0001
0000
,
0101
0000
0100
0010
0000
0000
0001
0000
,
0010
1000
1100
0101
,
1000
0001
0010
0100
,
1100
0000
0100
0010
0000
0000
1000
0000
,
0010
0001
0101
1100
,
0001
0000
1000
0010
0100
0000
0001
0000
,
0011
0000
0010
1000
0000
0000
0010
0000
,
0001
0100
1010
1100
,
0100
1000
0010
0100
,
1010
0000
0010
0001
0000
0000
0010
0000
,
1000
0100
0011
0101
,
0100
0000
0001
0010
0100
0000
0100
1000
,
0001
0100
0000
0001
0100
0000
0010
1000
,
0001
0000
0010
0000
0100
1000
0000
0100
,
1000
0000
0001
0100
0010
1000
0001
0000
,
1000
0100
0000
1000
0100
0000
0010
0001
,
1000
0000
0010
0000
0100
0001
0000
0100
,
0001
0000
1000
0100
0010
0001
0100
0000
,
0010
0100
0000
0100
0010
0000
1000
0100
,
0010
0000
0001
0000
0010
0100
0000
0100
,
0010
0000
0001
0100
0010
1000
0100
0000
,
0100
0010
0000
0010
0100
0000
0010
0001
,
0100
0000
1000
0000
0100
0010
0000
0010
,
0100
0000
0010
1000
0100
0001
0100
1000
,
0010
0010
0000
1000
0010
0000
0100
0001
,
0010
0000
1000
0000
0010
0010
0000
0001
,
0010
0000
0100
1000
0010
0100
0010
1000
,
0100
0100
0000
1000
0100
0000
0010
0001
,
0100
0000
1000
0000
0100
0100
0000
0001
,
0100
0000
0010
0100
0001
0010
0001
0100
,
0010
0010
0000
1000
0100
0000
0001
0100
,
1000
0000
0001
0000
0010
0010
0000
0001
,
0100
0000
0100
1000
0100
0001
1000
0100
,
0010
0010
0000
0001
0001
0000
1000
0010
,
0001
0000
0010
0000
1000
1000
0000
0100
,
0100
0000
0010
0001
0100
1000
0001
0010
,
2000
0000
0000
0200
,
0000
3000
0000
0000
0020
0000
0000
0300
,
0000
0000
0002
0000
0000
0030
0000
0000
,
0203
0000
0000
0010
0000
0000
0010
0000
,
0000
0000
0000
0000
0302
0000
0000
0010
,
0000
0010
0000
0000
,
0200
0000
0000
0003
0000
0000
0020
0000
,
0000
0300
0000
0000
2000
0000
0000
0030
,
0000
0000
0200
0000
0000
3000
0000
0000
,
0320
0000
0000
0001
0000
0000
0001
0000
,
0032
2003
3002
0000
,
0000
0000
0200
0000
0000
0003
0000
0000
,
0320
0000
0000
2000
,
0000
0030
0000
0000
0200
0000
0000
3000
,
0000
0000
0002
0000
0000
0300
0000
0000
,
0200
0000
0000
0003
,
0000
0000
0320
0000
,
0002
0030
0200
0003
,
0020
0000
0000
0000
0000
0300
0000
0000
,
2030
3200
0002
0000
,
0000
0300
0000
0000
2003
0000
3020
0000
,
0002
0000
0000
0030
,
0000
0000
0200
0000
,
0303
0000
MMMM
0000
0000
0000
0001
0100
,
0010
1000
1000
0001
2000
0000
3100
0010
,
0010
0001
2000
0000
3001
0100
0100
0010
,
2000
0000
3001
0010
0200
0000
1300
0100
,
0010
0001
0001
1000
0001
0010
0200
0000
,
0310
0100
0100
1000
0002
0000
0203
0000
,
0320
0000
2030
0000
3000
0000
0100
1000
,
0010
0100
0100
0001
2000
0000
3100
0010
,
0010
0001
2000
0000
3010
0100
0100
0001
,
1000
0010
0100
0001
0010
1000
0010
0100
,
0200
0000
1300
2000
,
0000
0000
3001
0100
0020
0000
2030
0000
,
3200
0320
0032
0203
,
0310
0100
0100
0001
0010
0000
0010
0100
,
0100
1000
0010
0000
0010
0100
0100
0001
,
0010
0100
0100
1000
0002
0000
0103
0010
,
1000
0100
0100
0010
0001
0100
0020
0000
,
1030
0010
0100
0001
0020
0000
0230
0000
,
2300
0000
3002
0000
0000
0000
1003
0010
,
0100
1000
1000
0100
0001
0010
0100
0001
,
0001
0100
0010
1000
0010
0100
0100
1000
,
0001
0100
0010
0100
0100
0001
1000
0000
,
0001
0100
0100
1000
0001
0000
0010
1000
,
1000
0100
0001
0100
0010
0001
0100
1000
,
0001
0010
0010
1000
1000
0001
0001
0000
,
0000
0000
0000
0000
,
0220
0000
0000
0000
,
0000
0000
0000
0000
,
0000
0000
0000
0000
,
0000
0000
0000
0000
,
0000
0000
0000
0000
,
0000
0000
0000
0000
,
0330
0000
0000
0000
;

//---------------dance-single - ----------------
#NOTEDATA:;
#CHARTNAME:;
#STEPSTYPE:dance-single;
#DESCRIPTION:;
#CHARTSTYLE:;
#DIFFICULTY:Beginner;
#METER:5;
#RADARVALUES:0.155262,0.323579,0.230540,0.082336,0.000000,132.000000,104.000000,28.000000,10.000000,0.000000,0.000000,0.000000,0.000000,0.000000,0.155262,0.323579,0.230540,0.082336,0.000000,132.000000,104.000000,28.000000,10.000000,0.000000,0.000000,0.000000,0.000000,0.000000;
#CREDIT:;
#NOTES:
0000
0000
0000
0000
,
0000
0000
0000
0000
,
0000
0000
0000
0000
,
0000
0000
0000
0000
,
0000
0000
0000
0000
,
0000
0000
0000
0000
,
0000
0000
0000
0000
,
0000
0000
0000
0000
,
0000
0000
0000
0000
,
0000
0000
0000
0000
,
0000
0000
0000
0000
,
0000
0000
0000
0000
,
0000
0000
0000
0000
,
1000
0000
0000
0000
,
0000
0000
0001
0000
,
0000
0100
0000
0000
,
0001
0000
0000
0000
,
0000
0000
1000
0000
,
0000
0000
0000
0000
,
0010
0000
0000
0000
,
0000
0000
0100
0000
,
0000
0010
0000
0000
,
0100
0000
0000
0000
,
0000
0000
0001
0000
,
0000
0000
0000
0000
,
1000
0000
0000
0000
,
0000
0000
0000
0000
,
0000
0000
0000
0000
,
0001
0000
0000
0000
,
0000
0000
0000
0000
,
0000
0000
0000
0000
,
1000
0000
0000
0000
,
0000
0000
1000
0000
,
0000
0000
0000
0000
,
0001
0000
0000
0000
,
0000
0000
0001
0000
,
0000
0000
0000
0000
,
0010
0000
0000
0000
,
0000
0000
0010
0000
,
0000
0000
0000
0000
,
0100
0000
0000
0000
,
0000
0000
0100
0000
,
0000
0000
0000
0000
,
1000
0000
0000
1000
,
0000
0000
1000
0000
,
0000
0000
0000
0000
,
0010
0000
0000
0010
,
0000
0000
0010
0000
,
0000
0000
0000
0000
,
0100
0000
0000
0100
,
0000
0000
0100
0000
,
0000
0000
0000
0000
,
0001
0000
0000
0001
,
0000
0000
0001
0000
,
0000
0000
0000
0000
,
1000
0000
0000
0100
,
0000
0000
1000
0000
,
0000
0100
0000
0000
,
0010
0000
0000
0010
,
0000
0000
0001
0000
,
0000
0000
0000
0000
,
0001
0000
0000
0100
,
0000
0000
0001
0000
,
0000
0100
0000
0000
,
0010
0000
0000
0010
,
0000
0000
1000
0000
,
0000
0000
0000
0000
,
1001
0000
0000
0001
,
0000
0000
1000
0000
,
0000
1000
0000
0000
,
0100
0000
0000
0010
,
0000
0000
0100
0000
,
0000
0000
0000
0000
,
0110
0000
0000
0010
,
0000
0000
0100
0000
,
0000
0010
0000
0000
,
0001
0000
0000
0001
,
0000
0000
1000
0000
,
0000
0001
0000
0000
,
0200
0000
0000
0000
,
0000
0000
0300
0000
,
0000
0000
0000
0000
,
0020
0000
0000
0000
,
0000
0000
0030
0000
,
0000
0000
0000
0000
,
2000
0000
0000
0000
,
0000
0000
3000
0000
,
0000
0000
0000
0000
,
0002
0000
0000
0000
,
0000
0000
0003
0000
,
0000
0000
0000
0000
,
0010
0000
0000
0010
,
0000
0000
0001
0000
,
0000
0001
0000
0000
,
1000
0000
0000
0000
,
0000
0000
0002
0000
,
0000
0000
0000
0003
,
0200
0000
0000
0300
,
0000
0000
0020
0000
,
0000
0030
0000
0000
,
2000
0000
0000
3000
,
0000
0000
0002
0000
,
0000
0003
0000
0000
,
1001
0000
0000
1001
,
0000
0000
1001
0000
,
0000
0000
0000
0000
,
0110
0000
0000
0110
,
0000
0000
0110
0000
,
0000
0000
0000
0000
,
1001
0000
0000
0110
,
0000
0000
1001
0000
,
0000
0000
0000
0000
,
0110
0000
0000
1001
,
0000
0000
0110
0000
,
0000
0000
0000
0000
,
1001
0000
0000
1001
,
0000
0000
1100
0000
,
0000
0100
0000
0000
,
0110
0000
0000
0110
,
0000
0000
0011
0000
,
0000
0001
0000
0000
,
1001
0000
0000
1001
,
0000
0000
1100
0000
,
0000
1100
0000
0000
,
1001
0000
0000
0101
,
0000
0000
1001
0000
,
0000
1100
0000
0000
,
0000
0000
0000
0000
,
0002
0000
0000
0000
,
0000
0000
0000
0000
,
0000
0000
0000
0000
,
0003
0000
0000
0000
;
