#TITLE:Crying at the Discoteque;
#SUBTITLE:;
#ARTIST:Alcazar;
#TITLETRANSLIT:;
#SUBTITLETRANSLIT:;
#ARTISTTRANSLIT:;
#GENRE:Gay Pop;
#CREDIT:;
#BANNER:banner.png;
#BACKGROUND:Crying at the Discoteque-bg.png;
#LYRICSPATH:Crying at the DIscoteque.lrc;
#CDTITLE:;
#MUSIC:Crying at the Discoteque.ogg;
#OFFSET:-0.186000;
#SAMPLESTART:60.960880;
#SAMPLELENGTH:14.099970;
#SELECTABLE:YES;
#BPMS:0.000000=138.000000
,112.000000=69.000000
,128.000000=138.000000
,184.000000=69.000000
,200.000000=138.000000
;
#STOPS:
;
#BGCHANGES:-0.186=Crying at the Discoteque.avi=1.000=0=0=0=StretchNoLoop====,
99999=-nosongbg-=1.000=0=0=0 // don't automatically add -songbackground-
;
#KEYSOUNDS:;
#ATTACKS:;

//---------------dance-single - ----------------
#NOTES:
     dance-single:
     :
     Beginner:
     3:
     0.129748,0.180948,0.034932,0.000000,0.000000,130.000000,125.000000,5.000000,0.000000,0.000000,0.000000,0.129748,0.180948,0.034932,0.000000,0.000000,130.000000,125.000000,5.000000,0.000000,0.000000,0.000000:
0000
0000
0000
0000
,
0000
0000
0000
0000
,
0000
0000
0000
0000
,
0000
0000
0000
0000
,
1000
0000
0000
0000
,
0010
0000
0010
0000
,
0100
0000
0000
0000
,
0001
0000
0001
0000
,
1000
0000
0000
0000
,
0100
0000
0100
0000
,
0010
0000
0000
0000
,
0001
0000
0001
0000
,
1000
0000
0000
0000
,
0010
0000
0000
0000
,
0100
0000
0000
0000
,
0001
0000
0001
0000
,
0001
0000
0000
0000
,
0010
0000
0000
0000
,
0100
0000
0000
0000
,
0000
0000
0000
0000
,
1000
0000
0000
0000
,
0001
0000
0000
0000
,
0100
0000
0000
0000
,
0010
0000
0010
0000
,
0010
0000
0000
0000
,
1000
0000
0000
0000
,
0100
0000
0000
0000
,
0000
0000
0010
0000
,
0010
0000
0001
0000
,
0100
0000
0010
0000
,
1000
0000
0100
0000
,
0010
0000
1001
0000
,
1000
1000
1000
0000
,
0100
0000
0100
0000
,
0010
0000
0000
0000
,
0010
0000
0010
0000
,
0001
0001
0001
0000
,
0100
0000
0100
0000
,
0010
0000
0000
0000
,
0010
0000
0010
0000
,
1000
0000
1000
0000
,
0100
0000
0100
0000
,
0010
0000
1001
0000
,
0001
0000
0001
0000
,
0100
0000
0100
0000
,
0010
0000
1001
0000
,
1000
0000
0100
0100
,
0100
0000
0010
0010
,
0010
0000
0001
0001
,
0001
0000
0100
0100
,
0100
0000
0100
0000
,
0010
0000
0010
0000
,
1000
0000
1000
0000
,
0001
0000
0000
0000
,
0001
0000
0001
0000
,
0010
0000
0010
0000
,
0100
0000
0100
0000
,
1001
0000
0000
0000
,
1000
1000
1000
0000
,
0010
0000
0010
0000
,
0100
0000
0000
0000
,
0100
0000
0000
0000
,
0001
0001
0001
0000
,
0010
0000
0010
0000
,
0100
0000
0000
0000
,
0100
0000
0000
0000
,
1000
1000
1000
0000
,
0001
0000
0001
0000
,
0100
0000
0100
0000
,
0010
0000
0010
0000
,
1000
1000
1000
0000
,
0001
0000
0001
0000
,
0010
0000
0010
0000
,
0100
0100
0100
0000
,
1001
0000
0000
0000
;

//---------------dance-single - ----------------
#NOTES:
     dance-single:
     :
     Easy:
     6:
     0.223565,0.284347,0.041918,0.013973,0.000000,224.000000,218.000000,6.000000,2.000000,0.000000,0.000000,0.223565,0.284347,0.041918,0.013973,0.000000,224.000000,218.000000,6.000000,2.000000,0.000000,0.000000:
0000
0000
0000
0000
,
0000
0000
0000
0000
,
0000
0000
0000
0000
,
0000
0000
0000
0000
,
1000
0001
0100
0000
,
0010
0000
0010
0000
,
0100
0000
0001
0000
,
1000
1000
0001
0010
,
0100
0000
0100
0000
,
0010
0000
0010
0000
,
0001
0000
0001
0000
,
1000
0010
0100
0001
,
1000
0000
1000
0000
,
0100
0000
0100
0000
,
1000
0000
1000
0000
,
0010
0010
0100
0100
,
0001
0000
0001
0000
,
1000
0000
1000
0000
,
0100
0000
0000
0000
,
0010
0000
0010
0000
,
0100
0000
1000
0000
,
1000
0010
0100
0001
,
1000
0000
1000
0000
,
0001
0001
1000
0000
,
0001
0000
1000
0000
,
0010
0010
0100
0000
,
0001
0000
0000
0000
,
0001
0000
1000
1000
,
0100
0100
0010
0010
,
0001
0001
1000
0000
,
0100
0100
1000
1000
,
0010
0000
0010
0000
0100
0100
0100
0100
,
0001
0001
0010
0010
,
0100
0100
1000
1000
,
0001
0000
0001
0000
,
1001
0000
1001
0000
,
1000
1000
0010
0010
,
0100
0100
0001
0001
,
1000
0000
1000
0000
,
0001
0000
0001
0000
,
1000
0100
1000
0000
,
0001
0010
0001
0000
,
0100
0100
0010
1001
,
0001
0010
0001
0000
,
1000
0010
1000
0000
,
0100
0100
0010
1001
,
0001
0010
0100
0100
,
1000
0000
0010
0010
,
0100
0100
0001
0001
,
1000
0000
0000
0000
1000
0000
0001
1000
,
0001
0001
0100
0100
,
0010
0010
1000
1000
,
0100
1000
0010
0100
,
0001
0000
1000
1000
,
0100
0100
1000
0010
,
1000
1000
0001
0010
,
0001
0001
0100
0000
,
2002
0000
0000
3003
,
1000
1000
0010
0010
,
0100
0100
0001
0001
,
1000
0000
1000
0000
,
0001
0001
0010
0010
,
0001
0001
1000
1000
,
0010
0010
0100
0100
,
0010
0000
0010
0000
,
1000
0100
0010
0001
,
1000
0010
1000
0001
,
0100
0001
0010
0100
,
1000
0000
1000
0000
,
0001
1000
0010
1000
,
0100
1000
0010
0100
,
0001
0010
0100
0010
,
0001
0000
0001
0000
,
1000
1000
0001
0001
,
1001
0000
0000
0000
;

//---------------dance-single - ----------------
#NOTES:
     dance-single:
     :
     Medium:
     8:
     0.329359,0.387746,0.055891,0.097810,0.000000,330.000000,322.000000,8.000000,14.000000,0.000000,0.000000,0.329359,0.387746,0.055891,0.097810,0.000000,330.000000,322.000000,8.000000,14.000000,0.000000,0.000000:
0000
0000
0000
0000
,
0000
0000
0000
0000
,
0000
0000
0000
0000
,
0000
0000
0000
0000
,
1000
0100
0010
0001
,
0100
0000
0010
0000
0100
0000
0001
1000
,
0000
1000
0001
0000
0010
0000
0100
0000
,
0010
0000
0001
0000
1000
0000
0010
0100
,
0000
0100
0001
0000
0010
0000
0100
0000
,
1000
0000
0001
0000
0100
0000
0001
1000
,
0000
1000
0010
0000
1000
0000
0100
0000
,
0010
0000
0001
0000
0100
0000
0010
0100
,
0010
0000
0000
0010
1000
0000
1000
0000
,
0100
0000
0100
0000
0010
0000
0001
1000
,
0001
0000
1000
0001
1000
0000
0000
0000
,
0100
0100
0010
0010
,
1001
0000
0001
0000
1000
0000
0010
0100
,
0010
0000
1000
0000
0001
0000
0010
0100
,
0010
0001
1000
0000
,
0101
0000
0101
0000
0001
0000
0001
1000
,
0000
1000
0100
0000
1000
0000
0010
0000
,
0100
0000
0100
0000
0010
0000
1000
0010
,
1000
0000
0001
0010
0001
0000
0000
0000
,
1100
1100
0001
0010
,
0001
0000
0000
0000
1000
0100
1000
0000
,
0010
0010
0100
0100
,
0001
0000
0001
0000
,
1000
0000
0000
0100
1000
0010
0000
0010
,
0100
0000
0100
0001
0010
0000
0010
0100
,
1000
0100
1000
0001
0100
0000
0001
0001
,
0100
0000
0001
0010
1000
0000
0010
0010
,
0001
0001
1000
0000
0010
0010
0100
0100
,
0001
1000
0001
0000
1000
0000
1000
0000
,
0100
0000
0100
0000
1000
0000
0010
0100
,
0000
0100
0001
0000
1000
0000
1000
0000
,
0001
0000
0010
0100
0000
0100
0000
1000
,
0000
1000
0000
0001
0000
0000
0000
0000
,
1000
0000
1000
0000
0010
0000
0010
0100
,
0000
0100
0001
0000
1000
0100
1000
0000
,
0001
0000
0001
0000
0010
0000
0001
1000
,
0000
1000
0010
0000
0100
0000
0001
0000
,
0010
0100
1000
0000
0010
0000
0100
0000
,
0001
0000
0001
1000
0000
1000
0100
1000
,
0000
1000
0010
0000
0100
0000
0001
0000
,
0010
0001
0010
0000
0100
0000
1000
0000
,
0001
0000
1000
0010
0000
0010
0100
0000
,
0002
0000
0010
0000
0023
0100
0230
0000
,
2300
0000
3020
0000
0230
0001
0302
0000
,
2003
0000
3200
0000
2300
0010
3020
0000
,
0230
0000
0302
0000
0013
0010
0100
0100
,
1000
0000
0001
0000
1000
0010
1000
0000
,
0001
0000
0010
0000
0001
0100
0001
0000
,
1000
0000
0100
0000
0010
0001
0100
0000
,
0010
0000
0000
0000
0100
0001
0100
0000
,
0001
0000
1000
0000
0001
0010
1000
0000
,
0010
0000
0001
0000
1000
0010
0001
0000
,
0010
0010
1000
1000
,
2001
0000
0000
0000
0001
0001
3001
1000
,
0000
0100
0000
1001
0000
1000
0010
0000
,
1000
0000
0100
0000
0010
0000
0001
0100
,
0000
0100
0010
0000
0010
0100
0001
0000
,
1000
0000
0100
1000
0000
0010
0000
0100
,
0000
0100
0000
0001
0000
0010
0001
0000
,
1000
0000
0010
0000
0100
0000
0010
1000
,
0000
1000
0001
0000
0010
0100
0010
0000
,
0001
0000
1000
0100
0000
0100
0000
1000
,
0000
1000
0000
0001
0000
0000
0000
0000
,
1000
0000
0000
0000
0010
0000
0100
0001
,
0000
0001
1000
0000
0100
0000
0000
0000
,
1000
0000
1000
0010
0000
0010
0000
0100
,
0000
0100
0000
0001
0000
0000
0000
0000
,
1000
0000
0100
0000
1000
0000
0010
0100
,
0001
0000
0000
0001
1000
0000
0000
1000
,
0001
0000
0100
0000
0010
0000
0100
0100
,
1001
0000
0000
0000
;

//---------------dance-single - ----------------
#NOTES:
     dance-single:
     :
     Hard:
     11:
     0.519989,0.723792,0.272470,0.181647,0.171167,521.000000,482.000000,39.000000,26.000000,0.000000,0.000000,0.519989,0.723792,0.272470,0.181647,0.171167,521.000000,482.000000,39.000000,26.000000,0.000000,0.000000:
// measure 0
0000
0000
0000
0000
,  // measure 1
0000
0000
0000
0000
,  // measure 2
0000
0000
0000
0000
,  // measure 3
0000
0000
0000
0000
0000
0000
0000
0001
,  // measure 4
1000
0010
0100
0010
1000
0100
0010
0000
,  // measure 5
0001
0100
0010
0100
0001
0010
0100
1000
,  // measure 6
0000
1000
0001
0000
1000
0010
0100
0000
,  // measure 7
0010
0100
0001
0010
0100
0010
0001
1000
,  // measure 8
0000
1000
0001
0000
0001
1000
0010
0000
,  // measure 9
0010
0100
0010
1000
0100
0010
0001
1000
,  // measure 10
0000
1000
0001
0000
1000
0100
0010
0000
,  // measure 11
0010
0100
1000
0010
0100
0001
0010
0100
,  // measure 12
1000
0000
0001
0100
0010
1000
0100
0020
,  // measure 13
0000
0031
0100
2000
0000
3100
0001
2000
,  // measure 14
0000
3100
0001
0100
1000
0000
0001
1000
,  // measure 15
0011
0001
1100
1000
,  // measure 16
0101
0000
0000
0001
1000
0010
1000
0200
,  // measure 17
0000
0310
0001
0200
0000
0310
0100
0001
,  // measure 18
0000
0001
1000
0000
0100
1000
0010
0000
,  // measure 19
0110
0000
0010
0000
1001
0000
1000
0001
,  // measure 20
0000
0100
0010
1000
0100
0010
0000
0020
,  // measure 21
0000
0130
1000
0020
0000
0130
0001
2000
,  // measure 22
0000
3001
0010
0100
1000
0000
0001
1000
,  // measure 23
0100
0000
0010
0001
0000
0001
0000
0100
,  // measure 24
0010
0000
0100
0010
0100
0001
0000
2000
,  // measure 25
0000
3100
1000
0020
0000
0130
0001
0010
,  // measure 26
0000
0010
0001
0000
0100
0010
1000
0000
,  // measure 27
0110
0000
0000
0001
0010
0100
1000
0001
,  // measure 28
0200
0000
0000
0310
1000
0100
0010
0001
2000
0000
0000
3001
0100
0010
0000
0200
,  // measure 29
0000
0000
0001
0302
0000
0010
0000
2003
0000
0000
3000
0001
0010
0001
1000
0100
,  // measure 30
0000
0000
1001
1000
0010
0001
0100
1000
0000
0000
1001
1000
0010
0100
1001
0100
,  // measure 31
0000
0000
1001
0000
1000
1000
1000
1000
0002
0000
0010
0000
2003
0000
0100
0000
,  // measure 32
3001
0010
1000
0010
0001
0100
1000
0100
,  // measure 33
0001
0010
0100
1000
0010
0100
0001
1000
,  // measure 34
0000
1000
0001
0000
0010
0100
0010
0000
,  // measure 35
0011
0011
1100
1100
,  // measure 36
1000
0010
0001
0010
1000
0100
0001
0100
,  // measure 37
1000
0010
0100
0001
0010
0100
1000
0001
,  // measure 38
0000
0001
1000
0000
0010
0100
0010
0000
,  // measure 39
1001
0000
0010
0000
1010
0000
1000
0001
,  // measure 40
0000
0001
0010
1000
0001
0100
1000
0002
,  // measure 41
0000
1003
0010
0001
1000
0100
0001
0010
,  // measure 42
0100
0000
0100
0010
0000
0001
1000
1001
,  // measure 43
0000
1000
0010
0001
1000
0100
0001
2000
,  // measure 44
0000
3001
0010
1000
0001
0100
1000
0010
,  // measure 45
0100
0000
0100
0010
0000
1000
0001
0001
,  // measure 46
1000
0100
0010
0001
1000
0100
0010
0001
1000
0010
0100
0001
1000
0010
0100
0002
,  // measure 47
0000
1000
0000
0000
1003
0000
0000
0000
0001
0100
0010
1000
0001
0100
0010
1000
,  // measure 48
0000
1000
0100
0010
0001
1000
0010
0100
0001
0100
0010
1000
0001
0010
0100
2000
,  // measure 49
0000
0001
0000
0000
3001
0000
0000
0000
1000
0010
0100
0001
0010
0100
1000
0001
,  // measure 50
1000
0000
0001
0100
0010
1000
0010
0100
,  // measure 51
0001
0000
1000
0100
0010
0001
0100
0020
,  // measure 52
0000
0031
0010
2000
0000
0001
0000
3001
,  // measure 53
0000
1000
1000
0001
0010
1000
0010
0200
,  // measure 54
0000
0301
0001
0100
1000
0010
0001
0200
,  // measure 55
0000
1300
1000
0001
0100
0010
0100
0100
,  // measure 56
0001
0001
1000
1000
0100
0100
0010
0000
,  // measure 57
2001
0000
0000
0000
0000
0000
0000
0000
3001
1000
0001
1000
0001
1000
0000
0000
,  // measure 58
0001
0010
1000
0001
1000
0010
0001
1000
,  // measure 59
0001
0100
1000
0001
1000
0100
0001
1000
,  // measure 60
0000
1000
0001
0000
1000
0001
0110
0000
,  // measure 61
0011
0011
1100
1100
,  // measure 62
1000
0010
0001
1000
0001
0010
1000
0001
,  // measure 63
1000
0100
0001
1000
0001
0100
1000
0001
,  // measure 64
0000
0001
1000
0000
0001
1000
0110
0000
,  // measure 65
1010
1010
0101
0101
,  // measure 66
1000
0100
1000
0000
0001
0010
0001
0000
,  // measure 67
0100
0100
0010
0010
0100
0100
0001
1000
,  // measure 68
0000
1000
0001
0000
0010
0100
0010
0000
,  // measure 69
1001
1001
0110
0110
,  // measure 70
1000
0100
1000
0000
0001
0010
0001
0000
,  // measure 71
0100
0010
1000
0100
0010
0001
1000
0001
,  // measure 72
1100
0000
0001
1000
0101
0000
1000
0001
,  // measure 73
0110
0000
0110
0000
0011
0000
1100
0100
,  // measure 74
1001
0000
0000
0000
;
