#VERSION:0.83;
#TITLE:Cosmica;
#SUBTITLE:;
#ARTIST:Nhato;
#TITLETRANSLIT:;
#SUBTITLETRANSLIT:;
#ARTISTTRANSLIT:;
#GENRE:;
#CREDIT:;
#MUSIC:Cosmica.ogg;
#BANNER:Cosmica.png;
#BACKGROUND:Cosmica-bg.png;
#CDTITLE:;
#SAMPLESTART:45.818;
#SAMPLELENGTH:17.455;
#SELECTABLE:YES;
#OFFSET:0.000;
#BPMS:0.000=110.000;
#STOPS:;
#JACKET:Cosmica-jacket.png;
#BGCHANGES:;
#FGCHANGES:;

//--------------- dance-single - DDDAAA ----------------
#NOTEDATA:;
#STEPSTYPE:dance-single;
#DESCRIPTION:DDDAAA;
#DIFFICULTY:Hard;
#METER:14;
#RADARVALUES:0,0,0,0,0;
#NOTES:
0000
0000
0000
0000
,
0000
0000
0000
0000
,
0000
0000
0000
0000
,
0000
0000
0000
0000
,
0000
0000
0000
0000
0000
0000
0000
0001
,
1002
0000
0000
0000
0000
1003
0100
0000
1000
0000
0000
0001
0000
0000
0000
0010
0000
0000
0010
0000
0000
0001
0000
0000
,
0200
0000
0000
0000
0000
0310
1000
0000
0001
0000
0000
1000
0000
0000
0000
0100
0000
0000
0100
0000
0000
1000
0000
0000
,
0020
0000
0000
0000
0000
0130
0001
0000
1000
0000
0000
0100
0000
0000
0000
0010
0000
0000
0010
0000
0000
0001
0000
0000
,
0200
0000
0000
0000
0000
0301
1000
0000
0010
0000
0000
0100
0000
0000
0000
0001
0000
0000
0001
0000
0000
0010
0000
0000
,
0012
0000
0000
1003
0000
0001
0100
0000
0010
0000
0000
1000
0001
0000
0000
0010
0000
0000
0001
0000
1000
0000
0000
0010
,
0200
0000
0000
0301
0000
1000
0100
0000
0010
0000
0000
0001
1000
0000
0000
0010
0000
0000
0100
0000
0001
0010
0000
0100
,
2000
0000
0000
3001
0000
2000
0010
0000
3001
0000
0000
0010
0100
0000
0000
1000
0000
0000
0010
0000
0100
0001
0000
1000
,
0200
0000
0000
0310
0000
0002
1000
0000
0013
0000
0000
0100
1000
0000
0000
0001
0000
0000
0100
0000
0010
1000
0000
0001
,
0020
0000
0000
0130
0000
2000
0001
0000
3100
0000
0000
1000
0001
0000
0000
0100
0000
0000
0010
0000
0000
0001
0000
0000
,
0010
0000
0000
1000
0000
0002
0010
0000
1003
0000
0000
0000
0001
0000
0000
0100
0000
0000
1000
0000
0000
0100
0000
0001
,
2000
0000
0000
3001
0000
0020
0100
0000
0031
0000
0000
0010
0100
0000
0000
0010
0000
1000
0010
0000
0000
0001
0000
1000
,
0010
0000
0000
1000
0000
0001
0010
0000
0100
0000
0000
1000
0001
0000
0000
0100
0000
0001
0010
0000
0000
0100
0000
0000
,
1100
0000
0000
1000
0000
0000
0010
0000
0000
0100
0000
0000
0001
0000
0000
0010
0000
0000
0001
0000
0100
0000
0000
0001
,
1000
0000
0000
0001
0000
0000
0010
0000
0000
0100
0000
1000
0001
0000
0000
0100
0000
0000
0010
0000
0000
1000
0000
0000
,
1100
0100
0110
0010
0001
0100
0010
1000
,
0100
0000
1000
0100
0000
0010
0001
0000
1000
0010
0000
1000
0100
0000
0000
0001
0000
0000
0100
0000
0000
1000
0000
0000
,
1002
0000
0000
0000
0000
0000
0013
0000
0000
0210
0000
0000
0000
0000
1300
0001
0000
0000
0101
0000
0100
0010
0000
0000
,
0110
0000
0000
1000
0000
1000
0000
0000
0010
0000
0000
0010
1000
0000
1000
0010
0000
0000
1010
0000
0000
1000
0000
0000
,
2001
0000
0000
0000
0000
0000
3010
0000
0000
0210
0000
0000
0000
0000
0301
1000
0000
0000
1100
0000
0100
0010
0000
0000
,
0110
0000
0000
0001
0000
0001
1000
0000
0010
0000
0000
0010
1000
0000
0001
0010
0000
0000
0011
0000
0000
0001
0000
0000
,
1002
0000
0000
0000
0000
0000
0103
0000
0000
0120
0000
0000
0000
0000
1030
0001
0000
0000
0011
0000
0000
0010
0000
0000
,
0110
0000
0000
1000
0000
1000
0001
0000
0100
0000
0000
0100
0000
0000
0001
0100
0000
0000
0110
0000
0000
0010
0000
0000
,
1000
0000
0100
0020
0000
0030
0011
0000
0000
0001
0000
0100
0000
0000
0010
0000
0000
1000
0100
0000
0010
0001
0000
0100
,
0000
0000
1000
0000
0000
0100
0000
0000
0010
0000
0000
1000
0100
0000
0010
0001
0000
1000
0010
0000
0000
0100
0000
0000
,
2001
0000
0000
0000
0000
0000
3100
0000
0010
0000
0000
0001
2000
0000
0000
3100
0000
0000
1100
0000
0000
1000
0000
0000
,
2001
0000
0000
0000
0000
3002
0000
0000
0000
0203
0000
0000
0310
0000
0000
2000
0000
0000
3100
0000
0010
0000
0000
0001
,
0200
0000
0000
0310
0000
1000
0000
0000
0001
0000
0000
0000
0020
0000
0000
0130
0000
0010
0000
0000
0100
0000
0000
1000
,
0010
0100
0110
0001
0010
0100
1100
1000
,
2001
0000
0000
0000
0000
0000
3010
0000
0100
0000
0000
0001
2000
0000
0000
3010
0000
0000
1010
0000
0000
1000
0000
0000
,
2100
0000
0000
0000
0000
3002
0000
0000
0000
0023
0000
0000
1030
0000
0000
0010
0000
0000
0011
0000
0000
0001
0000
0001
,
0020
0000
0000
0030
0000
0001
0000
0000
0000
0001
0000
0000
0200
0000
0000
0300
0000
0100
0000
0000
0010
1000
0000
0000
,
0100
0000
0000
0010
0000
0000
0001
0000
0000
1000
0000
0010
1000
0000
0001
0100
0000
0010
0000
0000
0000
1000
0000
0000
,
2010
0000
0000
3001
0000
1000
0100
0000
0010
0000
0000
0001
1000
0000
0000
0010
0000
0000
1000
0000
0001
0000
0000
0010
,
0200
0000
0000
1300
0000
0001
0100
0000
0010
0000
0000
1000
0001
0000
0000
0010
0000
0000
0100
0000
1000
0010
0000
0100
,
0002
0000
0000
1003
0000
0002
0010
0000
1003
0000
0000
0010
0100
0000
0000
0001
0000
0000
0010
0000
0100
1000
0000
0001
,
0200
0000
0000
0310
0000
2000
0001
0000
3010
0000
0000
0100
0001
0000
0000
1000
0000
0000
0100
0000
0010
0001
0000
1000
,
0020
0000
0000
0130
0000
0002
1000
0000
0103
0000
0000
0001
1000
0000
0000
0100
0000
0000
0010
0000
0000
1000
0000
0000
,
0010
0000
0000
0001
0000
2000
0010
0000
3001
0000
0000
0000
1000
0000
0000
0100
0000
0000
0001
0000
0000
0100
0000
1000
,
0002
0000
0000
1003
0000
0020
0100
0000
1030
0000
0000
0010
0100
0000
0000
0010
0000
0001
0010
0000
0000
1000
0000
0000
,
0001
0000
0010
0100
0000
1000
0001
0000
0100
0010
0000
1000
0100
0000
0010
0001
0000
0100
0040
0000
0000
0000
0000
0000
,
1030
0000
0000
0001
0000
0000
0010
0000
0000
0100
0000
1000
0000
0000
1000
0010
0000
0100
0001
0000
0010
0000
0000
0001
,
1000
0000
0000
0001
0000
0000
0100
0000
0000
0010
0000
1000
0001
0000
0000
0010
0000
0100
0000
0000
1000
0010
0000
0000
,
1010
0000
0000
0001
0000
0000
0010
0000
0000
0100
0000
1000
0001
0000
0000
0100
0000
0010
0000
0000
1000
0000
0000
1000
,
0100
0000
0000
0010
0000
0000
0110
0000
0000
0100
0000
0000
1100
0000
0000
1000
0000
0001
0100
0000
0000
0010
0000
0000
,
1001
0000
0000
0101
0000
0000
0100
0000
0001
0010
0000
0000
0011
0000
0000
1010
0000
0000
0010
0000
1000
0100
0000
0000
,
1100
0000
0000
0101
0000
0001
0000
0000
1000
0100
0000
0001
0000
0000
0100
1000
0000
0000
1000
0000
0010
0100
0000
0000
,
0110
0000
0000
1010
0000
0000
1000
0000
0100
0010
0000
0000
0011
0000
0000
1010
0000
0000
0010
0000
1000
0100
0000
0000
,
1100
0000
0000
0101
0000
0000
0100
0000
0001
0010
0000
1000
0000
0000
0010
0001
0000
0010
0000
0000
0100
1000
0000
1000
,
0010
0000
0000
0110
0000
0000
0100
0000
0001
0010
0000
0000
0011
0000
0000
1010
0000
0000
0010
0000
1000
0100
0000
0000
,
1100
0000
0000
0101
0000
0000
1000
0000
0100
0010
0000
1000
0000
0000
0010
0001
0000
0000
0010
0000
0001
0100
0000
0000
,
0010
0000
1000
0001
0000
0000
0010
0000
0001
0100
0000
0000
0101
0000
0000
1100
0000
0000
0100
0000
1000
0010
0000
0000
,
0100
0000
0000
0001
0000
1000
0100
0000
0000
1000
0000
0001
0100
0000
0000
0001
0000
1000
0100
0000
0000
0001
0000
0000
,
0101
0000
0000
1100
0000
0000
1000
0000
0000
0010
0000
0000
1010
0000
0000
0011
0000
0000
0001
0000
0100
1000
0000
0000
,
1100
0000
0000
0101
0000
0000
0001
0000
0000
0010
0000
0000
0011
0000
0000
1010
0000
0000
1000
0000
0100
0001
0000
0000
,
0101
0000
0000
1100
0000
0100
1000
0000
0010
0100
0000
0010
0100
0000
0001
0010
0000
0100
1000
0000
0001
0100
0000
0000
,
1000
0000
0000
0100
0000
0100
0001
0000
0001
1000
0000
1000
0100
0000
0100
0010
0000
0000
0001
0000
0000
0100
0000
0010
,
1000
0000
0000
0000
0000
0000
0001
0000
0000
0000
0000
0000
0010
0000
0001
1000
0000
0000
0010
0000
0000
1000
0000
0000
,
0100
0000
0000
1000
0000
0001
0100
0000
0000
0010
0000
1000
0001
0000
0000
0010
0000
0001
0010
0000
0000
0001
0000
0000
,
0100
0000
0000
0010
0000
0000
0010
0000
1000
0001
0000
0000
1000
0000
0001
0010
0000
0000
0100
0000
0000
1000
0000
0000
,
0010
0000
0000
0100
0000
0000
0001
0000
0000
1000
0000
0001
0010
0000
0000
0100
0000
1000
0001
0000
0000
0100
0000
0000
,
0020
0000
0000
0000
,
0030
0000
0000
0000
;

//--------------- dance-single - DDDAAA / Maractus (X-Scale) ----------------
#NOTEDATA:;
#STEPSTYPE:dance-single;
#DESCRIPTION:DDDAAA / Maractus (X-Scale);
#DIFFICULTY:Challenge;
#METER:16;
#RADARVALUES:0,0,0,0,0;
#NOTES:
0000
0000
0000
0000
,
0000
0000
0000
0000
,
0000
0000
0000
0000
,
0000
0000
0000
0000
,
0000
0000
0000
0000
0000
0000
0000
0001
,
2001
0000
0000
0000
0000
3001
0010
0000
0001
0000
0000
1000
0010
0000
0000
0100
0000
0000
0100
0000
0000
0001
0000
0000
,
0012
0000
0000
0000
0000
1003
0100
0000
1000
0000
0000
0001
0000
0000
0000
0100
0000
0000
0010
0000
0000
1000
0000
0000
,
1200
0000
0000
0000
0000
1300
0010
0000
0100
0000
0000
0001
0000
0000
0000
0010
0000
0000
0010
0000
0000
0001
0000
0000
,
0102
0000
0000
0000
0000
0103
0010
0000
1000
0000
0000
0100
0000
0000
0000
0010
0000
0000
0010
0000
0000
0001
0000
0000
,
0102
0000
0000
1003
0000
0001
0010
0000
0100
0000
0000
0010
0001
0000
1000
0010
0000
0100
0001
0000
0010
0000
0000
0001
,
0200
0000
0000
0301
0000
1000
0010
0000
0100
0000
0000
0010
1000
0000
0000
0001
0000
0010
0100
0000
0010
0001
1000
0100
,
0020
0000
0000
0031
0000
2000
0010
0000
3001
0010
0000
0100
1000
0000
0001
0100
0000
0010
1000
0000
0100
1000
0000
0010
,
0200
0000
0000
0301
0000
2000
0100
0000
3001
0100
0000
0010
1000
0000
0100
1000
0000
0001
1000
0000
0100
0010
0001
1000
,
0200
0000
0000
1300
0000
0002
0100
0000
1003
0100
0000
0010
0100
0000
1000
0001
0000
0100
0010
0000
1000
0100
0000
1000
,
0020
0000
0000
1030
0000
0001
0010
0000
0100
1000
0000
0100
0010
0000
0001
0100
0000
0010
1000
0000
0001
0100
0001
1000
,
0200
0000
0000
0310
0000
0001
0100
0000
0010
1000
0000
0001
0010
0000
0000
0100
0000
0001
0100
0000
1000
0100
0000
1000
,
0010
0000
0000
1000
0000
0001
0010
0000
0001
1000
0000
0001
0100
0000
0010
1000
0000
0001
0010
0000
0000
0001
0000
0000
,
0011
0000
0000
1000
0000
0000
0010
0000
0000
0100
0000
0001
1000
0000
0100
0010
0000
0100
1000
0000
0010
0000
0000
1000
,
0100
0000
0000
1000
0000
0000
0010
0000
0000
0100
0000
0001
1000
0000
0000
0010
0000
1000
0100
0000
1000
0001
0000
0000
,
0101
0000
0000
0100
0000
0000
0110
0000
0000
0010
0000
0000
1010
0000
1000
0001
0000
0010
0001
0000
0100
0010
0000
1000
,
0001
0010
0100
1000
0001
0100
0001
1000
0100
1000
0001
0100
0010
0000
0000
0004
0000
0013
1000
0000
0000
0010
0000
0000
,
2001
0000
0000
3010
0000
1000
0001
0000
0000
0020
0000
0100
0000
0000
0031
1000
0000
0000
1010
0000
1000
0004
0000
0003
,
0011
0000
0000
0001
0000
0001
0100
0000
0010
1000
0000
0010
1000
0000
0001
0010
0000
0000
1010
0000
0000
1000
0000
0000
,
0001
0010
0100
1000
0001
0000
1002
0000
0000
0203
0000
0010
0000
0000
0301
1000
0000
0000
1100
0000
1000
0001
0000
0000
,
0101
0000
0000
0001
0000
0001
0010
0000
0100
1000
0000
0100
4000
0000
3010
0004
0000
0013
1000
0000
0000
0100
0000
0000
,
2001
0000
0000
3100
0000
1000
0001
0000
0000
0200
0000
0010
0000
0000
0301
1000
0000
0000
1100
0000
1000
0004
0000
0003
,
0101
0000
0000
0001
0000
0001
0010
0000
0100
1000
0000
0100
1000
0000
0001
0100
0000
0000
1100
0000
0000
1000
0000
0000
,
0001
0000
0100
0020
0000
0030
1002
0000
0000
0023
0000
0100
0000
0000
0031
1000
0000
0010
1000
0000
0001
1000
0000
0010
,
0100
0000
0100
1000
0000
0001
0010
0000
0010
1000
0000
0001
4000
0000
3100
0004
0000
0103
1000
0000
0000
0010
0000
0000
,
1002
0000
0000
0000
0000
1003
0010
0000
1000
0000
0000
0001
0010
0000
0000
0010
0000
0000
0100
0000
0000
1000
0000
0000
,
1020
0000
0000
0000
0000
1030
0100
0000
1000
0000
0000
0001
0100
0000
0000
0100
0000
0000
0010
0000
1000
0100
0010
0001
,
0100
0000
0000
0001
0000
1000
0100
0000
1000
0000
0000
0001
1000
0000
0000
0001
0000
0100
0001
0000
1000
0010
0100
0001
,
0010
0000
0000
0010
0000
0000
0100
0000
0000
1000
0000
1000
0000
0000
0001
0100
0000
0000
0010
0000
0000
0100
0000
0001
,
2000
0000
0000
0000
0000
3001
0010
0000
0001
0000
0000
1000
0010
0000
0000
0010
0000
0000
0100
0000
0001
0010
0000
0000
,
0021
0000
0000
0000
0000
0031
0100
0000
0001
0000
0000
1000
0100
0000
0000
0100
0000
0000
0010
0000
0001
0100
0000
0010
,
2000
0000
0000
0000
0000
3001
0100
0000
0001
1000
0000
1000
0010
0000
0000
1000
0000
0100
1000
0000
0001
0010
0000
0100
,
1000
0000
0000
0010
0000
0000
0100
0000
0000
0001
0000
0001
1000
0000
1000
0100
0000
0010
0000
0000
0000
0100
0000
0000
,
2100
0000
0000
3001
0000
1000
0010
0000
0100
0000
0000
0010
1000
0000
0001
0010
0000
0100
1000
0000
0010
0000
0000
1000
,
0200
0000
0000
1300
0000
0001
0010
0000
0100
0000
0000
0010
0001
0000
0000
1000
0000
0010
0100
0000
0010
1000
0001
0100
,
0020
0000
0000
1030
0000
0002
0010
0000
1003
0010
0000
0100
0001
0000
1000
0100
0000
0010
0001
0000
0100
0001
0000
0010
,
0200
0000
0000
1300
0000
0002
0100
0000
1003
0100
0000
0010
0001
0000
0100
0001
0000
1000
0001
0000
0100
0010
1000
0001
,
0200
0000
0000
0301
0000
2000
0100
0000
3001
0100
0000
0010
0100
0000
0001
1000
0000
0100
0010
0000
0001
0100
0000
0001
,
0020
0000
0000
0031
0000
1000
0010
0000
0100
0001
0000
0100
0010
0000
1000
0100
0000
0010
0001
0000
1000
0100
1000
0001
,
0200
0000
0000
0310
0000
1000
0100
0000
0010
0001
0000
1000
0010
0000
0000
0100
0000
1000
0100
0000
0001
0100
0000
0001
,
0010
0100
1000
0001
1000
0010
0100
0001
1000
0001
0100
0010
1000
0001
1000
0100
0010
0001
1000
0000
0000
0010
0000
0000
,
1010
0000
0000
0001
0000
0000
0010
0000
0100
1000
0000
1000
0001
0000
0100
0010
0000
0100
0001
0000
0010
0000
0000
0001
,
1000
0000
0000
0001
0000
0000
0100
0000
0010
1000
0000
1000
0001
0000
0000
0010
0000
0001
0100
0000
0001
0010
0000
0000
,
0011
0000
0000
1000
0000
0000
0010
0000
0100
0001
0000
0001
1000
0000
0100
0010
0000
0100
1000
0000
0010
0000
0000
0000
,
1010
0000
0000
0010
0000
0000
0110
0000
0000
0100
0000
0000
0001
0000
0100
4000
0000
3100
0001
0000
0000
0010
0000
0000
,
1001
0000
0000
0101
0000
0000
0100
0000
0001
0010
0000
0000
0011
0000
0000
1010
0000
0000
0010
0000
1000
0100
0000
0000
,
1100
0000
0000
0101
0000
0100
0010
0000
1000
0100
0000
0001
0100
0000
0010
0001
0000
0000
1000
0000
0010
0100
0000
0000
,
0110
0000
0000
1010
0000
0000
1000
0000
0100
0010
0000
0000
0011
0000
0000
1010
0000
0000
0010
0000
1000
0100
0000
0000
,
1100
0000
0000
0101
0000
0000
0100
0000
0001
0010
0000
1000
0010
0000
0100
1000
0000
0001
0010
0000
0100
1000
0001
0100
,
0010
0000
0000
0110
0000
0000
0100
0000
0001
0010
0000
0000
0011
0000
0000
1010
0000
0000
0010
0000
1000
0100
0000
0000
,
1100
0000
0000
0101
0000
0001
1000
0000
0100
0010
0000
1000
0010
0000
0001
0100
0000
0000
0010
0000
1000
0100
0000
0000
,
0010
0001
1000
0010
0000
0000
0100
0000
0001
0010
0000
0000
0011
0000
0000
1010
0000
0000
0010
0000
1000
0100
0000
0000
,
0010
0000
0000
0001
0000
1000
0010
0000
0000
1000
0000
0001
0010
0000
0000
0001
0000
1000
0010
0000
0000
0001
0000
0000
,
0011
0000
0000
1010
0000
0000
0010
0000
1000
0100
0000
0000
1100
0000
0000
0101
0000
0000
0001
0000
0010
1000
0000
0000
,
1010
0000
0000
0011
0000
0001
0010
0000
0001
0100
0000
0000
0101
0000
0000
1100
0000
0100
1000
0000
0010
0001
0000
0000
,
0011
0000
0000
1010
0000
0010
1000
0000
0100
0001
0000
0100
0010
0000
0001
0100
0000
0010
1000
0000
0001
0010
0100
1000
,
0010
0000
0000
0100
0000
0100
0001
0000
0001
1000
0000
1000
0100
0000
0100
0010
0000
0000
0001
0000
0000
0010
0100
1000
,
0100
0000
0000
0000
0000
0000
1000
0000
0000
0000
0000
0000
0010
0000
1000
0001
0000
0000
0010
0000
0000
0001
0000
0000
,
0100
0000
0000
0001
0000
1000
0100
0000
0000
0010
0000
0001
1000
0000
0000
0010
0000
1000
0010
0000
0000
1000
0000
0000
,
0100
0000
0000
0010
0000
0001
0010
0000
0001
1000
0000
0000
0001
0000
1000
0010
0000
0000
0100
0000
0000
0001
0000
0000
,
0010
0000
0000
0100
0000
0000
1000
0000
0000
0001
0000
1000
0010
0000
0000
0100
0000
0001
1000
0000
0000
0100
0000
0000
,
0020
0000
0000
0000
,
0030
0000
0000
0000
;

//--------------- dance-single - Hi Tech Players (ITG 12) ----------------
#NOTEDATA:;
#STEPSTYPE:dance-single;
#DESCRIPTION:Hi Tech Players (ITG 12);
#DIFFICULTY:Edit;
#METER:17;
#RADARVALUES:0,0,0,0,0;
#NOTES:
0000
0000
0000
0000
,
0000
0000
0000
0000
,
0000
0000
0000
0000
,
0000
0000
0000
0000
,
0000
0000
0000
0000
0000
0000
0000
0001
,
2001
0000
0000
0000
0000
0000
0000
0000
0000
0000
3001
0000
0010
0000
0M00
0000
0010
0000
0000
0000
0000
0000
0100
0000
0001
0000
0000
0000
0000
0000
0100
0000
0000
00M0
0000
0000
0100
0000
0000
0000
0000
0000
1000
0000
0000
0000
0000
0000
,
0010
0000
0000
0000
0000
0000
0000
0000
0000
0000
1000
0000
0010
0000
0M00
0000
0010
0000
0000
0000
0000
0000
0100
0000
1000
0000
0000
0000
0000
0000
0100
0000
0000
00M0
0000
0000
0100
0000
0000
0000
0000
0000
0001
0000
0000
0000
0000
0000
,
0010
0000
0000
0000
0000
0000
0000
0000
0000
0000
0001
0000
0100
0000
00M0
0000
0100
0000
0000
0000
0000
0000
0010
0000
0001
0000
0000
0000
0000
0000
0010
0000
0000
0M00
0000
0000
0010
0000
0000
0000
0000
0000
1000
0000
0000
0000
0000
0000
,
0100
0000
0000
0000
0000
0000
0000
0000
0000
0000
1000
0000
0100
0000
00M0
0000
0100
0000
0000
0000
0000
0000
0010
0000
1000
0000
0000
0000
0000
0000
0010
0000
0000
0M00
0000
0000
0010
0000
0000
0000
0000
0000
0001
0000
0000
0000
0000
0000
,
2000
0000
0000
0001
0000
0100
0010
0000
0100
0000
0000
0010
0100
0000
0001
0100
0000
0010
3100
0000
0020
0000
0000
1030
,
0002
0000
0000
1000
0000
0100
0010
0000
0100
0000
0000
0010
0100
0000
1000
0100
0000
0010
0103
0000
0010
0001
1000
0010
,
0200
0000
0000
0301
0000
0010
0200
0000
0000
2300
0000
0001
0100
0000
0010
0100
0000
0010
3100
0000
0001
1000
0000
0100
,
0020
0000
0000
0031
0000
1000
0100
00M0
0100
0001
0000
1000
0100
0000
0010
1000
0000
0010
0100
0000
1000
0001
0100
0010
,
2000
0000
0000
3001
0000
1000
0100
0000
0010
0002
0000
1000
0100
0000
0010
0100
0000
0010
0103
0000
1000
0010
0000
1000
,
0200
0000
0000
0310
0000
0001
0100
00M0
0100
1000
0000
0001
0010
0000
0100
0001
0000
0100
0010
0000
0001
1000
0100
0010
,
0002
0000
0000
1000
0000
0100
0010
0000
0103
1000
0000
0010
1000
0000
0000
0100
0000
0001
0100
0000
1000
0100
0000
1000
,
0010
0000
0000
0010
0000
0100
0001
0000
0010
0100
0000
1000
0001
0000
1000
0010
0000
0100
0001
0000
0000
0001
0000
0000
,
1100
0000
0000
0001
0000
0000
1000
0000
0000
0010
0M00
0010
0001
0000
0001
0100
0000
0010
1000
0000
0100
0000
0000
0010
,
0001
0000
0000
1000
0000
0000
0001
0000
0000
0010
0M00
0010
1000
0000
1000
0100
0000
0010
0001
0000
0100
0000
0000
0010
,
1100
0000
0000
0001
0000
0000
1100
0000
0000
0010
0000
0000
1100
00M0
0100
0010
0000
0010
0001
0000
0100
0010
0000
1000
,
0100
0010
0001
1000
0100
1000
0010
0100
0001
0010
0001
0100
0010
0000
0000
4000
0000
3001
1100
0000
0000
0011
0000
0000
,
2001
0000
0000
0000
0000
0000
3100
0000
0000
0000
0000
0000
1010
0000
0000
000M
0000
0000
0020
0000
0000
0000
1000
0000
0000
0000
0000
0000
0130
0000
0001
0000
0000
0000
0000
0000
1100
0000
00M0
0000
0100
0000
1000
0000
0000
0000
0000
0000
,
0001
0000
0000
0000
0000
0000
0010
0000
0M00
0000
0010
0000
1100
0000
0000
0000
0010
0000
0100
0000
0000
0000
1000
0000
0100
0000
0000
0000
0001
0000
0010
0000
0000
0000
0000
0000
0101
0000
0000
M000
0000
0000
0100
0000
0000
0000
0000
0000
,
0001
0000
0010
0000
0001
0000
1000
0000
0000
0000
0000
0000
0011
0000
0000
M000
0000
0000
0020
0000
0000
0000
0001
0000
0000
0000
0000
0000
0130
0000
1000
0000
0000
0000
0000
0000
0101
0000
00M0
0000
0100
0000
0001
0000
0000
0000
0000
0000
,
1000
0000
0000
0010
0M00
0010
0101
0000
0010
0100
0000
0001
0100
0000
1000
0010
0000
0000
1100
0000
0000
0011
0000
0000
,
2001
0000
0000
0000
0000
0000
3010
0000
0000
0000
0000
0000
1100
0000
0000
000M
0000
0000
0200
0000
0000
0000
1000
0000
0000
0000
0000
0000
0310
0000
0001
0000
0000
0000
0000
0000
1010
0000
0M00
0000
0010
0000
1000
0000
0000
0000
0000
0000
,
0001
0000
0000
0000
0000
0000
0100
0000
00M0
0000
0100
0000
1010
0000
0000
0000
0100
0000
0010
0000
0000
0000
1000
0000
0010
0000
0000
0000
0001
0000
0100
0000
0000
0000
0000
0000
0011
0000
0000
M000
0000
0000
0010
0000
0000
0000
0000
0000
,
0001
0000
0000
0000
1000
0000
0010
0000
0000
0000
0000
0000
1100
0000
0000
000M
0000
0000
0100
0000
0000
0000
0010
0000
0000
0000
0000
0000
1000
0000
0010
0000
0000
0000
0001
0000
1010
0000
0000
0000
0001
0000
0100
0000
0000
0000
0010
0000
,
0100
000M
0100
1000
0000
0001
0010
0M00
0010
1000
0000
0010
0001
0000
0010
1000
0000
0001
1010
0000
0000
0101
0000
0000
,
1002
0000
0000
0000
0000
0000
0000
0000
0000
0000
0000
0000
0000
0000
0000
0000
0000
0000
0000
0000
0000
0000
0000
0000
0000
0000
0000
0000
0000
0000
0000
0000
0000
0000
0000
0000
0000
0000
0000
0000
1003
0000
0000
0000
0000
0000
0000
0000
0011
0000
0000
0000
0000
0000
0000
0000
0000
0000
0000
0000
0000
0000
0000
0000
1000
0000
0000
0000
0000
0000
0000
0000
0000
0000
0000
0000
0000
0000
0000
0000
0000
0000
0000
0000
0000
0000
0000
0000
0001
0000
0000
0000
0000
0000
0000
0000
0010
0000
0000
0001
0000
0000
0000
0000
0000
0000
0000
0000
0000
0000
0000
0000
1000
0000
0000
0000
0000
0000
0000
0000
0010
0000
0000
0000
0000
0000
0000
0000
0000
0000
0000
0000
0000
0000
0000
0000
0000
0000
0000
0000
0000
0000
0000
0000
1100
0000
0000
0000
0000
0000
0000
0000
0000
0000
0000
0000
00M0
0000
0000
0000
0000
0000
0000
0000
0000
0000
0000
0000
0100
0000
0000
0000
0000
0000
0000
0000
0000
0000
0000
0000
0000
0000
0000
0000
0000
0000
0000
0000
0000
0000
0000
0000
,
1010
0000
0000
0000
0001
0000
1000
0000
0000
0000
0010
0000
1100
0000
0000
0000
0010
0000
0000
0000
0000
0000
1000
0000
0100
0000
00M0
0000
0100
0000
0001
0000
0000
0000
0000
0000
1010
0000
0000
0000
0100
0000
1000
0000
0001
0100
0001
0000
,
1100
0000
0000
00M0
0000
0000
0100
0000
0000
0000
1000
0000
0101
0000
0000
0000
0100
0000
0000
0000
0000
0000
0001
0000
0010
0000
0M00
0000
0010
0000
1000
0000
0000
0000
0001
0000
1010
0000
0000
0000
0001
0000
1000
0000
0000
0010
1000
0000
,
0011
0000
0100
0001
0000
1000
0101
0000
0010
0001
0000
1000
0100
00M0
0100
0001
0000
0001
1010
0000
0100
1000
0000
0000
,
1002
0000
0000
0000
0000
1003
0011
0000
1000
0000
0000
0001
0010
0M00
0010
1000
0000
0000
0101
0000
1000
0100
0000
0000
,
0001
0000
0000
0000
0000
0000
0000
0000
0000
0000
0000
0000
0000
0000
0000
0000
0100
0000
0000
0000
0000
0000
0000
0000
1000
0000
0000
0000
0000
0000
0000
0000
0000
0000
0000
0000
0000
0000
0000
0000
0100
0000
0000
0000
0000
0000
0000
0000
1010
0000
0000
0000
0000
0000
0000
0000
0000
0000
0000
0000
0000
0000
0000
0000
0100
0000
0000
0000
0000
0000
0000
0000
0000
0000
0000
0000
0000
0000
0000
0000
0000
0000
0000
0000
0000
0000
0000
0000
1000
0000
0000
0000
0000
0000
0000
0000
0010
0000
0000
1000
0000
0000
0000
0000
0000
0000
0000
0000
0000
0000
0000
0000
0001
0000
0000
0000
0000
0000
0000
0000
0010
0000
0000
0000
0000
0000
0000
0000
0000
0000
0000
0000
0000
0000
0000
0000
0000
0000
0000
0000
0000
0000
0000
0000
0101
0000
0000
0000
0000
0000
0000
0000
0000
0000
0000
0000
0000
0000
0000
0000
0010
0000
0000
0000
0000
0000
0000
0000
0001
0000
0000
0000
0000
0000
0000
0000
0000
0000
0000
0000
0000
0000
0000
0000
0100
0000
0000
0000
0000
0000
0000
0000
,
0011
0000
0000
0000
0000
0000
0000
0000
0000
0000
0000
0000
0000
0000
0000
0000
0000
0000
0000
0000
0000
0000
0000
0000
1000
0000
0000
0000
0000
0000
0000
0000
0000
0000
0000
0000
0000
0000
0000
0000
0001
0000
0000
0000
0000
0000
0000
0000
1010
0000
0000
0000
0000
0000
0000
0000
0M00
0000
0000
0000
0000
0000
0000
0000
0010
0000
0000
0000
0000
0000
0000
0000
1000
0000
0000
0000
0000
0000
0000
0000
0000
0000
0000
0000
0000
0000
0000
0000
1000
0000
0000
0000
0000
0000
0000
0000
0100
0000
0000
1000
0000
0000
0000
0000
0000
0000
0000
0000
0000
0000
0000
0000
0001
0000
0000
0000
0000
0000
0000
0000
0100
0000
0000
0000
0000
0000
0000
0000
0000
0000
0000
0000
0000
0000
0000
0000
0001
0000
0000
0000
0000
0000
0000
0000
1100
0000
0000
0000
0000
0000
0000
0000
0000
0000
0000
0000
0001
0000
0000
0000
1000
0000
0000
0000
0000
0000
0000
0000
0100
0000
0000
0000
0000
0000
0000
0000
0000
0000
0000
0000
0000
0000
0000
0000
1000
0000
0000
0000
0000
0000
0000
0000
,
0010
0000
0000
0000
0000
0000
0100
0000
0000
0000
0001
0000
1000
0000
0000
0000
0100
0000
0000
00M0
0000
0000
0100
0000
0001
0000
0000
0000
1000
0100
1000
0000
0000
0010
0100
0000
0001
0000
0000
0000
0000
0000
1000
0000
0000
0000
0000
0000
,
0102
0000
0000
1000
0000
0100
0010
0000
0100
0000
0000
0010
0100
0000
1000
0100
0000
0010
0103
0000
0020
0000
0000
0031
,
2000
0000
0000
0001
0000
0100
0010
0000
0100
0000
0000
0010
0100
0000
0001
0100
0000
0010
3100
0000
0010
1000
0001
0010
,
0200
0000
0000
1300
0000
0010
0200
0000
0000
0302
0000
1000
0100
0000
0010
0100
0000
0010
0103
0000
1000
0001
0000
0100
,
0020
0000
0000
1030
0000
0001
0100
00M0
0100
1000
0000
0001
0100
0000
0010
0001
0000
0010
0100
0000
0001
1000
0100
0010
,
0102
0000
0000
1003
0000
0001
0100
0000
0010
2000
0000
0001
0100
0000
0010
0100
0000
0010
3100
0000
0001
0010
0000
0001
,
0200
0000
0000
0310
0000
1000
0100
00M0
0100
0001
0000
1000
0010
0000
0100
1000
0000
0100
0010
0000
1000
0001
0100
0010
,
2000
0000
0000
0001
0000
3100
0010
0001
1000
0100
1000
0001
0100
0000
0010
0100
0000
1000
0100
0010
0100
0001
1000
0100
,
0010
0001
1000
0010
0100
0001
1000
0100
0010
0001
0100
0001
0010
0100
1000
0010
0100
0001
0010
0100
1000
0001
0100
0010
,
1100
0000
0000
000M
0000
0000
0100
0000
0000
0000
0000
0000
1010
0000
0000
0000
0001
0000
1000
0000
0000
0000
0010
0000
0100
0000
000M
0000
0100
0000
1000
0000
0000
0000
1000
0000
0010
0000
0000
0000
0002
0000
0000
0000
0000
0000
0013
0000
,
1100
0000
0000
000M
0000
0000
0100
0000
0000
0000
0000
0000
1010
0000
0001
0000
1000
0000
0010
0000
0100
0000
0001
0000
1000
0000
0000
0000
0000
0000
0010
0000
0000
0000
0002
0000
0000
0000
0000
0000
0013
0000
0100
0000
0000
0000
0000
0000
,
0011
0000
0000
M000
0000
0000
0010
0000
0000
0000
0000
0000
0101
0000
0000
0000
0000
0000
0010
0000
0M00
0000
0010
0000
1000
0000
0000
0000
0000
0000
0100
0000
00M0
0000
0100
0000
0010
0000
0000
0000
0002
0000
0000
0000
0000
0000
0013
0000
,
1100
0000
0000
0001
0000
1000
0101
0010
0001
1000
0010
0100
0011
0000
0000
1000
0000
0100
1010
0000
0000
0101
0000
0000
,
1002
0000
0000
0013
0000
0000
0100
00M0
1100
0011
0000
0000
1000
0000
0000
0011
0000
0000
0100
M000
0101
1010
0000
0001
,
0010
0000
0000
0101
0000
1000
0100
00M0
1100
0011
0000
0100
1000
0000
0100
0001
0000
0000
0010
0M00
0011
1100
0000
0000
,
0001
0010
0001
1010
0000
0000
0100
00M0
1100
0011
0000
0000
0M10
0000
0000
0101
0000
0000
0010
0M00
0011
1100
0000
0000
,
0001
0000
0000
0000
0000
0000
1100
0000
0000
0000
0001
0000
0100
0000
00M0
0000
0101
0000
1010
0000
0000
0000
0100
0000
0001
0000
0000
0000
0100
0000
1000
0000
0000
0000
0010
0000
0100
0000
0000
0000
0001
0000
0100
00M0
0100
0000
1000
0000
,
0011
0000
0000
1100
0000
0000
0010
000M
1010
0101
0000
0000
0101
0000
0000
1010
0000
0000
0001
0000
1100
0011
0000
0000
,
0M10
0000
0000
0101
0000
0000
0010
0M00
0011
1100
0000
0010
0001
0000
0010
1000
0000
0000
0100
00M0
1100
0011
0000
0000
,
1000
0010
1000
0101
1000
0010
0100
0001
1100
0011
0000
0000
0M10
0000
0000
0101
0000
0000
0010
0M00
0011
1100
0000
0000
,
0010
0000
0000
1000
0000
0101
1010
0000
0000
0001
0000
1100
0011
0000
0000
1000
0000
0101
0010
0000
0004
0000
0000
0000
,
1003
0000
0000
0011
0000
0000
1000
0000
0101
1010
0000
0000
0100
0000
0000
1010
0000
0000
0001
0000
1100
0011
0000
0000
,
1000
0000
0000
0011
0000
0000
1000
0000
0101
1010
0000
0000
0001
0000
0000
1010
0000
0100
1000
0000
0011
1100
0000
0000
,
0001
0000
0000
1100
0000
0010
1000
0000
0101
1010
0000
0001
0100
0000
0011
1100
0000
0001
0010
0000
0001
0100
0010
1000
,
0001
0000
0000
0100
000M
0100
1000
0000
1000
0001
0000
1000
0100
M000
0100
0001
0000
0000
1000
0000
0000
1000
0100
0010
,
0001
0000
0000
0000
0000
0000
1000
0000
0000
0000
0000
0000
0010
0000
1000
0001
0000
0000
0010
0000
0000
0001
0000
0000
,
0100
0000
0000
0001
0000
1000
0100
0000
0000
0010
0000
0001
1000
0000
0000
0010
0000
1000
0010
0000
0000
1000
0000
0000
,
0100
0000
0000
0010
0000
0001
0010
0000
0001
1000
0000
0000
0001
0000
1000
0010
0000
0000
0100
0000
0000
0001
0000
0000
,
0010
0000
0000
0100
0000
0000
1000
0000
0000
0001
0000
1000
0010
0000
0000
0100
0000
0001
1000
0000
0000
0100
0000
0000
,
0020
0000
0000
0000
,
0030
0000
0000
0000
;
