#TITLE:Climax;
#SUBTITLE:;
#ARTIST:USAO;
#TITLETRANSLIT:;
#SUBTITLETRANSLIT:;
#ARTISTTRANSLIT:;
#GENRE:;
#CREDIT:;
#MUSIC:Climax.ogg;
#BANNER:;
#BACKGROUND:;
#CDTITLE:;
#SAMPLESTART:42.031;
#SAMPLELENGTH:10.110;
#SELECTABLE:YES;
#OFFSET:-0.329;
#BPMS:0.000=189.920
,194.000=95.000
,210.000=190.000
,242.000=189.920
;
#STOPS:192.000=0.632;
#BGCHANGES:;
#FGCHANGES:;

//--------------- dance-single - eataninja ----------------
#NOTES:
     dance-single:
     eataninja:
     Beginner:
     6:
     0,0,0,0,0:
0000
0000
0000
0000
,
0000
0000
0000
0000
,
0000
0000
0000
0000
,
0000
0000
0000
0000
,
0000
0000
0000
0000
,
0000
0001
0000
0001
,
0000
0100
0000
0100
,
0000
1000
0000
0010
,
0110
0000
0000
0000
,
1001
0000
0000
0000
,
1001
0000
0000
0000
,
0110
0000
0000
0000
,
0200
0000
0300
0000
,
0110
0000
0110
0000
,
1001
0000
1001
0000
,
0001
0001
1000
1000
,
0010
0000
0000
0000
,
0100
0100
0100
0000
,
0001
0001
0001
0000
,
0010
0010
0010
0000
,
0100
0100
0100
0000
,
1000
0001
1000
0000
,
0010
0010
0010
0000
,
0100
0100
0100
0000
,
0002
0000
0003
0000
,
1000
0100
1000
1000
,
0001
0100
0100
0010
,
0000
0010
0000
0010
,
1000
0001
0001
0000
,
0010
0100
1000
1000
,
0001
0100
0010
0000
,
2000
0000
3002
0000
,
0010
0010
0013
0000
,
0010
0100
0100
0100
,
0100
0100
0100
0000
,
0100
1000
1000
1000
,
1000
1000
0001
0000
,
0100
0010
0010
0010
,
0010
0010
0010
0000
,
0010
1000
1000
1000
,
0100
0100
0010
0000
,
0000
0001
1000
1000
,
0001
0001
1000
0000
,
0010
0100
0010
0010
,
2000
0000
3002
0000
,
0013
0000
0100
0000
,
1000
0001
1000
0000
,
0020
0000
0230
0000
,
0301
0000
1001
1000
,
1001
0001
0010
1000
,
0100
0001
1001
0001
,
1001
1000
0010
0001
,
0100
1000
0002
0000
,
0000
0003
0200
0000
,
0000
0300
0020
0000
,
0000
0030
2000
0000
,
0000
3000
0000
0001
,
0000
0001
0000
0010
,
0000
0010
0000
1000
,
0000
0100
0110
0000
,
0010
0000
0001
1000
,
0010
0010
0100
0100
,
0001
0000
1000
0100
,
0010
0010
0001
0001
,
1000
0000
0001
0100
,
0001
0000
1000
0100
,
1000
0000
0002
0000
,
0023
0000
0130
0000
,
0000
0000
1000
0010
,
0100
0000
0010
1000
,
0100
0000
2000
0000
,
3100
0000
0002
0000
,
0103
0000
1000
0001
,
0010
0000
0001
1000
,
0010
0000
0000
0110
,
0000
1001
0000
0001
,
0001
0000
1000
0100
,
0100
0100
0100
0100
,
0100
0000
0100
0010
,
0001
0001
1000
1000
,
0010
0000
0010
0100
,
0100
0100
0100
0100
,
0100
0000
0002
0000
,
2003
0000
3100
0000
,
1001
0000
0001
0010
,
0001
0000
1000
0010
,
1000
0000
0001
0100
,
0000
1000
0000
0100
,
0000
0001
1000
1000
,
0001
0001
0010
0100
,
1000
0000
1001
0000
,
0110
0000
0100
0010
,
0100
0000
1001
0000
;

//--------------- dance-single - eataninja ----------------
#NOTES:
     dance-single:
     eataninja:
     Easy:
     10:
     0,0,0,0,0:
0000
0000
0000
0000
,
0000
0000
0000
0000
,
0000
0000
0000
0000
,
0000
0000
0000
0000
,
0000
0000
0000
0000
,
0000
1100
0000
1001
,
0000
0101
0000
1001
,
0000
0110
0000
1001
,
2000
0000
0000
3010
,
0100
0000
0000
0001
0000
0001
0000
0001
,
1000
0000
0000
0100
0000
0100
0000
0100
,
0010
0000
0000
0001
0000
0001
0000
0001
,
1000
0000
0000
0010
0000
0010
0000
0010
,
0100
0100
0001
0001
,
0010
0010
0100
0100
,
1000
0001
1000
0000
0010
0100
0010
0000
,
0200
0000
0000
0300
,
0001
0001
1000
1000
,
0200
0310
0002
0103
,
0010
0010
0100
0100
,
0002
2003
3002
0013
,
0100
0100
0100
0000
2000
0000
3001
0000
,
0200
0310
2000
3100
,
0020
0031
1000
1000
,
0010
0000
0000
0000
0100
0010
1000
0000
,
0001
0000
0010
0000
1000
0010
0000
0100
,
0000
0010
0000
0010
0000
0000
0001
1000
,
0010
0000
1000
0001
0010
0000
0001
1000
,
0010
0100
0000
0100
0000
0100
0001
0000
,
1000
0000
0001
0100
0000
0100
0000
1000
,
0000
0100
0001
0000
1000
0000
0000
0000
,
0100
0010
0001
0000
1000
0010
0100
0000
,
1000
0010
0002
0003
,
1000
0100
0010
0000
0011
0000
0011
0000
,
0101
0101
1010
1010
,
0010
1000
0001
0000
0011
0000
0011
0000
,
0110
0110
1001
0000
,
0001
0010
0100
0000
1100
0000
1100
0000
,
1010
1010
0110
1001
,
1000
0001
0010
0000
0110
0000
0110
0000
,
1000
1000
0001
0001
0100
0000
0000
0000
,
0010
0110
1001
1001
,
0011
0000
0011
0000
0010
0100
1000
0000
,
0001
0100
0010
0000
1010
0000
1010
0000
,
1001
0001
0010
1100
,
1000
0001
1000
0000
0010
0100
0010
0000
,
0001
0010
1000
0000
0001
0010
0100
0000
,
1000
0010
1000
0010
0100
0001
0100
0001
,
1000
0000
0000
0000
0021
0000
0100
0100
,
1000
0100
0031
0000
1000
0010
0100
0000
,
0001
0010
0100
0000
1200
0000
0010
0010
,
0001
0010
1300
0000
0001
0100
1000
0010
,
0002
1003
0200
0000
,
0320
0000
0032
0000
,
2003
0000
3020
0000
,
0230
0000
0302
0000
,
2003
0000
3100
0110
,
0000
1001
0000
0101
,
0000
1100
1000
0001
,
0100
0100
0020
0000
,
1030
0001
1000
0000
0001
0010
0100
1000
,
0000
1000
0000
0010
0000
0100
0100
0000
,
0001
1000
0001
0000
1000
0001
0100
0010
,
0000
0010
0000
0100
0000
1000
0100
0000
,
0001
1000
0001
0000
1000
0100
0010
0001
,
0000
0001
0000
0100
0000
0010
0010
0000
,
1000
0001
1000
0000
0001
0010
0100
0000
,
1000
0010
0100
0000
0002
0000
0000
0000
,
0000
0000
1003
0000
1000
0001
0010
0200
,
0000
0310
0001
0000
1000
0001
0100
0020
,
0000
0130
0001
0000
1000
0100
1000
0000
,
0001
0100
0001
0000
1000
0010
1000
0000
,
0001
0010
0100
0000
1000
0001
0100
0020
,
0000
0130
0001
0000
1000
0001
0010
0200
,
0000
0310
0001
0000
1000
0000
1010
0000
,
0000
0101
0001
1000
,
0100
0000
0000
0000
1000
0100
0001
0000
,
0101
0101
1100
1100
,
1001
0000
1001
0000
0001
0100
1000
0000
,
1100
0000
0000
0000
0101
0000
0000
0000
1000
0000
0000
0001
0000
0000
0010
0000
,
0000
0100
0100
0000
1000
0001
0010
0000
,
0110
0110
1001
1001
,
0101
0000
0101
0000
1000
0001
0010
0000
,
1000
0010
0001
0000
0200
0000
0000
0000
,
0310
1001
1000
0100
,
0010
0000
0010
0000
0001
1000
0001
0000
,
0100
0010
0100
0000
0001
0000
1000
0010
,
0100
0000
0010
0100
0001
0000
1000
0001
,
0010
0000
0100
0000
1000
0001
0010
0100
,
0000
0100
0000
0002
0000
0103
0010
0001
,
2000
3010
1010
1010
,
0101
0101
1000
0001
,
0010
0010
0010
0000
1001
0000
0000
0000
;

//--------------- dance-single - eataninja ----------------
#NOTES:
     dance-single:
     eataninja:
     Medium:
     14:
     0,0,0,0,0:
0000
0000
0000
0000
,
0000
0000
0000
0000
,
0000
0000
0000
0000
,
0000
0000
0000
0000
,
0000
0000
0000
0000
,
1000
1100
0000
0101
,
0010
1010
0000
0011
,
1000
0000
0001
0010
0100
0000
1000
0010
,
0200
0000
1000
1000
1000
0000
0301
0000
,
1002
0000
0000
0010
0000
0010
0000
0010
,
2003
0000
0000
0010
0000
0010
0000
0010
,
3002
0000
0000
0100
0000
0100
0000
0100
,
2003
3002
0023
0230
,
1300
0001
1000
0001
0010
0001
0010
0001
,
1000
0010
1000
0010
1000
0001
1000
0001
,
0010
0100
1000
0010
0100
0001
1000
0001
,
0020
0000
1000
0000
0001
0001
0031
0000
,
1000
0010
0100
0000
0010
1000
0001
0000
,
0011
0000
0010
0100
1100
0000
1000
0001
,
1001
0000
0001
0000
0100
0010
1000
0000
,
0001
0010
0001
0010
0100
1000
0100
1000
,
0010
0010
0010
0000
0110
0000
0100
0001
,
1001
0000
1000
0100
0110
0000
0010
0001
,
1001
0000
1000
0010
0001
0010
1000
0000
,
0001
0010
0001
0000
1000
0010
0100
0000
,
0001
0000
1000
0100
0001
0100
0000
0010
,
0000
0000
0001
0000
0000
0000
0001
0000
0000
0000
1000
0000
0010
0000
0100
0010
,
0100
0000
0000
0000
0001
0000
1000
0001
1000
0000
0000
0000
0100
0000
0010
0100
,
0010
0001
0000
0001
1000
1000
0010
0100
,
0001
1000
0100
0010
0000
0010
0000
2000
,
0000
3010
0001
1000
0010
0000
0100
0000
,
0001
0100
0001
0100
0010
1000
0010
1000
,
0001
0011
2100
3001
,
1000
0010
0100
0000
0101
0100
0101
0000
,
1001
0001
1001
0000
0001
1000
0010
0001
,
0010
0100
0001
0000
0101
0100
0101
0000
,
1100
0100
1100
0000
0201
0000
1300
0001
,
0100
0010
1000
0000
1001
1000
1001
0000
,
0011
0010
0011
0000
0010
0001
0100
1000
,
0100
0010
1000
0000
1010
0010
1010
0000
,
0001
0001
0010
0010
1000
0010
0001
1000
,
0010
0000
0100
0000
0101
0100
0110
0000
,
1010
1000
1001
0000
0001
0001
0010
1000
,
0010
0000
0100
0000
1000
0000
0000
0001
0000
0000
0100
0000
0010
0000
0010
0000
,
1000
0000
0000
0001
0000
0000
0100
0000
0000
1000
0000
0000
0100
0000
0010
0000
,
1000
0001
0010
0000
0110
0100
1100
0000
,
1001
0001
0101
0000
0100
1000
0100
0010
,
1000
0001
1000
0001
0010
0100
0010
0100
,
1000
0000
0000
0000
1001
0000
0000
0000
0002
0000
0000
0000
0100
0100
0103
0000
,
2001
0000
0100
3001
0010
0011
0000
1010
,
1000
1000
1000
0000
0001
0100
0010
0000
2000
0000
0000
0000
0001
0001
3001
0000
,
0100
0000
0101
0000
0000
0000
1100
0000
1000
0100
0010
0001
0100
0010
1000
0000
,
0002
0000
0000
0103
2001
0000
0000
0100
,
0000
0001
0000
0100
0000
0010
0000
3010
,
0000
1000
0001
0000
0100
0000
0100
0000
,
0010
0000
1000
0000
0001
0010
0100
1000
,
0010
0100
0001
0000
1000
0000
1100
0000
,
0000
0101
0010
0011
,
0000
0000
1010
0000
0001
1000
0100
0001
,
0000
0001
0000
0200
0000
0310
0001
1000
,
0010
0100
0010
1000
0001
0010
0100
0001
,
0000
0001
0000
1200
0000
1300
0001
1000
,
0010
0001
0010
0100
0001
1000
0010
0001
,
0000
0001
0000
0021
0000
0130
0001
0010
,
0100
1000
0001
0000
1000
0100
0010
0001
,
1000
0000
1000
0000
1000
0000
0000
0000
0010
0000
0100
0000
0001
0000
1000
0010
,
0000
1000
0001
0000
0010
0000
0100
0000
1000
0000
0000
1000
0000
0000
0001
0000
,
0000
0001
0000
0000
0100
0000
0010
0000
2000
0000
0000
0000
0100
0000
0000
0000
,
0001
0000
3010
0000
0001
0010
1000
0002
,
0000
0013
0100
0000
0001
0100
1000
0002
,
0000
0103
0010
0000
1000
0001
0010
0100
,
1000
0001
1000
0010
0100
0001
1000
0100
,
0010
0001
0100
0000
1000
0100
0001
2000
,
0000
3100
0010
0000
1000
0010
0001
2000
,
0000
3010
0100
0000
0001
1000
1100
0000
,
1000
0000
0001
0000
0101
0000
0000
0000
0100
0000
0000
0100
0000
0000
0100
0000
,
0010
0000
0000
0000
1010
1000
1001
0000
,
0011
0001
1001
0000
1100
1000
1001
0000
,
0001
0000
0100
0000
1000
0000
0100
0000
0010
0000
1000
0000
0001
0000
0000
0010
,
0000
0000
0100
0000
1000
0000
1000
0000
0001
0000
0000
0100
0000
0000
0120
0000
,
0000
1000
1030
0000
1001
0001
0011
0000
,
1100
1000
1001
0000
0110
0100
0101
0000
,
0001
0010
0100
1000
0001
0100
0001
0100
,
0010
1000
0010
1000
0100
0010
0001
0000
,
2100
0000
3001
0000
1000
0010
0100
0000
,
0010
1000
0001
0000
1000
0100
0010
0001
,
1000
0000
0010
0000
0100
0000
0001
0000
1000
0000
0000
0000
0001
0000
1000
0100
,
1000
0000
0000
0000
0001
0000
0100
0010
0100
0000
0000
0000
0010
0000
1000
0000
,
0001
0010
0100
0000
1000
0001
0100
0010
,
0000
0010
0000
0002
0000
0013
1000
0001
,
0010
0100
1000
0000
0001
0100
0001
0100
,
1000
0100
1000
0100
0010
0000
0100
0001
,
1000
1000
0100
0000
1001
0000
0000
0000
;

//--------------- dance-single - eataninja ----------------
#NOTES:
     dance-single:
     eataninja:
     Hard:
     17:
     0,0,0,0,0:
0000
0000
0000
0000
,
0000
0000
0000
0000
,
0000
0000
0000
0000
,
0000
0000
0000
0000
,
0000
0000
0000
0000
,
1002
0103
0000
0100
,
2001
3100
0000
0100
,
0010
0000
0001
1000
0010
0000
1000
0001
,
0020
0000
0100
0100
0130
0000
1001
0000
,
1000
0100
0000
0010
0000
0010
0000
0010
,
0001
0100
0000
0010
0000
0010
0000
0010
,
1000
0100
0000
0010
0000
0010
0000
0010
,
0001
0000
1000
0000
0010
0100
0001
1000
0010
0000
1000
0000
0100
0000
0010
0000
,
0001
1000
1000
1000
0010
0100
0100
0100
,
0001
1000
1000
1000
0100
0010
0010
0010
,
0001
1000
0001
0000
0010
0001
0010
0000
0100
0010
0100
0000
1000
0001
1000
0000
,
0010
0010
0100
0001
0010
1000
0010
0100
,
1001
0000
1000
0100
1000
0001
1000
0010
,
0200
0301
0020
0130
2000
3001
0200
0310
,
0001
0010
0100
0010
1000
0001
0010
0001
,
2000
3100
0020
0031
2000
3001
0200
0310
,
0100
0100
1001
0001
2000
3100
0010
0001
,
0200
1300
0100
0001
2000
3100
0010
0001
,
0200
0310
0100
0001
1000
0010
1000
0001
,
0010
0000
1000
0000
0010
0100
0010
0100
1000
0000
0001
0000
0100
0000
0010
0000
,
0110
0000
0100
1000
0100
0001
1000
0100
,
0000
0000
0100
0000
0001
0000
0100
0000
0000
0000
0100
0000
0010
0001
1000
0001
,
0100
0000
0000
0000
0001
0010
0001
1000
0100
0000
0000
0000
1000
0001
1000
0010
,
0100
1000
0000
1000
0100
0100
0010
1000
,
0001
0010
0100
0001
0000
0001
1000
0010
,
0100
0010
0100
0010
0001
0000
1000
0010
0000
1000
0001
0000
0010
0000
0001
0000
,
1000
0100
1000
0000
0001
0010
0001
0000
1000
0010
1000
0000
0001
0100
0001
0000
,
0200
0320
2030
3001
,
1001
0000
1000
0000
0010
0000
0000
0010
0100
0000
0000
0100
0001
0000
0000
0001
,
1000
0000
0000
1000
0100
0000
0000
0100
0010
0000
1000
0000
0010
0000
0001
0000
,
1001
0000
1000
0000
0010
0100
0000
0000
0100
0001
0000
0000
0001
1000
0000
0000
,
1000
0100
0000
0000
0100
0010
0000
0000
0012
0000
0000
0000
1003
0000
0001
0000
,
0100
0000
0010
0000
1000
0000
0000
1000
0001
0000
0000
0001
0010
0000
0000
0010
,
0100
0000
0000
0100
1000
0000
0000
1000
0010
0000
0001
0000
0010
0000
0100
0000
,
0001
0000
1000
0000
0100
1000
0000
0000
1000
0001
0000
0000
0001
0100
0000
0000
,
0010
0000
0010
0000
1000
0000
1000
0000
0100
0000
0001
0000
0100
0010
0001
1000
,
0010
0000
0000
0000
1000
0010
1000
0000
0010
0100
0010
0000
0100
0001
0100
0000
,
0001
1000
0001
0000
1000
0100
1000
0000
0100
0000
0001
0000
0100
0000
1000
0000
,
0001
1000
0001
1000
0010
0000
0100
0010
0000
0010
1000
0000
0001
0000
0010
0000
,
0100
0000
0000
1100
0000
0000
1001
0000
0000
0001
0000
0001
0100
0000
0010
1000
,
0001
0000
0000
0000
1000
0100
1000
0000
0001
0010
0001
0000
1000
0010
1000
0000
,
0010
0100
0010
0000
0100
0001
0100
0000
1000
0000
0100
0000
0001
0000
1000
0000
,
0001
0100
0001
0100
0001
0100
0001
0100
0010
1000
0010
1000
0010
1000
0010
1000
,
0001
0000
0000
0000
1001
0000
0000
0000
0002
0000
0000
0013
0100
0100
0100
0100
,
2000
0000
3001
1000
0010
0000
0100
0000
1002
0000
1003
0100
0001
0000
0100
1000
,
0001
0001
0100
0100
1000
0100
0110
0000
2000
0000
3002
0000
0013
0010
0010
0010
,
2001
0000
3001
0010
1000
0000
0010
0001
1000
0010
1000
0010
0100
0001
0100
0001
,
0020
0000
0000
0130
2001
0000
0000
0010
,
0000
0001
0000
0100
0000
0010
0000
0010
,
0000
3001
0100
0010
1000
0001
0010
0100
,
1000
0000
0001
0000
1000
0000
0000
0000
0001
0100
0001
0100
0010
0100
0010
0000
,
1000
0001
1000
0001
0010
0001
0010
0000
0100
0000
0010
0000
0110
0000
0000
0000
,
1000
0001
1001
0000
0010
0100
0110
0000
,
0001
1000
1001
0000
1000
0001
0100
1000
,
0000
1000
0000
0100
0010
0010
1000
0001
,
0010
0000
1000
0000
0010
0000
0100
0000
1000
0000
0001
0000
0100
0000
0010
0100
,
0001
0000
1000
0100
0010
0000
0001
0000
1000
0000
0010
0000
0100
0000
0010
0000
,
0001
0000
0010
0000
0100
0010
1000
0001
0010
0000
0000
0000
0100
0000
1000
0001
,
0010
0000
0100
1000
0001
0000
1000
0000
0001
0100
0001
0000
1000
0010
1000
0000
,
0001
0010
0100
0000
1000
0001
1001
0000
,
0010
0000
0010
0000
1001
0000
0000
0000
0001
0100
0001
0100
0010
0000
0000
1000
,
0000
0000
1000
0000
1001
0000
0001
0000
0010
0000
0000
0011
0000
0000
0110
0000
,
0000
1000
0000
1000
0001
0000
0100
0010
0200
0000
0000
0000
1000
0000
0000
0000
,
0001
0001
0301
0000
0010
0100
1000
0002
,
0000
0103
0010
1000
0010
0100
0001
2000
,
0000
0000
3100
0000
0010
0000
0001
0000
1000
0100
0010
0000
0100
1000
0001
0000
,
1000
0010
0100
0000
0010
1000
0001
0000
0100
0000
0010
1000
0010
1000
0001
0010
,
0100
1000
0002
0000
0203
0000
0300
0000
0010
0000
0100
0000
1000
0000
0200
0000
,
0000
0310
1000
0001
0010
0100
0001
0200
,
0000
0310
0001
1000
0001
0100
0101
0000
,
1000
0000
0100
0000
1100
0000
0001
1000
0001
0000
0000
0001
0000
0000
0010
0000
,
0200
0000
0010
0000
0310
0000
0000
0000
0001
0000
1000
0000
0001
0100
0001
0000
,
0100
0010
0100
0000
0010
1000
0010
0000
1000
0001
1000
0000
0001
0010
0001
0000
,
0010
0000
1000
0000
0010
0000
0100
0000
1000
0000
0001
0000
0100
0010
0100
0010
,
0000
1000
0001
0000
0010
0100
1000
0000
0001
0000
0000
0101
0000
0000
2001
0000
,
0000
0000
3100
0000
0010
0000
0001
0000
1000
0000
0010
0000
0100
0001
0100
0000
,
0001
1000
0001
0000
1000
0100
1000
0000
0100
0010
0100
0000
0010
0001
0010
0000
,
0001
0000
1000
0000
0010
0000
0100
0000
0010
1000
0010
1000
0010
1000
0010
1000
,
0001
0100
0001
0100
0001
0100
0001
0100
0010
0000
1000
0000
0100
0000
0100
0000
,
0002
0003
1100
0000
1000
0001
0100
0010
,
0000
0000
0010
0000
0100
0000
0001
0000
1000
0001
0010
0000
0100
0010
0001
0000
,
1000
0001
0100
0000
0010
0100
0001
0000
1000
0000
0000
0000
0100
0010
0001
1000
,
0100
0000
0000
0000
0010
0001
1000
0010
0100
0000
0000
0000
0010
0000
0100
0000
,
1000
0100
0001
0001
1000
0001
0010
1000
,
0000
0000
1000
0000
0001
0000
0100
0000
0010
0100
0010
0100
1000
0000
0001
0010
,
0000
0001
1000
0000
0010
0000
0010
0000
0100
0001
0100
0001
1000
0001
1000
0001
,
1000
0100
1000
0100
0010
0100
0010
0100
0002
0000
0000
0000
0103
0000
0010
0001
,
1000
1000
0010
0000
1001
0000
0000
0000
;
