#TITLE:Cinderella;
#SUBTITLE:;
#ARTIST:Cidergirl;
#TITLETRANSLIT:;
#SUBTITLETRANSLIT:;
#ARTISTTRANSLIT:;
#GENRE:;
#CREDIT:;
#BANNER:Cinderella.png;
#BACKGROUND:Cinderella-bg.png;
#LYRICSPATH:Cinderella.lrc;
#CDTITLE:;
#MUSIC:Cinderella.ogg;
#OFFSET:-0.140849;
#SAMPLESTART:66.121567;
#SAMPLELENGTH:16.080000;
#SELECTABLE:YES;
#BPMS:0.000000=130.000000
;
#STOPS:
;
#BGCHANGES:0.000=Cinderella.avi=1.000=0=0=0=StretchNoLoop====,
99999=-nosongbg-=1.000=0=0=0 // don't automatically add -songbackground-
;
#KEYSOUNDS:;
#ATTACKS:;

//---------------dance-single - ----------------
#NOTES:
     dance-single:
     :
     Hard:
     12:
     0.622194,0.669182,0.093329,0.269617,0.388871,420.000000,411.000000,9.000000,26.000000,0.000000,0.000000,0.622194,0.669182,0.093329,0.269617,0.388871,420.000000,411.000000,9.000000,26.000000,0.000000,0.000000:
0000
0000
0000
0000
,
0000
0000
0000
0000
,
0000
0000
0000
0000
,
0001
0000
0100
0000
0010
0000
1000
0000
0100
0000
1000
0001
0100
0000
0001
0100
,
0001
0000
1000
0100
1000
0000
0001
0010
0001
0000
1000
0010
1000
0000
0001
0100
,
0001
0000
1000
0100
0010
0000
0001
0000
1000
0000
0010
0000
0100
0000
0001
0000
,
1000
1000
0001
0001
1000
0100
0001
0100
,
2000
0000
0000
0000
3001
0000
0100
0000
0010
0100
0000
0100
0001
0000
1000
0010
,
1000
0000
0001
0010
0001
0000
1000
0100
1000
0000
0001
0100
0001
0000
1000
0010
,
1000
0000
0001
0010
0100
0000
1000
0000
0001
0000
0100
0000
0010
0000
1000
0000
,
0001
0001
1000
1000
0001
0100
0010
1000
,
0020
0000
0100
0000
0100
0000
0100
0000
0130
0000
0000
0001
1000
0000
0000
0000
,
0102
0000
0000
0000
2003
0000
0000
0000
3200
0000
0000
0320
0000
0000
0031
0000
,
1000
0000
0001
0000
0100
0000
0010
1000
,
0200
0000
0000
0000
0320
0000
0000
0000
0032
0000
0000
2003
0000
0000
3001
0000
,
0200
0000
0310
1000
0002
0000
0013
0100
,
1000
0010
0100
0001
2000
0000
3001
0100
,
0010
1000
0001
0010
0200
0000
1300
0001
,
2000
0000
3001
0100
0002
0000
0103
0010
,
0110
0000
0110
0000
0000
0000
0000
0000
0000
0000
0001
0000
1000
0001
0000
0000
,
1000
0000
0100
0000
0010
0000
0000
0010
0001
0000
1000
0000
0001
0000
0100
0000
,
0010
0000
1000
0100
0010
0000
0001
0000
1000
0000
0001
0000
0100
0000
0010
0000
,
2000
0000
0000
0000
3001
0000
0000
0001
0013
0000
0100
0000
1000
0000
0001
0000
,
0100
0000
0001
1000
0001
0000
0100
0000
0001
0010
0000
0100
1000
0000
0001
0100
,
0010
0000
1000
0000
0001
0000
1000
0100
1000
0000
0100
0000
0010
0000
0001
1000
,
0001
0000
0100
0000
0010
0000
0100
0001
0100
0000
0001
0000
2000
0000
0000
0000
,
3010
0010
0100
0100
0001
0001
1000
0000
,
0101
0100
0110
0010
1001
0000
1000
0010
,
0110
0000
0000
0000
0000
0000
0001
1000
0001
0000
0000
0100
0000
0000
0010
0000
,
1000
0000
0001
0000
1000
0100
0000
0010
0001
0000
1000
0000
0010
1000
0000
0000
,
0001
0000
0100
0010
0000
0000
1000
0000
0001
0010
0000
0010
0000
0000
0001
1000
,
0100
0000
0010
0000
0100
0000
1000
0000
0010
0000
0100
0001
1000
0000
0000
0000
,
0102
0000
0000
0000
1003
0000
0010
0100
0020
0000
0000
0000
1030
0000
0001
0010
,
0100
1000
0100
1000
0002
0000
1003
0010
,
1000
0000
0000
1000
0001
0000
0010
0000
0100
0000
0000
0100
0010
0000
0001
1000
,
0001
0000
1000
0100
0000
0010
0001
0000
1000
0010
0000
0100
0001
1000
0001
1000
,
0010
0000
0100
0000
0001
0000
1000
0100
0010
0000
0001
0000
1000
0000
0001
0100
,
0010
1000
0100
0010
0002
0000
1003
0010
,
0100
0000
0001
1000
0001
0000
0100
0000
0010
0000
1000
0100
1000
0000
0001
0000
,
1000
0100
0001
0100
1000
0001
0200
0000
,
0310
0000
1000
0000
0001
0000
1000
0100
0010
0000
0001
0000
1000
0000
0001
0100
,
0010
1000
0001
1000
0200
0000
0310
0001
,
1000
0000
0001
0100
0001
0000
0100
0000
0010
0000
1000
0100
1000
0000
0001
0000
,
0100
0000
0010
0000
1000
0000
0001
0000
0010
0000
0100
1000
0001
0000
1000
0010
,
1000
0000
0001
0010
0001
0000
1000
0100
1000
0000
0001
0100
0001
0000
1000
0010
,
1000
0000
0001
0010
0100
0000
1000
0000
0001
0100
0010
0000
1000
0000
1000
0000
,
0001
0100
1000
0100
0001
0010
1000
0010
,
0002
0000
0000
0000
1003
0000
0010
0000
0100
0010
0000
0010
1000
0000
0001
0100
,
0001
0000
1000
0100
1000
0000
0001
0010
0001
0000
1000
0010
1000
0000
0001
0100
,
0001
0000
1000
0100
0010
0000
0001
0000
1000
0010
0100
0000
0001
0000
0001
0000
,
1000
0100
0001
0100
1000
0010
0100
0001
,
0200
0010
0010
0010
0310
1001
0000
0000
;

//---------------dance-single - ----------------
#NOTES:
     dance-single:
     :
     Medium:
     9:
     0.392575,0.428277,0.124439,0.591084,0.020740,265.000000,253.000000,12.000000,57.000000,0.000000,0.000000,0.392575,0.428277,0.124439,0.591084,0.020740,265.000000,253.000000,12.000000,57.000000,0.000000,0.000000:
0000
0000
0000
0000
,
0000
0000
0000
0000
,
0000
0000
0000
0000
,
1000
0100
0010
1001
,
0001
0100
0010
0100
0001
0100
0010
0100
,
0001
0100
0010
1000
0200
0000
0310
0000
,
0001
0010
0001
0000
1000
0010
1000
0000
,
0002
0000
0103
1301
,
1000
0010
0100
0010
1000
0010
0100
0010
,
1000
0010
0100
0001
0020
0000
0130
0000
,
1000
0100
1000
0000
0001
0100
0001
0000
,
1000
0001
1000
0001
0100
0000
0000
0000
,
0002
0203
0320
0030
,
2000
3200
0320
0030
,
0002
2003
3020
0230
,
0302
0000
2003
0000
,
3100
0000
0010
0100
0010
0000
0001
0000
,
1000
0000
0010
0100
0010
0000
0000
0000
,
2000
3010
0200
0301
,
1000
0001
0000
0000
0000
0000
0110
0000
,
1002
0000
0203
0000
0310
1000
0010
1000
,
0002
0000
2003
0000
3100
0000
1000
0001
,
2000
0000
3020
0000
0130
0001
0103
0001
,
2000
3002
0203
0300
,
2001
3200
0302
0203
,
2300
0000
3001
0100
0020
0000
2030
0000
,
3001
0100
0001
0000
1000
0100
1000
0000
,
0001
1000
0001
1000
0100
0000
0010
0000
,
2002
3003
1100
0001
,
1000
0001
0100
0010
1000
0000
0001
1000
,
0100
0100
0010
0010
,
0001
1000
0001
1000
0010
0100
0001
0000
,
2001
0000
3000
0100
0020
0000
0030
0001
,
2000
0000
3002
0000
0203
0000
0310
1000
,
0001
0000
0000
0100
0000
0000
0001
0000
1000
0000
1000
0000
0100
0000
0010
0000
,
0002
0000
0100
0000
1000
0000
0013
0100
,
2000
0000
3001
0100
0002
0000
1003
0010
,
0100
0001
2000
0000
3002
0000
0103
0010
,
1000
0000
0000
0100
0000
0000
1000
0000
0001
0000
0000
0100
0000
0000
0001
0000
,
2000
0000
3002
0000
0103
0010
1000
0000
,
0202
0000
0303
1000
0200
0000
0300
0010
,
0001
1000
0001
0100
0020
0000
1030
0001
,
0100
0000
0000
0100
0000
0000
0100
0000
0020
0000
0000
0000
1030
0000
0000
0000
,
2002
0000
3003
0110
,
1000
0010
0100
0010
1000
0010
0100
0010
,
1000
0010
0100
0001
0020
0000
0130
0000
,
1000
0100
1000
0000
0001
0100
0001
0000
,
2000
0000
3010
1031
,
0001
0100
0010
0100
0001
0100
0010
0100
,
0001
0100
0010
1000
0200
0000
0310
0000
,
0001
0010
0001
0000
1000
0010
1000
0000
,
0001
1000
0001
1000
0010
0010
0000
0000
;

//---------------dance-single - ----------------
#NOTES:
     dance-single:
     :
     Easy:
     5:
     0.219249,0.240322,0.072589,0.518495,0.000000,148.000000,141.000000,7.000000,50.000000,0.000000,0.000000,0.219249,0.240322,0.072589,0.518495,0.000000,148.000000,141.000000,7.000000,50.000000,0.000000,0.000000:
0000
0000
0000
0000
,
0000
0000
0000
0000
,
0000
0000
0000
0000
,
0001
0100
0010
1000
,
0002
0203
0302
0203
,
0302
0013
0200
0300
,
1000
1000
0001
0001
,
0200
0300
0010
0000
,
2000
3020
2030
3020
,
2030
3010
0230
0300
,
0001
0001
1000
1000
,
0200
0000
0300
0000
,
2000
3000
0001
1000
,
0010
0000
0100
0000
,
0002
0003
1000
0100
,
0010
0000
0001
0000
,
0200
0300
0100
0010
,
0020
0030
0010
1000
,
2000
3000
0002
0003
,
1001
0000
0000
0000
,
0001
0100
0010
0010
,
2000
3000
0001
0000
,
1000
1000
0100
0010
,
0002
0003
1000
0000
,
0002
0003
0200
0300
,
0020
0030
1000
0001
,
2000
0000
3000
0001
,
0100
0100
0010
0000
,
1001
0000
0001
0000
,
0100
0100
0010
0000
,
1000
1000
0001
0001
,
1000
0100
0010
0000
,
1001
0000
0001
0000
,
1000
0010
0100
0000
,
0001
0001
0100
0100
,
0020
0000
0000
0030
,
2002
3003
2000
3000
,
0001
0100
0020
0030
,
1000
1000
0100
0100
,
0010
0001
1000
0000
,
2002
3003
0002
0003
,
0100
0100
0020
0030
,
1000
1000
0001
0010
,
0200
0000
0300
0010
,
1002
0023
0032
0023
,
0032
0013
0200
0300
,
1000
1000
0001
0001
,
0200
0300
0010
0000
,
2000
3200
2300
3200
,
2300
3100
0020
0030
,
0001
0001
1000
1000
,
0020
0030
1001
0000
;

//---------------dance-single - ----------------
#NOTES:
     dance-single:
     :
     Beginner:
     1:
     0.109625,0.160215,0.020740,0.000000,0.000000,74.000000,72.000000,2.000000,0.000000,0.000000,0.000000,0.109625,0.160215,0.020740,0.000000,0.000000,74.000000,72.000000,2.000000,0.000000,0.000000,0.000000:
0000
0000
0000
0000
,
0000
0000
0000
0000
,
0000
0000
0000
0000
,
0000
0000
0000
0000
,
1000
0000
1000
0000
,
1000
0000
0000
0000
,
0010
0000
0010
0000
,
0010
0000
0000
0000
,
0100
0000
0100
0000
,
0100
0000
0000
0000
,
0001
0000
0001
0000
,
0001
0000
0000
0000
,
1000
0000
0000
0000
,
0010
0000
0000
0000
,
0100
0000
0100
0000
,
0100
0000
0000
0000
,
0001
0000
0000
0000
,
1000
0000
0000
0000
,
0010
0000
0010
0000
,
0010
0000
0000
0000
,
1000
1000
0000
0000
,
1000
0000
0000
0000
,
0001
0001
0000
0000
,
0001
0000
0000
0000
,
0100
0000
0100
0000
,
0100
0000
0100
0000
,
0100
0000
0000
0000
,
0010
0000
0000
0000
,
1001
0000
0000
0000
,
0001
0000
0001
0000
,
0001
0000
0000
0000
,
0100
0000
0100
0000
,
0100
0000
0000
0000
,
0010
0010
0010
0000
,
0010
0000
0000
0000
,
1000
0000
0000
0000
,
1001
0000
0000
0000
,
1000
1000
1000
0000
,
1000
0000
0000
0000
,
0010
0000
0010
0000
,
0010
0000
0000
0000
,
0100
0100
0100
0000
,
0100
0000
0000
0000
,
0001
0000
0000
0000
,
1000
0000
1000
0000
,
1000
0000
0000
0000
,
0010
0000
0010
0000
,
0010
0000
0000
0000
,
0100
0000
0100
0000
,
0100
0000
0000
0000
,
0001
0000
0001
0000
,
0001
0000
0001
0000
;

//---------------dance-double - ----------------
#NOTES:
     dance-double:
     :
     Hard:
     12:
     0.625156,0.669182,0.103699,0.269617,0.394056,422.000000,412.000000,10.000000,26.000000,0.000000,0.000000,0.625156,0.669182,0.103699,0.269617,0.394056,422.000000,412.000000,10.000000,26.000000,0.000000,0.000000:
00000000
00000000
00000000
00000000
,
00000000
00000000
00000000
00000000
,
00000000
00000000
00000000
00000000
,
00010000
00000000
00001000
00000000
00100000
00000000
00010000
00000000
01000000
00000000
00010000
01000000
00100000
00000000
10000000
00100000
,
10000000
00000000
00010000
00100000
00010000
00000000
10000000
01000000
10000000
00000000
00010000
01000000
00010000
00000000
10000000
01000000
,
10000000
00000000
00010000
00000000
00100000
00000000
00001000
00000000
00000010
00000100
00000010
00000000
00000001
00000000
00001000
00000000
,
00000010
00000010
00000100
00000100
00010000
00000100
00000001
00001000
,
00000200
00000000
00000000
00000000
00010300
00000000
00001000
00000000
00000100
00000010
00000000
00000010
00001000
00000000
00000001
00000100
,
00000001
00000000
00001000
00000100
00001000
00000000
00000001
00000010
00000001
00000000
00001000
00000010
00001000
00000000
00000001
00000010
,
00000001
00000000
00001000
00000000
00000100
00000000
00010000
00000000
01000000
00100000
01000000
00000000
10000000
00000000
00010000
00000000
,
10000000
01000000
00010000
01000000
10000000
00100000
00010000
00100000
,
02000000
00000000
00001000
00000000
00001000
00000000
00001000
00000000
03001000
00000000
00000000
00001000
00010000
00000000
00000000
00000000
,
00021000
00000000
00000000
00000000
00030200
00000000
00000000
00000000
00002300
00000000
00000000
00003020
00000000
00000000
00000130
00000000
,
00000002
00000000
00001003
00000000
00000100
00000000
00010000
00001000
,
00200000
00000000
00000000
00000000
00320000
00000000
00000000
00000000
02030000
00000000
00000000
03200000
00000000
00000000
10300000
00000000
,
00020000
00000000
00130000
01000000
20000000
00000000
30010000
01000000
,
00100000
00010000
00001000
00000010
00000200
00000000
00001303
00000010
,
00000100
00001000
00010000
01000000
00200000
00000000
00310000
10000000
,
00020000
00000000
00130000
00001000
00200000
00000000
00331000
00010000
,
00310100
00000000
00010100
00000000
00000000
00000000
00000000
00000000
00000000
00000000
00000100
00000000
00001000
00000001
00000000
00000000
,
00001000
00000000
00000010
00000000
00000100
00000000
00000000
00000100
00000001
00000000
00000010
00000000
00000100
00000000
00001000
00000000
,
00000010
00000000
00010000
00001000
00010000
00000000
00001000
00000000
00100000
00000000
00100000
00000000
00010000
00000000
01000000
00000000
,
00200000
00000000
00000000
00000000
10300000
00000000
00000000
10000000
01000000
00000000
00100000
00000000
00010000
00000000
01000000
00000000
,
00001000
00000000
00010000
00000100
00010000
00000000
00001000
00000000
00100000
00001000
00000000
00100000
00001000
00000000
00010000
00001000
,
00010000
00000000
00000100
00000000
00001000
00000000
00000010
00000100
00000010
00000000
00001000
00000000
00000100
00000000
00010000
00001000
,
00010000
00000000
00001000
00000000
00100000
00000000
00010000
00100000
00010000
00000000
00100000
00000000
02000000
00000000
00000000
00000000
,
13000000
10000000
01000000
01000000
00010000
00010000
00001000
00000000
,
00011000
00001000
00001100
00000100
00000110
00000000
00000100
00000001
,
00002002
00000000
00000000
00000000
00003003
00000000
00000001
00000100
00000001
00000000
00000000
00001000
00000000
00000000
00000100
00000000
,
00010000
00000000
00010000
00000000
00001000
00100000
00000000
00100000
00010000
00000000
10000000
00000000
00100000
01000000
00000000
00000000
,
00001000
00000000
00001000
00100000
00000000
00000000
00001000
00000000
00010000
00000100
00000000
00000100
00000000
00000000
00001000
00000001
,
00001000
00000000
00000010
00000000
00000100
00000000
00000001
00000000
00001000
00000000
00000100
00010000
00001000
00000000
00000000
00000000
,
00101000
00000000
00100000
00000000
00010000
00000000
10000000
00100000
10000000
00000000
00010000
00000000
01000000
00000000
00001000
00010000
,
00001000
00010000
00000100
00000010
00000002
00000000
00001003
00000010
,
00000100
00000000
00000000
00000100
00000001
00000000
00001000
00000000
00000010
00000000
00000000
00000010
00001000
00000000
00000100
00000000
,
00010000
00000000
00001000
00010000
00000000
00001000
00100000
00000000
00010000
00100000
00000000
00010000
10000000
00100000
10000000
00100000
,
01000000
00000000
00010000
00000000
10000000
00000000
01000000
00100000
00010000
00000000
01000000
00000000
00001000
00000000
00010000
00000010
,
00000100
00001000
00000100
00000001
00002000
00000000
00003001
00000010
,
00000100
00000000
00010000
00001000
00010000
00000000
00001000
00000000
00100000
00000000
00010000
01000000
00010000
00000000
00100000
00000000
,
00001000
00000010
00000001
00000010
00000100
00001000
00000001
00000000
,
00001010
00000000
00001000
00000000
00000001
00000000
00000010
00000100
00001000
00000000
00000010
00000000
00010000
00000000
00001000
01000000
,
00100000
00010000
00100000
10000000
00020000
00000000
10030000
01000000
,
00100000
00000000
00010000
00100000
00000000
00010000
01000000
00000000
00001000
00000000
00010000
00001000
00000000
00010000
00000100
00000000
,
00001000
00000000
00000100
00000000
00000001
00000000
00000100
00000000
00001000
00000000
00000001
00000100
00000010
00000000
00001000
00000010
,
00001000
00000000
00000100
00010000
00000100
00000000
00010000
00001000
00010000
00000000
00001000
00100000
00001000
00000000
01000000
00010000
,
01000000
00000000
00010000
00100000
01000000
00000000
10000000
00000000
00100000
01000000
00010000
00000000
00100000
00000000
00001000
00000000
,
00010000
00010000
00100000
00010000
00001000
00001000
00000010
00001000
,
00020000
00000000
00000000
00000000
00031000
00000000
00100000
00000000
00010000
01000000
00000000
00100000
10000000
00000000
00010000
01000000
,
00010000
00000000
00100000
00001000
00100000
00000000
00001000
00010000
00001000
00000000
00010000
00000100
00010000
00000000
00000010
00001000
,
00000010
00000000
00001000
00000100
00000010
00000000
00000001
00000000
00000100
00000010
00001000
00000000
00000100
00000000
00010000
00000000
,
00001000
00000100
00000001
00000100
00001000
00010000
00100000
10000000
,
02000000
00100000
00100000
00100000
03100000
10010000
00000000
00000000
;

//---------------dance-double - ----------------
#NOTES:
     dance-double:
     :
     Medium:
     9:
     0.434054,0.455044,0.165918,0.632564,0.010370,293.000000,277.000000,16.000000,61.000000,0.000000,0.000000,0.434054,0.455044,0.165918,0.632564,0.010370,293.000000,277.000000,16.000000,61.000000,0.000000,0.000000:
00000000
00000000
00000000
00000000
,
00000000
00000000
00000000
00000000
,
00000000
00000000
00000000
00000000
,
00020000
00000000
00031000
00000000
00010000
00000100
00001000
00000000
,
00000001
00000100
00000010
00000100
00000001
00000100
00000010
00000100
,
00000001
00000100
00000010
00001000
00000200
00000000
00010300
00000000
,
00010000
00001000
00020000
00000000
00031000
00100000
00002000
00000000
,
00203000
00310000
00110000
10010000
,
10000000
00100000
01000000
00100000
10000000
00100000
01000000
00100000
,
10000000
00100000
01000000
00010000
00200000
00000000
00301000
00000000
,
00001000
00010000
00002000
00000000
00013000
00000100
00020000
00000000
,
00031000
00001000
00010000
00010000
00000100
00000000
00010100
00000000
,
00002002
00000000
00003003
00000000
00000002
00000000
00000103
00000010
,
00002300
00000000
00003031
00000000
00001000
00000000
00000100
00010000
,
00002000
00000000
00103000
00000000
00200000
00000000
00310000
10000000
,
00230000
00000000
01300000
00010000
20000000
00000000
30310000
00000000
,
20100000
00000000
30100000
01000000
00020000
00000000
00130000
00000000
,
00012000
00000000
00013000
00000100
00000020
00000000
00000031
00000000
,
00002010
00000000
00003010
00000100
00000002
00000000
00002033
00000000
,
00003100
00000100
00000000
00000000
00000000
00000000
00011000
00000000
,
00201000
00000000
00320000
00000000
10030000
01000000
10000000
01000000
,
00200000
00000000
00320000
00000000
01030000
00000000
00001000
00010000
,
00002000
00000000
00023000
00000000
00030100
00001000
00000100
00001000
,
00000002
00000000
00000103
00000010
00001000
00000000
00000100
00000000
,
00020100
00000000
00032000
00000000
00203000
00000000
00310000
10000000
,
00100000
01000000
00010000
10000000
02000000
00000000
03200000
00000000
,
00301000
00010000
00001000
00010000
00001000
00010000
00001000
00000000
,
00010000
00000100
00000010
00000001
00001000
00000000
00001010
00000000
,
00002002
00003003
00000001
00001000
,
00000100
00010000
00000200
00000000
00020300
00000000
00031000
00100000
,
00010000
00010000
10000000
10000000
,
00010000
01000000
10000000
01000000
00010000
00000000
10000000
00000000
,
22000000
00000000
33000000
00010000
02000000
00000000
03000000
00001000
,
00010000
00001000
00010000
00000100
00000020
00000000
00000031
00001000
,
00000001
00000000
00000000
00000001
00000000
00000000
00000100
00000000
00000010
00000000
00000100
00000000
00000010
00000000
00001000
00000000
,
00000100
00000000
00000000
00010000
00000000
00000000
00001000
00000000
00100000
00000000
00000000
00000000
00010000
00000000
10000000
00000000
,
20020000
00000000
30030000
00010000
00010000
00000000
10000000
00100000
,
01000000
00100000
01000000
00010000
20000000
00000000
31000000
00010000
,
00002000
00013000
00000200
00000310
,
00000001
00001000
00000010
00000100
00000002
00000000
00001003
00000000
,
00002002
00000000
00003003
00001000
00001000
00000000
00000001
00000100
,
00000010
00000100
00000010
00001000
00000002
00000000
00000013
00001000
,
00020000
00031000
00200000
01300000
,
10000000
00010000
10000000
00010000
10000000
01000000
00100000
00000000
,
00010000
00100000
01000000
00100000
00010000
00100000
01000000
00100000
,
00010000
00100000
00001000
00010000
00002000
00000000
00013000
00000000
,
00000100
00001000
00000200
00000000
00000310
00000001
00000020
00000000
,
00000032
00000000
00000103
00000010
00001000
00000000
00001001
00000000
,
00001000
00000100
00000010
00000100
00001000
00000100
00000010
00000100
,
00001000
00000100
00010000
00001000
00020000
00000000
00031000
00000000
,
00100000
00010000
00200000
00000000
01300000
10000000
02000000
00000000
,
13000000
00010000
10000000
00010000
00100000
00001000
00000000
00000000
;

//---------------dance-double - ----------------
#NOTES:
     dance-double:
     :
     Easy:
     5:
     0.223693,0.267025,0.072589,0.321467,0.000000,151.000000,144.000000,7.000000,31.000000,0.000000,0.000000,0.223693,0.267025,0.072589,0.321467,0.000000,151.000000,144.000000,7.000000,31.000000,0.000000,0.000000:
00000000
00000000
00000000
00000000
,
00000000
00000000
00000000
00000000
,
00000000
00000000
00000000
00000000
,
00022000
00000000
00000000
00033000
,
00001000
00100000
00001000
00100000
,
00001000
00010000
00020000
00030000
,
00000100
00000100
00000010
00000010
,
00000200
00000300
00010000
00001000
,
00010000
00000100
00010000
00000100
,
00010000
00001000
00002000
00003000
,
00100000
00100000
01000000
01000000
,
20000000
00000000
00000000
30000000
,
00020000
00030000
01000000
01000000
,
00002000
00003000
00010000
00000000
,
00000200
00000300
00001000
00001000
,
00000002
00000003
00000200
00000300
,
00000020
00000030
00020000
00030000
,
00002000
00003000
00200000
00300000
,
00010000
10000000
00100000
01000000
,
00001000
00000000
00000000
00010000
,
00000100
00000100
00000010
00000001
,
00001000
00001000
00000100
00000000
,
00010000
00010000
00001000
00100000
,
01000000
01000000
10000000
00000000
,
00010000
00010000
01000000
01000000
,
00002000
00003000
00010000
00000100
,
00000020
00000000
00000030
00000001
,
00001000
00000001
00000100
00000000
,
00001001
00000000
00001000
00000000
,
00000100
00010000
00001000
00000000
,
00100000
00100000
00010000
00000000
,
10000000
10000000
00100000
00000000
,
10010000
00000000
00010000
00000000
,
01000000
01000000
00001000
00000000
,
00010000
00001000
00010000
00000100
,
00000020
00000000
00000030
00000001
,
00002002
00003003
00002000
00003000
,
00000100
00010000
00002000
00003000
,
00100000
00100000
00010000
01000000
,
00100000
10000000
00010000
00000000
,
20020000
30030000
00020000
00030000
,
00100000
00001000
00020000
00030000
,
00000100
00000100
00001000
00000010
,
00000200
00000000
00000000
00000300
,
00000001
00000100
00001000
00000100
,
00000001
00001000
00000200
00000300
,
00010000
00010000
00001000
00001000
,
00200000
00300000
00010000
10010000
,
10000000
00100000
00010000
00100000
,
10000000
00010000
00200000
00300000
,
00001000
00001000
00010000
00010000
,
00002000
00003300
00011000
00000000
;
