#TITLE:キメラ;
#SUBTITLE:;
#ARTIST:DECO*27;
#TITLETRANSLIT:Chimera;
#SUBTITLETRANSLIT:;
#ARTISTTRANSLIT:;
#GENRE:;
#CREDIT:;
#BANNER:Chimera.png;
#BACKGROUND:Chimera-bg.png;
#LYRICSPATH:;
#CDTITLE:;
#MUSIC:Chimera.ogg;
#OFFSET:0.000000;
#SAMPLESTART:46.132076;
#SAMPLELENGTH:18.396229;
#SELECTABLE:YES;
#DISPLAYBPM:212.000000;
#BPMS:0.000000=212.000000
,258.000000=106.000000
,259.000000=212.000000
;
#STOPS:
;
#BGCHANGES:;
#KEYSOUNDS:;
#ATTACKS:;

//---------------dance-double - ----------------
#NOTES:
     dance-double:
     Kekkle:
     Hard:
     17:
     0.786804,0.967786,0.224631,0.765410,0.174713,662.000000,635.000000,27.000000,92.000000,0.000000,0.000000,0.786804,0.967786,0.224631,0.765410,0.174713,662.000000,635.000000,27.000000,92.000000,0.000000,0.000000:
00000000
00000000
00000000
00000000
,
00000000
00000000
00000000
00000000
,
00000000
00000000
00000000
00000000
,
00000000
00000000
00000000
00000000
,
00000000
00000000
00000000
00000000
,
00000000
10000000
01000000
00100000
00010000
10000000
00100000
01000000
,
00001000
00010000
00000100
00000010
00000001
00001000
00000010
00000000
,
00000100
00000100
00000001
00001000
00000010
00010000
00001000
00100000
,
00010000
00100000
01000000
10000000
00010000
01000000
00100000
10000000
,
00010000
10000000
00010000
10000000
00010000
00000000
00100000
00000000
00001000
00000000
00010000
00000000
00000010
00000000
00001000
00000000
,
00000010
00000000
00000100
00000000
00000001
00000000
00001000
00000100
00001000
00000000
00000001
00001000
00000001
00001000
00000001
00000000
,
00000100
00000010
00000100
00001000
00010000
00100000
01000000
00010000
,
10000000
01000000
00100000
00001000
00010000
00000100
00001000
00001000
,
00000000
00000001
00000100
00000000
00001000
00001000
00000000
00020000
,
00000000
00130000
20000000
00000000
00010000
00000000
31000000
00000000
,
00100000
00000000
10000000
00100000
00010000
00000000
10000000
00100000
,
00010000
00000000
00001000
00010000
00100000
00010000
00001000
00010000
,
00000100
00000000
00000010
00000001
00001000
00000010
00000100
00001000
,
00000000
00000000
00000100
00000010
00010000
00000000
00011000
00000000
,
00001000
00000000
00000000
00010000
00000000
00000000
00100000
00000000
01000000
00000000
00010000
00000000
00100000
00000000
02000000
00000000
,
00000000
00000000
13000000
00000000
00010000
00000000
01000000
00000000
10000000
00000000
00000000
00000000
01000000
00100000
01000000
00100000
,
01000000
00000000
00000000
00010000
00000000
00000000
10000000
00000000
01000000
00100000
01000000
00000000
00100000
00001000
00100000
00000000
,
00101000
00000000
00000000
00000000
00011000
00000000
00000000
00000000
00010010
00000000
00000000
00010000
00001000
00000000
00000010
00000000
,
00000100
00000000
00000001
00000100
00001000
00000000
00000001
00000100
,
00001000
00000000
00010000
00001000
00000100
00001000
00010000
00001000
,
01000000
00100000
10000000
00010000
00100000
01000000
00100000
10000000
,
00000000
00000000
00100000
00001000
00010000
00000000
00001000
00010000
,
00000010
00000000
00000000
00001000
00000000
00000000
00000010
00000000
00000100
00000000
00000001
00000000
00000010
00000000
00000200
00000000
,
00000000
00001300
00000001
00000100
00001000
00000000
00010000
00001000
,
01000000
00000000
00000000
00100000
00000000
00000000
10000000
00000000
00010000
00000000
00100000
00000000
00001000
00000000
00010000
00000000
,
00011000
00000000
00000000
00000000
00010010
00000000
00000000
00000000
00101000
00000000
00001000
00010000
00001000
00000000
00000000
00000000
,
00200000
00300020
02000030
03000200
,
00010300
00000000
00001000
00010000
00100000
01000000
00010000
10000000
,
01000000
00000000
00000000
00000000
00010000
00000000
00001000
00010000
00000200
00000000
00000000
00000000
00000320
00000000
00000000
00000000
,
00000031
00000000
00000000
00000000
00001000
00000000
00000001
00001000
00000010
00000000
00010000
00000000
00000000
00000000
00010000
00000000
,
00000200
02000300
03000020
00200030
,
00301000
00000000
00010000
00001000
00000100
00000010
00001000
00000001
,
00000010
00000000
00000100
00001000
00000100
00000000
00010000
00000000
00001000
00100000
00001000
00000000
00010000
00000000
00200000
00000000
,
00000000
10300000
00010000
00100000
01000000
01000000
00010000
00020000
,
00000000
00000000
00000000
00000000
,
00000000
00000000
00000000
00031000
,
00000020
00000000
00002030
00000000
00023000
00000000
00130000
20000000
,
00000000
30200000
00000000
01300000
00002000
00000000
00013000
00000000
,
02000000
00000000
03020000
00000000
00032000
00000000
00003100
00000002
,
00000000
00000000
00000103
00000000
00001000
00000000
00000100
00000000
00000010
00000000
00010000
00000000
00001000
01000000
00001000
01000000
,
00200000
00000000
00320000
00000000
00032000
00000000
00003010
00000002
,
00000000
00000023
00000000
00000130
00020000
00000000
00031000
00000000
,
00000200
00000000
00002300
00000000
00023000
00000000
01030000
20000000
,
00000000
00000000
30010000
00000000
01000000
00000000
00100000
00000000
00010000
00000000
00001000
00010000
00001000
00010000
00001000
00000000
,
00000010
00001000
00010000
00100000
00010000
00001000
00000020
00000000
,
00000130
00000000
00000000
00001000
00000001
00000000
00000200
00000000
00000000
00000000
00000310
00000000
00010000
00000000
00001000
00000000
,
00000010
00001000
00010000
00000010
00000000
00000100
00000001
00001000
,
00000100
00000000
00000010
00000000
00001000
00000000
00010000
00000000
00000010
00000000
00010000
00001000
00010000
00001000
00010000
00000000
,
00100000
00010000
00001000
00000010
00001000
00010000
00200000
00000000
,
01300000
00010000
10000000
02000000
00000000
03100000
00001000
00010000
,
00100000
00010000
00001000
00100000
00000000
01000000
10000000
00010000
,
01000000
00100000
00010000
00001000
00200000
00000000
00302000
00000000
,
00013000
00000000
01000000
00100000
00000000
00001000
00010000
00000000
,
00001000
00000000
00000100
00000010
00000000
00010000
00001000
00000000
,
00020000
00000000
01030000
00200000
00000000
00301000
00010000
00000000
,
00002000
00000000
00003100
00000010
00010000
00010000
00000000
00000000
,
00000200
02000300
03000020
00200030
,
00301000
00000000
00010000
00001000
00000010
00000100
00001000
00000001
,
00000100
00000000
00000010
00000100
00002000
00000000
02003000
00000000
,
03010000
00000000
00100000
01000000
00020000
00000000
00030020
00000000
,
00200030
00300200
02000300
03001000
,
00010000
00000000
00001000
00000000
00000100
00000000
00000010
00000000
00001000
00000000
00000001
00000000
00000010
00000000
00000100
00001000
,
00000001
00000000
00001000
00000000
00000010
00010000
00001000
00000000
00010000
00000000
00200000
00000000
00000000
00000000
10300000
00000000
,
00010000
00100000
01000000
01000000
00010000
00010000
00000000
00000000
,
00000000
00000000
00001000
00000010
,
00000001
00000000
00001000
00000000
00000010
00000100
00000000
00001000
,
00000000
00010000
00002000
00000000
00013000
00000000
00100000
00000000
,
10000000
00000000
00010000
00000000
00100000
00001000
00011000
00000000
,
00000010
00010000
00022000
00000000
00033000
00000000
00001000
00100000
,
00010000
10010000
00000000
00000000
00011000
00000000
00010000
00000010
,
00001000
00001001
00000000
00000000
00011000
00000000
00001000
00000000
,
00100000
00000000
00000000
00000000
00010000
00000000
00000000
00000000
10000000
00000000
00010000
01000000
00100000
00000000
00000000
00000000
,
01000000
00010000
20000000
00000000
31000000
00000000
01020000
00000000
,
00031000
00000000
00002100
00000000
00013000
00200000
00000000
01300000
,
10000000
01000000
00010000
01000000
00100000
00000000
00120000
00000000
,
00031000
00000000
00002010
00000000
00013000
00000200
00000000
00000310
,
00000001
00000000
00001001
00000000
00000000
00000000
00001000
00000000
00000010
00010000
00000010
00010000
00002000
00000000
00000000
00000000
,
00013000
00000000
00120000
00000000
00031000
00000200
00000000
00000310
,
00000001
00000010
00001000
00000010
00000100
00000000
00002100
00000000
,
00013000
00000000
01020000
00000000
00031000
00200000
00000000
00310000
,
10000000
00000000
00010000
01000000
00100000
00000000
10000000
00010000
00100000
00001000
00010000
00000000
01000000
00000000
00010000
00000000
,
00001000
00000000
00000100
00000000
00001000
00000000
00010000
00000000
02000000
00000000
00000000
00000000
03100000
00000000
00000000
00010000
,
10000000
00200000
00000000
01300000
00001000
00010000
01000000
00010000
,
00001000
01000000
00000000
00100000
10000000
00010000
00100000
01000000
,
00010000
00000000
00001000
00000000
00100000
00001000
00010000
00000010
00010000
00001000
00010000
00000000
00100000
00000000
00010000
00000000
,
00001000
00000010
00001000
00010000
00200000
00000000
01300000
00010000
,
10000000
02000000
00000000
03100000
00001000
00010000
00100000
00010000
,
00001000
00200000
00000000
01300000
10000000
00010000
01000000
00100000
,
00010000
00001000
00100000
00001000
00001000
00010000
00010200
00000000
,
00010300
00000000
02001000
00000000
00000000
00000000
03001000
00000000
00010200
00000000
00000000
00000000
00000310
00000000
00000000
00000001
,
00001000
00000020
00000000
00000130
00001000
00010000
00000010
00010000
,
00001000
00000010
00000001
00001000
00000010
00000100
00001000
00010000
,
00100000
00000000
01000000
00010000
10000000
00000000
01000000
00100000
00010000
00100000
00001000
00000000
00201000
00000000
00000000
00000000
,
00301000
00010020
00000000
00010030
00201000
00000000
01300000
10000000
,
00010000
02000000
00000000
03100000
00010000
00001000
00100000
00001000
,
00010000
00100000
10000000
00010000
00100000
01000000
00010000
00001000
,
00100000
00001000
00020000
00000000
00030010
00000000
00010000
00000000
,
00001000
00000010
00000001
00000100
,
00001000
00010000
00100000
10000000
00010000
00100000
01000000
00000000
,
20000000
32000000
03200000
00310000
,
00001000
00000100
00000020
00000000
00000032
00000000
00000003
00000000
;

//---------------dance-single - ----------------
#NOTES:
     dance-single:
     Kekkle:
     Hard:
     17:
     0.827213,0.967786,0.449262,0.698853,0.207992,696.000000,642.000000,54.000000,84.000000,0.000000,0.000000,0.827213,0.967786,0.449262,0.698853,0.207992,696.000000,642.000000,54.000000,84.000000,0.000000,0.000000:
// measure 0
0000
0000
0000
0000
,  // measure 1
0000
0000
0000
0000
,  // measure 2
0000
0000
0000
0000
,  // measure 3
0000
0000
0000
0000
,  // measure 4
0000
0000
0000
0000
,  // measure 5
0000
0001
1000
0010
0100
0010
0001
0010
,  // measure 6
1000
0001
0010
0100
1000
0001
0100
0000
,  // measure 7
0001
0001
1000
0100
0010
0100
0001
0100
,  // measure 8
1000
0001
0100
0010
1000
0010
0100
0001
,  // measure 9
1000
0001
1000
0001
1000
0000
0010
0000
0100
0000
0010
0000
0001
0000
0010
0000
,  // measure 10
1000
0000
0001
0000
0010
0000
0100
1000
0100
0000
1000
0001
1000
0001
1000
0000
,  // measure 11
0010
0100
0001
0010
0100
1000
0010
1000
,  // measure 12
0100
0000
0010
0100
0010
0000
0001
0000
1000
0000
0010
0000
0100
0000
0100
0000
,  // measure 13
0001
1000
1000
0100
0010
0200
0000
0001
,  // measure 14
0000
1000
2300
0000
3020
0000
0130
0000
,  // measure 15
0001
0102
1003
0012
,  // measure 16
1003
0000
0001
0010
1000
0010
0001
0010
,  // measure 17
0100
0000
1000
0001
0100
0010
0100
1000
,  // measure 18
0000
0100
0010
1000
0001
0000
1001
0000
,  // measure 19
1000
0000
0000
0100
0000
0000
0010
0000
0001
0000
0100
0000
0010
0000
2000
0000
,  // measure 20
0000
0000
3001
0000
0010
0000
0100
0000
0001
0000
0000
0000
0100
0010
0100
0010
,  // measure 21
0100
0000
0000
0010
0000
0000
0001
0000
1000
0010
1000
0000
0001
1000
0001
1000
,  // measure 22
0100
0000
0000
0000
0110
0000
0000
0000
1001
0000
0000
1000
0001
0000
0010
0000
,  // measure 23
0100
2100
3001
2010
,  // measure 24
3001
0000
1000
0010
0001
0010
1000
0010
,  // measure 25
0100
0010
1000
0001
0010
0100
0010
1000
,  // measure 26
0000
0010
0100
1000
0001
0000
0100
0010
,  // measure 27
1000
0000
0000
0010
0000
0000
0100
0000
0001
0000
0010
0000
0100
0000
2000
0000
,  // measure 28
0000
3001
0100
0010
0001
0000
0010
1000
,  // measure 29
0001
0000
0000
0010
0000
0000
0100
0000
1000
0000
0100
0000
0010
0000
0001
0000
,  // measure 30
1001
0000
0000
0000
0110
0000
0000
0000
1001
0000
0001
1000
0100
0000
0000
0000
,  // measure 31
0010
0001
0100
0000
1010
1000
0100
0000
,  // measure 32
0010
0000
0001
1000
0010
0010
0100
0001
,  // measure 33
1000
0000
0000
0000
0100
0000
0010
0001
2000
0000
0000
0000
3010
0000
0100
0000
,  // measure 34
0001
0000
0001
0000
0010
0000
0100
1000
0001
0000
0100
0000
0000
0000
0100
0000
,  // measure 35
0010
1000
0100
0000
0011
0001
0100
0000
,  // measure 36
0010
0000
1000
0001
0010
0010
0100
1000
,  // measure 37
0001
0000
0100
0010
0100
0000
0001
0000
0010
0100
0010
0000
0001
0000
2001
0000
,  // measure 38
0000
3001
0100
0010
1000
1000
0001
0002
,  // measure 39
0000
0000
0000
0000
,  // measure 40
0000
0000
0000
1003
,  // measure 41
2100
0000
3001
0000
0102
0000
1003
0200
,  // measure 42
0000
0310
0001
1000
0010
0100
0001
0000
,  // measure 43
0102
0000
1003
0000
2100
0000
3001
0200
,  // measure 44
0000
0000
0310
0000
1000
0000
0010
0000
0001
0000
0010
0000
0100
0001
1000
0001
,  // measure 45
2000
0000
3001
0000
0012
0000
1003
0020
,  // measure 46
0000
0130
0001
0100
1000
0100
0010
0000
,  // measure 47
2010
0000
3001
0000
0012
0000
1003
0020
,  // measure 48
0000
0000
0130
0000
0001
0000
1000
0001
0010
0000
0100
1000
0001
0100
0001
0100
,  // measure 49
0002
0000
0103
2000
0000
3100
0002
0000
,  // measure 50
1003
0000
0000
0100
0010
0000
0002
0000
0000
0000
1003
0000
0010
0000
0100
0000
,  // measure 51
1001
0000
0100
1001
0000
0001
0100
0010
,  // measure 52
1000
0000
0010
0000
0001
0000
0010
0000
1000
0000
0010
0100
0001
1000
0001
1000
,  // measure 53
0002
0000
0013
2000
0000
3010
0002
0000
,  // measure 54
1003
0010
0100
0002
0000
1003
0100
0010
,  // measure 55
1001
0000
0010
1001
0000
1000
0100
0010
,  // measure 56
0001
0010
1000
0010
0002
0000
2003
0000
,  // measure 57
3100
0000
0010
0001
0000
0100
0010
0000
,  // measure 58
0100
0000
0010
1000
0000
0100
0010
0000
,  // measure 59
0200
0000
0310
0002
0000
0103
0010
0000
,  // measure 60
0200
0000
0310
1000
0001
0001
0000
0000
,  // measure 61
0100
0001
0010
0000
1100
1000
0010
0000
,  // measure 62
0100
0000
0001
1000
0100
0100
0010
0001
,  // measure 63
1000
0000
0010
0100
2000
0000
3200
0000
,  // measure 64
0301
0000
0010
0100
0002
0000
0103
1000
,  // measure 65
0010
0000
0101
0001
0010
0000
0100
0000
,  // measure 66
1000
0000
0001
0000
0100
0000
0100
0000
0010
0000
1000
0000
0001
0000
0010
0100
,  // measure 67
1000
0000
0001
0000
1000
0010
0100
0000
0001
0000
2001
0000
0000
0000
3100
0000
,  // measure 68
0010
0001
1000
1000
0001
0001
0000
0000
,  // measure 69
0000
0000
1000
0020
,  // measure 70
0031
0000
0020
0000
1030
0002
0000
0013
,  // measure 71
0000
0100
1000
0000
0001
0000
0200
0000
,  // measure 72
1300
0000
0200
0000
0301
1000
1100
0000
,  // measure 73
0001
0100
0120
0000
1030
0000
0001
0010
,  // measure 74
0100
1100
0000
0000
1001
0000
1000
0010
,  // measure 75
0100
0101
0000
0000
1001
0000
0002
0000
,  // measure 76
0013
0000
0000
0000
0100
0000
0000
0000
1000
0000
0001
0100
0010
0000
0000
0000
,  // measure 77
0000
0000
1000
1020
,  // measure 78
0031
0000
0021
0000
1030
0002
0000
1003
,  // measure 79
0010
0100
0001
0010
0100
0000
1200
0000
,  // measure 80
0301
0000
0201
0000
1300
0002
0000
0103
,  // measure 81
0010
0000
2010
0000
0000
0000
3001
0000
0010
0100
1000
0100
0020
0000
0000
0000
,  // measure 82
1030
0000
1020
0000
0031
2000
0000
3001
,  // measure 83
0100
0010
0001
0010
1000
0000
1200
0000
,  // measure 84
0301
0000
0201
0000
1300
0002
0000
0103
,  // measure 85
0010
0000
1000
0001
0010
0000
0100
1000
0001
0100
0010
1000
0002
0000
0000
0000
,  // measure 86
0013
0000
2000
0000
0000
0000
3010
0000
0002
0000
0000
0000
1003
0000
0000
0010
,  // measure 87
0100
0002
0000
1003
0100
0010
1001
0000
,  // measure 88
0010
1001
0000
0001
0010
0100
1000
0100
,  // measure 89
0001
0000
0100
0000
1000
0001
0100
0010
1000
0010
0100
0001
2000
0000
0000
0000
,  // measure 90
3100
0002
0000
0103
2000
0000
3001
0100
,  // measure 91
0010
2000
0000
3001
0010
0100
1001
0000
,  // measure 92
0100
1001
0000
0001
0100
0010
1000
0010
,  // measure 93
0001
0010
1000
0001
0001
0010
2100
0000
,  // measure 94
3010
0000
0102
0000
0000
0000
0013
0000
2100
0000
0000
0000
3001
0000
0000
0100
,  // measure 95
0010
2000
0000
3001
0010
0100
1001
0010
,  // measure 96
0100
1001
0000
1000
0100
0010
0001
0010
,  // measure 97
1000
0000
0010
0100
1000
0000
0100
0010
0001
1000
0010
0100
0002
0000
0000
0000
,  // measure 98
0103
2010
0000
3100
0012
0000
1003
0010
,  // measure 99
0100
0002
0000
1003
0100
0010
1001
0100
,  // measure 100
0010
1001
0001
0100
0010
1000
0001
0010
,  // measure 101
1000
0010
0002
0000
2003
0000
3010
0000
,  // measure 102
0100
0001
1000
0100
,  // measure 103
0010
0001
1000
0010
0001
0010
1000
0000
,  // measure 104
0002
0023
2030
3010
,  // measure 105
0001
1000
0020
0000
0032
0000
0003
0000
;

//---------------dance-single - ----------------
#NOTES:
     dance-single:
     Kekkle:
     Medium:
     14:
     0.695287,0.835815,0.299508,0.640615,0.066557,585.000000,549.000000,36.000000,77.000000,0.000000,0.000000,0.695287,0.835815,0.299508,0.640615,0.066557,585.000000,549.000000,36.000000,77.000000,0.000000,0.000000:
0000
0000
0000
0000
,
0000
0000
0000
0000
,
0000
0000
0000
0000
,
0000
0000
0000
0000
,
0000
0000
0000
0000
,
0000
1000
0100
0010
0001
1000
0010
0200
,
0000
0310
0001
0000
0010
0000
1000
0000
,
0001
1000
0010
0100
0001
1000
0100
0020
,
0000
0130
0001
0000
0100
0000
1000
0001
,
0100
0100
0010
1000
0001
0010
0100
0020
,
0000
0130
0001
0100
1000
0001
0100
0000
,
0001
1000
0100
0010
0001
1000
0010
0100
,
0001
0010
0100
1000
0001
0100
0010
0010
,
1000
0001
0010
0000
0100
0100
0000
0020
,
0000
0031
2000
0000
0010
0000
3010
0000
,
0100
1010
0100
1010
,
0100
0000
0000
0001
1000
0100
0010
0000
,
0001
0000
1000
0010
0100
0010
0000
0001
,
0000
0000
0010
1000
0001
0000
1001
0000
,
1000
0000
0000
0100
0000
0000
0010
0000
0001
0000
1000
0000
0010
0000
0002
0000
,
0000
0013
0100
0001
1000
0000
0000
0001
,
0010
0000
0000
0100
0000
0000
1000
0000
0001
0000
0100
0000
0010
0000
0100
0000
,
1000
0000
0100
0000
0001
0000
0100
0000
0010
0000
0000
1000
0001
0000
0010
0000
,
0100
0011
0100
0011
,
0100
0000
0000
1000
0001
0100
0010
1000
,
0010
0100
0001
0010
0100
0010
0000
1000
,
0000
0000
0010
0001
1000
0000
0010
0100
,
0001
0000
0000
0100
0000
0000
0010
0000
1000
0000
0001
0000
0010
0000
2000
0000
,
0000
3010
0100
1000
0001
0000
0000
0100
,
0010
0000
0000
1000
0000
0000
0010
0000
0100
0000
0010
0000
0001
0000
0010
0000
,
1000
0001
0010
0100
2000
0000
3001
0000
,
2000
0010
3002
0100
,
1003
0000
0001
0010
0100
0010
1000
0010
,
0001
2000
3200
0320
,
0031
0000
2000
0000
3010
0100
0000
0001
,
2000
0100
3002
0010
,
1003
0000
0001
0100
0010
0100
1000
0100
,
0001
0000
1000
0001
1000
0000
0000
0000
0001
1000
0001
0000
0000
0000
0110
0000
,
0000
0000
0001
1000
0010
0010
0100
0200
,
0000
0000
0000
0000
,
0000
0000
0000
0310
,
1001
0000
0110
0000
1001
0000
0001
0010
,
0000
1000
0000
0010
0001
0000
0100
0000
,
1001
0000
0110
0000
1001
0000
1000
0010
,
0000
0001
0010
0100
0020
0000
0000
1030
,
1001
0000
0110
0000
1001
0000
0001
0100
,
0000
1000
0000
0100
0001
0000
0100
0000
,
1001
0000
0110
0000
1001
0000
1000
0100
,
0000
0000
0001
0000
0100
0000
0010
0000
0100
0000
1000
0001
1000
0000
0001
0000
,
0200
0000
0301
2000
0000
3001
0020
0000
,
0130
0000
1000
0002
0000
0103
0010
0100
,
2000
0000
3100
0002
0000
0103
0010
1000
,
0001
0010
0100
0010
1000
0000
0010
0000
,
0200
0000
1300
0002
0000
1003
0020
0000
,
0130
0001
1000
0200
0000
0310
0001
0010
,
2000
0000
3010
0002
0000
0013
0100
1000
,
0001
0100
0010
0100
2000
0000
3200
0000
,
0302
0000
0000
1000
0000
0000
0010
0000
,
2003
0000
0000
0001
0000
0000
0010
0000
,
3002
0000
0000
1000
0000
0000
0100
0000
,
2003
0000
0000
3001
0010
0010
0000
0000
,
0200
1000
0320
0001
,
0130
0000
1000
0010
0100
0010
0001
0010
,
1000
0002
0023
0230
,
1300
0002
0203
0320
,
1000
0230
0001
0310
,
1000
0000
0100
0000
0010
0000
0100
0000
0001
0000
0100
0000
1000
0000
0001
1000
,
0001
0000
0000
0000
0100
0010
0100
0000
0000
0000
0110
0000
0000
0000
0001
0000
,
0100
0010
1000
1000
0001
0001
0000
0000
,
0000
0000
1000
0001
,
0100
0000
0010
0000
1000
0001
0000
0010
,
0000
0100
0010
0000
0001
0000
1000
0000
,
0010
0100
0001
2002
,
3003
0220
0330
0001
,
0000
1100
0000
0000
0011
0000
1000
0000
,
0000
0101
0000
0000
1010
0000
1000
0000
,
1000
0000
0000
0000
0001
0000
0000
0000
0001
0000
0010
0100
0010
0000
0000
0000
,
0000
0000
0001
1100
,
0110
0000
0011
0000
0001
0100
0000
1000
,
0100
0010
1000
0000
0001
0000
0101
0000
,
0110
0000
1010
0000
1000
0100
0000
0001
,
0100
0000
0010
0000
0002
0000
0000
0000
1003
0000
0010
0100
0010
0000
0000
0000
,
0110
0000
0101
0000
0001
0010
0000
1000
,
0010
0100
1000
0000
0001
0000
0011
0000
,
0110
0000
1100
0000
1000
0010
0000
0001
,
0010
0000
0100
0000
0001
0000
1000
0001
1000
0000
0100
0000
0020
0000
0000
0000
,
0031
2000
0000
3001
0200
0000
0310
0000
,
1000
0002
0000
0013
0100
0010
2000
0000
,
3010
0002
0000
0013
0100
1000
0001
0100
,
0010
0000
0100
0000
1000
0000
0100
0010
0100
0000
0001
0000
0200
0000
0000
0000
,
0301
2000
0000
3001
0020
0000
0130
1000
,
0001
0200
0000
0310
1000
0010
0002
0000
,
0013
2000
0000
3010
0100
0001
1000
0100
,
0010
0100
0001
0100
0010
0000
0001
1000
,
0010
0001
1000
0100
0002
0000
1003
0000
,
0100
0020
0000
0031
1000
0010
0002
0000
,
0013
2000
0000
3010
0100
0001
1000
0100
,
0010
0000
0100
0000
0001
0000
0100
0010
0100
0010
0100
0000
1000
0000
0001
0000
,
0100
1000
0001
0010
2000
0000
3001
0010
,
0100
2000
0000
3001
0100
0010
0002
0000
,
0013
2000
0000
3010
0100
0001
1000
0100
,
0010
0100
0002
0000
0203
0000
1300
0000
,
0001
0100
0010
1000
,
0001
0010
0100
1000
0010
0100
0001
0000
,
0200
0320
2030
3100
,
0010
0001
2000
0000
3020
0000
0030
0000
;

//---------------dance-double - ----------------
#NOTES:
     dance-double:
     Kekkle:
     Medium:
     15:
     0.701230,0.835815,0.282869,0.657254,0.062398,590.000000,556.000000,34.000000,79.000000,0.000000,0.000000,0.701230,0.835815,0.282869,0.657254,0.062398,590.000000,556.000000,34.000000,79.000000,0.000000,0.000000:
00000000
00000000
00000000
00000000
,
00000000
00000000
00000000
00000000
,
00000000
00000000
00000000
00000000
,
00000000
00000000
00000000
00000000
,
00000000
00000000
00000000
00000000
,
00000000
10000000
00100000
01000000
00010000
10000000
01000000
00200000
,
00000000
01300000
00010000
00000000
00001000
00000000
00010000
00000010
,
00001000
00000001
00000010
00000100
00001000
00000001
00000100
00000020
,
00000000
00000130
00001000
00000000
00010000
00000000
00001000
01000000
,
00010000
00010000
10000000
01000000
00100000
00010000
10000000
00200000
,
00000000
00310000
00001000
00100000
00001000
00010000
00010000
00000000
,
00000100
00001000
00000100
00000010
00000001
00001000
00000010
00010000
,
00001000
00100000
00010000
10000000
00100000
01000000
00010000
00010000
,
10000000
01000000
00100000
00000000
01000000
01000000
00000000
00020000
,
00000000
00031000
00200000
00000000
00010000
00000000
00301000
00000000
,
00100000
00011000
00100000
00011000
,
00100000
00000000
00000000
00001000
00010000
00000010
00000100
00000000
,
00000001
00000000
00001000
00000100
00000010
00000001
00001000
00000010
,
00000000
00000100
00001000
00010000
00000100
00000000
00000110
00000000
,
00000010
00000000
00000000
00000001
00000000
00000000
00001000
00000000
00000010
00000000
00000100
00000000
00001000
00000000
00020000
00000000
,
00000000
00031000
01000000
00100000
01000000
00000000
00010000
10000000
,
01000000
00000000
00000000
00100000
00000000
00000000
00010000
00000000
10000000
00000000
00100000
00000000
01000000
00000000
00100000
00000000
,
00010000
00001000
00100000
00001000
00020000
00000000
00031000
00000100
,
00000010
00011000
00000010
00011000
,
00000010
00000000
00000000
00001000
00000001
00000010
00000100
00000000
,
00010000
00001000
01000000
00010000
01000000
00100000
10000000
00010000
,
00000000
00000000
00100000
01000000
00010000
00000000
01000000
00010000
,
00001000
00000000
00000000
00000010
00000000
00000000
00000001
00000000
00001000
00000000
00000010
00000000
00000100
00000000
00002000
00000000
,
00000000
00013000
00000010
00000100
00000010
00000000
00000000
00000100
,
00001000
00000000
00000000
00010000
00000000
00000000
00100000
00000000
10000000
00000000
00010000
00000000
00100000
00000000
01000000
00000000
,
00010000
00001000
00100000
00001000
00020000
00000000
00031000
00000000
,
00020000
01000000
00032000
00000100
,
00013000
00000000
00100000
10000000
00010000
00100000
01000000
00100000
,
00001000
00020000
02030000
03200000
,
00301000
00010000
00002000
00000000
00003200
00000000
00000320
00000000
,
00020030
00100000
00032000
00000010
,
00013000
00000000
01000000
10000000
00010000
01000000
00100000
01000000
,
00001000
00000000
00010000
00001000
00010000
00000000
00000000
00000000
00001000
00010000
00001000
00000000
00000000
00000000
00000020
00000000
,
00000000
00000000
00000031
00001000
00000010
00000010
00000100
00000200
,
00000000
00000000
00000000
00000000
,
00000000
00000000
00000000
00000310
,
00010010
00000000
00011000
00000000
00101000
00000000
00100000
00010000
,
00000000
00100000
00000000
10000000
00100000
00000000
00001000
00000000
,
00101000
00000000
00011000
00000000
00010010
00000000
00000010
00001000
,
00000000
00000001
00000010
00000100
00000020
00000000
00000000
00000130
,
00010100
00000000
00011000
00000000
01001000
00000000
01000000
00010000
,
00000000
01000000
00000000
10000000
01000000
00000000
00001000
00000000
,
01001000
00000000
00011000
00000000
00010100
00000000
00000100
00001000
,
00000000
00000000
00000001
00000000
00000100
00000000
00000010
00000000
00000100
00000000
00001000
00010000
00001000
00000000
00010000
00000000
,
00200000
00000000
10300000
00020000
00000000
10030000
02000000
00000000
,
03010000
00000000
00001000
00200000
00000000
00301000
00010000
00000010
,
00000200
00000000
00001300
00020000
00000000
00030010
00001000
00000001
,
00000010
00001000
00010000
00000010
00020000
00000000
00031000
00000000
,
00000200
00000000
00000301
00002000
00000000
00003001
00000020
00000000
,
00000130
00010000
00001000
00020000
00000000
00130000
10000000
00010000
,
00200000
00000000
01300000
00020000
00000000
00031000
00100000
00001000
,
00010000
00000010
00001000
00000100
00000020
00000000
00000032
00000000
,
00002003
00000000
00000000
00000001
00000000
00000000
00000010
00000000
,
00023000
00000000
00000000
10000000
00000000
00000000
00100000
00000000
,
00032000
00000000
00000000
00000001
00000000
00000000
00000100
00000000
,
00023000
00000000
00000000
10030000
00100000
00100000
00000000
00000000
,
00020000
00100000
00032000
00000010
,
00013000
00000000
01000000
10000000
00010000
01000000
00100000
01000000
,
00001000
00020000
00032000
00003020
,
00001030
00010000
00002000
00000000
00023000
00000000
00032000
00000000
,
00000010
00023000
00100000
00031000
,
00000100
00000000
00000001
00000000
00001000
00000000
00000100
00000000
00000010
00000000
00000100
00000000
00010000
00000000
00001000
00010000
,
00001000
00000000
00000000
00000000
00100000
00010000
00100000
00000000
00000000
00000000
02000000
00000000
00000000
00000000
00000000
00000000
,
13000000
00010000
01000000
01000000
00100000
00100000
00000000
00000000
,
00000000
00000000
10000000
00010000
,
00100000
00000000
01000000
00000000
00100000
00001000
00000000
00010000
,
00000000
00001000
00100000
00000000
00001000
00000000
00010000
00000000
,
00000010
00000100
00000001
00002002
,
00003003
00000220
00000330
00001000
,
00000000
00000101
00000000
00000000
00010010
00000000
00010000
00000000
,
00000000
00101000
00000000
00000000
11000000
00000000
10000000
00000000
,
00010000
00000000
00000000
00000000
01000000
00000000
00000000
00000000
00100000
00000000
00010000
00001000
00010000
00000000
00000000
00000000
,
00000000
00000000
00001000
00101000
,
00011000
00000000
00010010
00000000
00010000
00001000
00000000
00000010
,
00000001
00001000
00000100
00010000
00000010
00000000
00010010
00000000
,
00011000
00000000
00101000
00000000
00001000
00010000
00000000
00100000
,
10000000
00000000
00010000
00000000
00200000
00000000
00000000
00000000
00301000
00000000
00010000
00001000
00010000
00000000
00000000
00000000
,
00011000
00000000
00010100
00000000
00010000
00001000
00000000
00000100
,
00000001
00001000
00000100
00000010
00000100
00000000
00010100
00000000
,
00011000
00000000
01001000
00000000
00001000
00010000
00000000
01000000
,
10000000
00000000
00010000
00000000
01000000
00000000
00001000
00010000
00001000
00000000
00100000
00000000
02000000
00000000
00000000
00000000
,
13000000
00020000
00000000
10030000
00200000
00000000
00310000
00000000
,
00001000
02000000
00000000
03001000
00010000
00000100
00000020
00000000
,
00001030
00020000
00000000
00030010
00001000
00000001
00000010
00001000
,
00010000
00000000
00000010
00000000
00001000
00000000
00000010
00000100
00000010
00000000
00010000
00000000
00000020
00000000
00000000
00000000
,
00001030
00000002
00000000
00001003
00000200
00000000
00000310
00000001
,
00001000
00000020
00000000
00010030
00001000
00100000
02000000
00000000
,
03010000
00002000
00000000
00103000
00010000
10000000
00100000
00010000
,
00001000
00100000
00001000
00010000
00001000
00000000
00010000
01000000
,
10000000
00010000
01000000
10000000
02000000
00000000
03100000
00000000
,
10000000
00020000
00000000
00130000
00001000
00010000
00001000
00000010
,
00000001
00001000
00000000
00000001
00000100
00000010
00010000
00001000
,
00000010
00000000
00001000
00000000
00010000
00000000
00001000
00010000
00001000
00010000
00001000
00000000
00010000
00000000
00100000
00000000
,
10000000
00010000
00100000
10000000
00200000
00000000
00310000
10000000
,
00100000
00020000
00000000
00031000
00000100
00000001
00001000
00000100
,
00000001
00000100
00000000
00001000
00000001
00000100
00000010
00000100
,
00001000
00010000
00200000
00000000
02300000
00000000
03010000
00000000
,
10000000
01000000
00100000
00010000
,
10000000
00100000
01000000
00001000
00010000
00000100
00001000
00000000
,
00000002
00000203
00000320
00001030
,
00010000
01000000
00200000
00000000
20300000
00000000
30000000
00000000
;

//---------------dance-single - ----------------
#NOTES:
     dance-single:
     Kekkle:
     Easy:
     11:
     0.440943,0.482749,0.291189,0.133115,0.000000,371.000000,336.000000,35.000000,16.000000,0.000000,0.000000,0.440943,0.482749,0.291189,0.133115,0.000000,371.000000,336.000000,35.000000,16.000000,0.000000,0.000000:
0000
0000
0000
0000
,
0000
0000
0000
0000
,
0000
0000
0000
0000
,
0000
0000
0000
0000
,
0000
0000
0000
0000
,
0000
0001
0000
0000
1000
0000
0000
0010
,
0000
0100
0001
1000
,
0000
0100
0000
0000
0010
0000
0000
0001
,
0000
1000
0010
0100
,
0000
0001
1000
0100
,
0000
0010
0001
1000
,
0000
0010
0100
0001
,
0000
1000
0100
0010
,
0000
0001
0000
0000
1000
0000
0000
0001
,
0000
0100
0100
0100
,
0010
0001
0010
1000
,
0010
0000
0100
0001
,
1000
0000
0100
0000
0010
0100
0000
0010
,
0000
0001
1000
1000
,
0001
0000
0100
0000
0010
0000
1000
0010
,
0000
1000
0010
0000
0100
0000
0000
0000
,
0001
1000
0100
0010
,
0001
0001
0002
0003
,
0100
1000
0100
0001
,
0100
0000
0010
1000
,
0001
0000
0010
0000
0100
0010
0000
0100
,
0000
1000
0001
0001
,
0100
0000
0010
0000
1000
0000
0001
0010
,
0000
0001
0010
0000
0100
0000
0000
0000
,
1000
0001
0100
0010
,
1000
1000
2000
3000
,
1001
0000
0110
0000
,
1001
0001
1000
0100
,
0010
0001
1000
1000
,
0000
0000
1000
0000
0001
1000
0000
1000
,
0001
0000
0110
0000
,
1001
1000
0100
0010
,
0000
0001
1000
0000
0001
1000
0000
0010
,
0000
0100
0001
1000
,
0000
0000
0000
0000
,
0000
0000
0000
0001
,
1000
0000
1000
0000
0100
0000
0000
0010
,
0000
0010
0000
0010
0001
0000
1000
0000
,
0001
0000
0001
0000
0100
0000
0000
0010
,
0000
0010
0000
0010
2000
0000
0000
0000
,
3001
0000
0001
0000
0010
0000
0000
0100
,
0000
0100
0000
0100
1000
0000
0001
0000
,
1000
0000
1000
0000
0010
0000
0000
0100
,
0000
0100
0000
0100
0001
0000
1000
0000
,
0200
0000
0000
0320
0000
0000
0130
0000
,
1000
0000
0000
1000
0000
0000
1000
0000
,
1001
0000
0000
1001
0000
0000
0001
0000
,
0100
0010
2000
0000
,
3200
0000
0000
0320
0000
0000
0130
0000
,
1000
0000
0000
1000
0000
0000
1000
0000
,
1001
0000
0000
1001
0000
0000
0001
0000
,
0100
0010
1000
1000
,
0001
0000
0000
0001
0000
0000
0001
0000
,
1000
0000
0000
1000
0000
0000
1000
0000
,
0100
0000
0000
0100
0000
0000
0100
0000
,
0020
0000
0031
0000
,
1001
0000
0110
0000
,
1001
1000
0100
0010
,
0001
1000
1000
0001
,
0000
0001
0000
1001
,
0000
0110
0000
1001
,
0001
0000
0100
0000
0010
0000
0000
1000
,
0001
0000
1000
0001
0000
0010
0000
0000
,
0100
1000
0001
0000
,
0000
0000
0000
0100
,
0010
1000
0000
0100
,
0010
0001
0000
0010
,
0100
1000
0000
1001
,
0000
0110
0000
1000
,
0000
1001
0000
0000
1001
0000
0001
0000
,
0000
1001
0000
0000
1001
0000
1000
0000
,
0100
0000
0010
0000
0001
1000
0001
0000
,
0000
0000
1000
0001
,
0001
0000
0100
0000
0010
1000
0000
1000
,
0000
1000
0010
0000
1000
0000
0001
0000
,
0001
0000
0010
0000
0100
1000
0000
1000
,
0000
1000
0200
0000
0000
0000
0310
0000
,
0010
0000
0001
0000
1000
0010
0000
0010
,
0000
0010
1000
0000
0010
0000
0100
0000
,
0100
0000
0001
0000
1000
0100
0000
0100
,
0000
0100
1000
0000
0001
0000
0200
0000
,
0000
0320
0000
0000
0130
0000
0001
0000
,
0000
0001
0000
0000
0001
0000
1001
0000
,
0000
1001
0000
0000
1000
0000
0100
0000
,
0010
0002
0000
0203
,
0000
0320
0000
0000
0130
0000
0001
0000
,
0000
0001
0000
0000
0001
0000
1001
0000
,
0000
1001
0000
0000
1000
0000
0010
0000
,
0100
0001
1000
1001
,
0000
1001
0000
0000
1001
0000
1000
0000
,
0000
0100
0000
0000
0010
0000
0110
0000
,
0000
0110
0000
0000
0100
0000
0010
0000
,
0001
2000
3000
1001
,
0000
1001
0000
0000
1001
0000
0001
0000
,
0000
0100
0000
0000
0010
0000
0110
0000
,
0000
0110
0000
0000
0100
0000
0010
0000
,
0100
1000
0100
0001
,
1000
0100
0010
0001
,
1000
0010
0100
0010
,
1000
1000
1000
0100
,
0010
0001
0001
0000
;

//---------------dance-double - ----------------
#NOTES:
     dance-double:
     Kekkle:
     Easy:
     11:
     0.435000,0.482749,0.232951,0.108156,0.000000,366.000000,338.000000,28.000000,13.000000,0.000000,0.000000,0.435000,0.482749,0.232951,0.108156,0.000000,366.000000,338.000000,28.000000,13.000000,0.000000,0.000000:
00000000
00000000
00000000
00000000
,
00000000
00000000
00000000
00000000
,
00000000
00000000
00000000
00000000
,
00000000
00000000
00000000
00000000
,
00000000
00000000
00000000
00000000
,
00000000
10000000
00000000
00000000
00100000
00000000
00000000
01000000
,
00000000
00010000
10000000
01000000
,
00000000
00100000
00000000
00000000
00001000
00000000
00000000
00010000
,
00000000
00000010
00000100
00000001
,
00000000
00001000
00000100
00000010
,
00000000
00000001
00001000
00000010
,
00000000
00000100
00001000
00010000
,
00000000
00001000
01000000
00010000
,
00000000
10000000
00000000
00000000
01000000
00000000
00000000
00100000
,
00000000
00001000
00001000
00001000
,
00010000
01000000
00010000
00001000
,
00010000
00000000
00001000
00000100
,
00000001
00000000
00001000
00000000
00000100
00000010
00000000
00000001
,
00000000
00001000
00000010
00000010
,
00000100
00000000
00001000
00000000
00010000
00000000
00100000
00010000
,
00000000
00001000
00010000
00000000
00001000
00000000
00000000
00000000
,
00010000
01000000
10000000
00010000
,
01000000
01000000
02000000
03000000
,
00100000
00010000
00100000
10000000
,
00100000
00000000
01000000
00010000
,
10000000
00000000
01000000
00000000
00100000
00001000
00000000
00010000
,
00000000
00001000
00010000
00010000
,
00000100
00000000
00000010
00000000
00000001
00000000
00001000
00000010
,
00000000
00001000
00000010
00000000
00000100
00000000
00000000
00000000
,
00000001
00001000
00000100
00010000
,
00001000
00001000
00002000
00003000
,
00011000
00000000
00011000
00000000
,
00001000
00010000
00100000
10000000
,
00010000
00100000
01000000
01000000
,
00000000
00000000
01000000
00000000
00100000
00001000
00000000
00001000
,
00010000
00000000
00011000
00000000
,
00001000
00000100
00000001
00001000
,
00000000
00000100
00000010
00000000
00000100
00000010
00000000
00000001
,
00000000
00001000
00000010
00000100
,
00000000
00000000
00000000
00000000
,
00000000
00000000
00000000
00001000
,
00010000
00000000
00010000
00000000
00100000
00000000
00000000
10000000
,
00000000
10000000
00000000
10000000
01000000
00000000
00010000
00000000
,
00001000
00000000
00001000
00000000
00000010
00000000
00000000
00000001
,
00000000
00000001
00000000
00000001
00000200
00000000
00000000
00000000
,
00001300
00000000
00001000
00000000
00010000
00000000
00000000
00100000
,
00000000
00100000
00000000
00100000
10000000
00000000
01000000
00000000
,
00010000
00000000
00010000
00000000
00001000
00000000
00000000
00000010
,
00000000
00000010
00000000
00000010
00000001
00000000
00000100
00000000
,
00002000
00000000
00000000
00023000
00000000
00000000
00031000
00000000
,
01000000
00000000
00000000
01000000
00000000
00000000
01000000
00000000
,
10010000
00000000
00000000
10010000
00000000
00000000
10000000
00000000
,
01000000
00100000
00001000
00010000
,
00002000
00000000
00000000
00023000
00000000
00000000
00031000
00000000
,
00000100
00000000
00000000
00000100
00000000
00000000
00000100
00000000
,
00001001
00000000
00000000
00001001
00000000
00000000
00000001
00000000
,
00000100
00000010
00010000
00001000
,
00010000
00000000
00000000
00010000
00000000
00000000
00010000
00000000
,
01000000
00000000
00000000
01000000
00000000
00000000
01000000
00000000
,
10000000
00000000
00000000
10000000
00000000
00000000
10000000
00000000
,
00020000
00000000
01030000
00000000
,
00011000
00000000
00011000
00000000
,
00010000
00001000
00000010
00000001
,
00001000
00000010
00000100
00000100
,
00000000
00000100
00000000
00011000
,
00000000
00011000
00000000
00001000
,
00010000
00000000
00100000
00000000
10000000
00000000
00000000
00010000
,
00100000
00000000
00010000
00100000
00000000
01000000
00000000
00000000
,
10000000
00010000
01000000
00000000
,
00000000
00000000
00000000
00001000
,
00010000
00000010
00000000
00010000
,
00001000
00100000
00000000
00001000
,
00010000
00000100
00000000
00011000
,
00000000
00011000
00000000
00010000
,
00000000
01000000
00000000
00000000
10000000
00000000
01000000
00000000
,
00000000
00010000
00000000
00000000
00001000
00000000
00000100
00000000
,
00000001
00001000
00000100
00000110
,
00000000
00000000
00000001
00001000
,
00001000
00000000
00000010
00000000
00000100
00001000
00000000
00001000
,
00000000
00001000
00010000
00000000
00100000
00000000
10000000
00000000
,
10000000
00000000
01000000
00000000
00010000
00001000
00000000
00001000
,
00000000
00001000
00020000
00000000
00000000
00000000
00030100
00000000
,
00000100
00000000
00000010
00000000
00000001
00000100
00000000
00000100
,
00000000
00000100
00001000
00000000
00010000
00000000
00100000
00000000
,
00100000
00000000
10000000
00000000
01000000
00010000
00000000
00010000
,
00000000
00010000
00001000
00000000
00100000
00000000
00002000
00000000
,
00000000
00023000
00000000
00000000
00031000
00000000
00000100
00000000
,
00000000
00000100
00000000
00000000
00000100
00000000
00001001
00000000
,
00000000
00001001
00000000
00000000
00000001
00000000
00000010
00000000
,
00000100
00010000
00001000
00020000
,
00000000
00032000
00000000
00000000
00013000
00000000
01000000
00000000
,
00000000
01000000
00000000
00000000
01000000
00000000
10010000
00000000
,
00000000
10010000
00000000
00000000
10000000
00000000
00100000
00000000
,
01000000
00001000
00010000
00011000
,
00000000
00011000
00000000
00000000
00011000
00000000
00010000
00000000
,
00000000
00000100
00000000
00000000
00000010
00000000
00000110
00000000
,
00000000
00000110
00000000
00000000
00000100
00000000
00001000
00000000
,
00000001
00000100
00001000
00011000
,
00000000
00011000
00000000
00000000
00011000
00000000
00001000
00000000
,
00000000
01000000
00000000
00000000
00100000
00000000
01100000
00000000
,
00000000
01100000
00000000
00000000
01000000
00000000
00010000
00000000
,
10000000
01000000
00010000
00001000
,
00010000
00000100
00010000
00001000
,
00000010
00000001
00001000
00000010
,
00000100
00000100
00000100
00001000
,
00010000
00100000
00100000
00000000
;

//---------------dance-single - ----------------
#NOTES:
     dance-single:
     Kekkle:
     Beginner:
     7:
     0.278115,0.351090,0.049918,0.116475,0.000000,234.000000,228.000000,6.000000,14.000000,0.000000,0.000000,0.278115,0.351090,0.049918,0.116475,0.000000,234.000000,228.000000,6.000000,14.000000,0.000000,0.000000:
0000
0000
0000
0000
,
0000
0000
0000
0000
,
0000
0000
0000
0000
,
0000
0000
0000
0000
,
0000
0000
0000
0000
,
0000
1000
0000
0000
0000
0000
0000
0001
,
0000
0000
0100
0100
,
0000
0001
0000
0000
0000
0000
0000
1000
,
0000
0000
0100
0100
,
0000
0010
0000
0001
,
0000
1000
0000
0010
,
0000
0100
0000
0001
,
0000
1000
0000
0100
,
0000
0010
0001
0000
,
1000
1000
1000
0000
,
0001
0000
0100
0010
,
0100
0000
0010
1000
,
0001
0010
0100
0000
,
1000
0001
0100
0000
,
0020
0000
0130
0000
,
1000
0100
0001
0000
,
1000
0000
0100
0000
,
0010
0001
0010
0000
,
0001
0000
0010
0100
,
0010
0000
0100
1000
,
0001
0100
0010
0000
,
0100
0001
1000
0000
,
0200
0000
0310
0000
,
1000
0010
0001
0000
,
1000
0000
0010
0000
,
0100
0001
0100
0000
,
0010
0000
1001
0000
,
1000
0000
0100
0010
,
0100
0000
0001
0000
,
0100
0000
1000
0000
,
0010
0000
1001
0000
,
0001
0000
0100
0010
,
0100
0000
1000
0000
,
0100
0000
0001
0000
,
0000
0000
0000
0000
,
0000
0000
0000
0000
,
2000
0000
3100
0000
,
0001
0100
1000
0000
,
0002
0000
0103
0000
,
1000
0100
0001
0000
,
2000
0000
3010
0000
,
0001
0010
1000
0000
,
0002
0000
0013
0000
,
1000
0010
0001
0000
,
1000
0000
0000
1000
0000
0000
2000
0000
,
0000
0000
3001
0000
,
0010
0000
0000
0010
0000
0000
0000
0000
,
0100
0100
1000
0000
,
0001
0000
0000
0001
0000
0000
0002
0000
,
0000
0000
1003
0000
,
0010
0000
0000
0010
0000
0000
0000
0000
,
0100
0100
0001
0000
,
1000
0000
0000
0000
,
0001
0000
0000
0000
,
0100
0000
0000
0000
,
0010
0000
0010
0000
,
0100
0000
1001
0000
,
0001
0000
0010
0100
,
0010
0000
1000
0000
,
0010
0000
0000
0000
,
0000
1001
0000
0001
,
0000
0100
0010
0100
,
0000
1000
0000
0100
,
0000
0001
0000
0000
,
0000
0000
0000
1000
,
0000
1000
0000
0001
,
0000
0001
0000
1000
,
0000
1000
0000
0001
,
0000
1001
0000
1000
,
0000
0010
0000
0100
,
0000
0001
0000
1000
,
0000
1000
0000
1001
,
0000
0000
0000
0002
,
0000
0013
0000
1000
,
0010
0001
0000
2000
,
0000
3010
0000
0001
,
0010
1000
0000
0002
,
0000
0103
0000
1000
,
0100
0001
0000
2000
,
0000
3100
0000
0001
,
0100
1000
0000
0001
,
0000
0001
0000
0000
0002
0000
0000
0000
,
0000
1003
0000
0010
,
0000
0010
0000
0000
0000
0000
0100
0000
,
0100
0001
0000
1000
,
0000
1000
0000
0000
2000
0000
0000
0000
,
0000
3001
0000
0010
,
0000
0010
0000
0000
0000
0000
0100
0000
,
0100
1000
0000
0001
,
0000
0001
0000
0000
0001
0000
1000
0000
,
0000
0010
0000
0100
,
0000
0100
0000
0000
0001
0000
1000
0000
,
1000
0100
0000
1000
,
0000
1000
0000
0000
1000
0000
0001
0000
,
0000
0100
0000
0010
,
0000
0010
0000
0000
0100
0000
0001
0000
,
0001
1000
0000
0100
,
0000
0010
0000
0001
,
0000
1000
0010
0100
,
0000
0001
0001
1000
,
0000
0100
0100
0000
;
