#TITLE:Chaos King;
#SUBTITLE:;
#ARTIST:Toby Fox;
#TITLETRANSLIT:;
#SUBTITLETRANSLIT:;
#ARTISTTRANSLIT:;
#GENRE:;
#CREDIT:;
#MUSIC:kingboss.ogg;
#BANNER:;
#BACKGROUND:;
#CDTITLE:;
#SAMPLESTART:0.000;
#SAMPLELENGTH:0.000;
#SELECTABLE:YES;
#OFFSET:0.000;
#BPMS:0.000=73.500
,20.000=147.000
;
#STOPS:;
#BGCHANGES:;
#FGCHANGES:;

//--------------- dance-single - Crying In Lowers ----------------
#NOTES:
     dance-single:
     Crying In Lowers:
     Hard:
     14:
     0,0,0,0,0:
0000
0000
0000
0000
,
0000
0000
0000
0000
2000
0000
0000
0000
3002
0000
0000
0000
1003
1000
0100
0100
,
0010
0000
0000
0010
0000
0000
0010
0000
0002
0000
0000
0000
0000
0000
0000
0000
2003
0000
0000
0000
0000
0000
0000
0000
3001
0000
0001
0000
0100
0000
0100
0000
,
0010
0000
0000
0010
0000
0000
0010
0000
2000
0000
0000
0000
0000
0000
0000
0000
3200
0000
0000
0000
0000
0000
0000
0000
0320
0000
0000
0000
0000
0000
0000
0000
,
2030
0000
0000
0000
0000
0000
0000
0000
3020
0000
0000
0000
0000
0000
0000
0000
0230
0000
0000
0000
0000
0000
1300
0000
0001
0000
1000
0010
0000
0100
0001
0000
,
0020
0000
0000
0001
0000
0000
0130
0000
2001
0000
0000
0000
0010
0000
3000
0000
,
0102
0000
0010
0003
0001
0001
0100
0100
,
0020
0000
0000
1000
0000
0000
0130
0000
1002
0000
0000
0000
0100
0000
0003
0000
,
2010
0000
0100
3000
1000
1000
0010
0010
,
0200
0000
0000
0010
0000
0000
0301
0000
2001
0000
0000
0000
0010
0000
3000
0000
,
0102
0000
0010
0003
2001
0000
0010
3000
,
2100
0000
0010
3000
0012
0000
0100
0003
,
2010
0000
0100
3000
0001
0001
0010
0010
,
0200
0000
0000
1000
0000
0000
0310
0000
2001
0000
0000
0000
0100
0000
3000
0000
,
0012
0000
0100
0003
0001
0010
0100
1000
,
0020
0000
0000
1000
0000
0000
0130
0000
1002
0000
0000
0000
0100
0000
0003
0000
,
2010
0000
0100
3000
1000
0010
0100
0001
,
0200
0000
0000
0001
0000
0000
0310
0000
1002
0000
0000
0000
0010
0000
0003
0000
,
2100
0000
0010
3000
1002
0000
0010
0003
,
0102
0000
0010
0003
2010
0000
0100
3000
,
0012
0000
0100
0003
0010
1000
0100
0010
,
0002
0000
0000
1003
0010
0000
0100
0000
0001
0000
0010
0000
0100
0000
1000
0000
,
0020
0000
1030
0002
0000
0013
0100
1000
,
0002
0000
0000
0000
1003
0000
1000
0000
1000
0000
1000
0000
1000
0000
1000
0010
,
0200
0000
0000
0301
1000
0000
0100
0000
0010
0000
0001
0000
0010
0000
0100
0000
,
2000
0000
0000
3001
0100
0000
0010
0000
1000
0000
0100
0000
0010
0000
0001
0000
,
0200
0000
0301
2000
0000
3100
0010
0001
,
2000
0000
0000
0000
3001
0000
0001
0000
0001
0000
0001
0000
0001
0000
0001
0100
,
0020
0000
0000
1030
0001
0000
0010
0000
0100
0000
1000
0000
0100
0000
0010
0000
,
0002
0000
0000
1003
0100
0000
0010
0000
0001
0000
0100
0000
0010
0000
1000
0000
,
0200
0000
1300
0002
0000
0103
0010
1000
,
0002
0000
0000
0000
1003
0000
1000
0000
1000
0000
1000
0000
1000
0000
1000
0100
,
0020
0000
0000
0031
1000
0000
0010
0000
0100
0000
0001
0000
0100
0000
0010
0000
,
2000
0000
0000
3001
0100
0000
0010
0000
1000
0000
0100
0000
0010
0000
0001
0000
,
0200
0000
0301
2000
0000
3100
0010
0001
,
2000
0000
0000
0000
3001
0000
0001
0000
0001
0000
0001
0000
0001
0000
0001
0100
,
0020
0000
0000
1030
0001
0000
0010
0000
0100
0000
1000
0000
0100
0000
0010
0000
,
0001
0000
1000
0010
1000
0000
0001
0000
0200
0000
0000
0320
0000
0000
2030
0000
,
0000
3000
0001
0010
0001
0000
1000
0000
0020
0000
0000
0000
0000
0000
0000
0000
,
0030
0000
0010
1000
0001
0000
0010
0000
0100
0000
0000
0000
1000
0000
0000
0001
,
0000
0001
1000
0000
0001
0000
0010
0000
0002
0000
0000
0000
0000
0000
0000
0000
,
0003
0000
1000
0010
0100
0000
0010
0000
0100
0000
0000
0001
0000
0000
0010
0100
,
0000
0010
0100
0000
1000
0000
0001
0000
0200
0000
0000
0000
0000
0000
0310
0000
,
0000
1000
0010
0100
0002
0000
2003
0000
,
3001
0010
0100
1000
0001
0100
0010
1000
,
0001
0000
1000
0100
1000
0000
0001
0000
0020
0000
0000
0230
0000
0000
2300
0000
,
0000
3000
0001
0100
0001
0000
1000
0000
0200
0000
0000
0000
0000
0000
0000
0000
,
0300
0000
0100
1000
0001
0000
0100
0000
0010
0000
0000
0000
1000
0000
0000
0001
,
0000
0001
1000
0000
0001
0000
0100
0000
0002
0000
0000
0000
0000
0000
0000
0000
,
0003
0000
1000
0100
0010
0000
0100
0000
0010
0000
0000
0001
0000
0000
0100
0010
,
0000
0100
0010
0000
1000
0000
0001
0000
0020
0000
0000
0000
0000
0000
0130
0000
,
0000
1000
0100
0010
0002
0000
2003
0000
,
3001
1000
0010
0100
0002
0000
2003
0000
,
3001
1000
0100
0010
0002
0000
2003
0000
,
3001
0100
0010
1000
0002
0000
2003
0000
,
3001
0010
0100
1000
0001
0100
0010
1000
,
0001
1000
0100
0010
0001
1000
0010
0100
,
0001
1000
0001
0010
0100
1000
0001
0100
,
0010
1000
0001
1000
0200
0000
0320
0000
,
0030
0001
1000
0001
0200
0000
0320
0000
,
0030
0000
0000
0000
;

//--------------- dance-single - Maractus (X-Scale) ----------------
#NOTES:
     dance-single:
     Maractus (X-Scale):
     Challenge:
     16:
     0,0,0,0,0:
0000
0000
0000
0000
,
0000
0000
0000
0000
0000
0000
0000
0000
2000
0000
0000
0000
0000
0000
0000
0000
3002
0000
0000
0000
0000
0000
0000
0000
1003
0100
1000
0001
1000
0010
1000
0001
,
0010
0000
0000
0010
0000
0000
0010
0000
0002
0000
0000
0000
0000
0000
0000
0000
2003
0000
0000
0000
0000
0000
0000
0000
3001
0100
0001
1000
0001
0010
0001
1000
,
0010
0000
0000
0010
0000
0000
0010
0000
2000
0000
0000
0000
0000
0000
0000
0000
3200
0000
0000
0000
0000
0000
0000
0000
0320
0000
0000
0000
0000
0000
0000
0000
,
2030
0000
0000
0000
0000
0000
0000
0000
3020
0000
0000
0000
0000
0000
0000
0000
0230
0000
0000
0000
0000
0000
1300
0000
0001
0000
1000
0010
0000
0100
0001
0000
,
0020
0000
0000
0001
0000
0000
0130
0000
2001
0000
0001
0000
0010
0000
3001
0000
,
0102
0000
1000
0000
0010
0000
1003
0000
0001
0100
0001
1000
0001
0010
0001
1000
,
0020
0000
0000
1000
0000
0000
0130
0000
1002
0000
1000
0000
0100
0000
1003
0000
,
2010
0000
0001
0000
0010
0000
3001
0000
1000
0010
1000
0001
1000
0100
1000
0001
,
0200
0000
0000
0010
0000
0000
0301
0000
2001
0000
0010
0000
0001
0000
3010
0000
,
0102
1000
0100
1003
2001
0010
0001
3010
,
2100
0001
0010
3001
0012
0100
1000
0103
,
2010
0000
0100
0000
0001
0000
3100
0000
0001
0010
0001
1000
0001
0100
0001
1000
,
0200
0000
0000
1000
0000
0000
0310
0000
2001
0000
0001
0000
0100
0000
3001
0000
,
0012
0000
1000
0000
0100
0000
1003
0000
0001
0100
0010
1000
0100
0010
0001
0100
,
0020
0000
0000
1000
0000
0000
0130
0000
1002
0000
1000
0000
0100
0000
1003
0000
,
2010
0000
0001
0000
0100
0000
3001
0000
1000
0010
0100
0001
0010
0100
1000
0010
,
0200
0000
0000
0001
0000
0000
0310
0000
1002
0000
0010
0000
1000
0000
0013
0000
,
2100
0001
0100
3001
1002
0010
1000
0013
,
0102
1000
0010
1003
2010
0100
0001
3100
,
0012
0100
1000
0103
0010
1000
0100
0010
,
0002
0000
0000
1003
0010
0000
0100
0001
1000
0000
0100
1000
0001
0000
0100
0000
,
0010
0000
1000
0000
0001
1000
0010
0000
1000
0001
0010
0000
0100
0000
1000
0000
,
0002
0000
0000
0000
1003
0001
1000
0001
1000
0001
1000
0001
1000
0001
0010
0100
,
2000
0000
0000
3001
0010
0000
0100
1000
0001
0000
0100
0001
1000
0010
0100
0001
,
2000
0000
0000
3001
0010
0000
0100
1000
0001
0000
0100
0001
1000
0000
0100
0000
,
0010
0000
0001
0000
1000
0001
0010
0000
0001
1000
0010
0000
0100
0000
0001
0000
,
2000
0000
0000
0000
3100
0010
0100
0010
0100
0010
0100
0010
0001
1000
0010
0100
,
0002
0000
0000
1003
0010
0000
0100
0001
1000
0000
0100
1000
0001
0010
0100
1000
,
0002
0000
0000
1003
0100
0000
0010
0001
1000
0000
0010
1000
0001
0000
0010
0000
,
0100
0000
1000
0000
0001
1000
0100
0000
1000
0001
0100
0000
0010
0000
1000
0000
,
0002
0000
0000
0000
1003
0001
1000
0001
1000
0001
1000
0001
1000
0001
0100
0010
,
2000
0000
0000
3001
0100
0000
0010
1000
0001
0000
0010
0001
1000
0100
0010
0001
,
2000
0000
0000
3001
0100
0000
0010
1000
0001
0000
0010
0001
1000
0000
0010
0000
,
0100
0000
0001
0000
1000
0001
0100
0000
0001
1000
0100
0000
0010
0000
0001
0000
,
2000
0000
0000
0000
3010
0100
0010
0100
0010
0100
0010
0100
0001
1000
0100
0010
,
0002
0000
0000
1003
0100
0000
0010
0001
1000
0000
0010
1000
0001
0100
0010
1000
,
0001
0000
1000
0010
1000
0000
0001
0000
0200
0000
0000
0320
0000
0000
2030
0000
,
0000
3000
0001
0010
0001
0000
1000
0000
0020
0000
0100
0000
0100
0000
0100
0000
,
0130
0000
0010
1000
0001
0000
0010
0000
0100
0000
0000
0000
1000
0000
0000
1001
,
0000
0001
1000
0000
0001
0000
0010
0000
0002
0000
1000
0000
1000
0000
1000
0000
,
1003
0000
0001
0010
0100
0000
0010
0000
0100
0010
0001
0000
1000
0000
0010
0100
,
0000
0010
0100
0000
0001
0000
0010
0000
0100
0000
1000
0000
0100
0000
0010
0000
,
0001
0100
0010
1000
0002
0100
2003
0100
,
3001
0010
0001
0010
0100
1000
0100
1000
0001
0100
0001
0100
0010
1000
0010
1000
,
0001
0000
1000
0100
1000
0000
0001
0000
0020
0000
0000
0230
0000
0000
2300
0000
,
0000
3000
0001
0100
0001
0000
1000
0000
0200
0000
0010
0000
0010
0000
0010
0000
,
0310
0000
0100
1000
0001
0000
0100
0000
0010
0000
0000
0000
1000
0000
0000
1001
,
0000
0001
1000
0000
0001
0000
0100
0000
0002
0000
1000
0000
1000
0000
1000
0000
,
1003
0000
0001
0100
0010
0000
0100
0000
0010
0100
0001
0000
1000
0000
0100
0010
,
0000
0100
0010
0000
0001
0000
0100
0000
0010
0000
1000
0000
0010
0000
0100
0000
,
0001
0010
0100
1000
0002
0010
2003
0010
,
3001
0100
0010
1000
0002
0100
2003
0100
,
3001
0010
0100
1000
0002
0010
2003
0010
,
3001
0100
0010
1000
0002
0000
2003
0000
,
3001
0000
2000
0000
0100
0000
3001
0000
1000
0100
0010
0001
0100
0010
1000
0100
,
0010
0000
0002
0000
0100
0000
1003
0000
0001
0100
0010
1000
0100
0010
0001
0100
,
0010
0000
2000
0000
0010
0000
3001
0000
1000
0100
0010
0001
0100
0010
1000
0100
,
0010
0002
0010
1003
0200
0000
0320
0000
,
0030
0002
0100
1003
0020
0000
0230
0000
,
0300
0000
0000
0000
;
