#TITLE:Catch the Wave;
#SUBTITLE:;
#ARTIST:livetune feat. Hatsune Miku;
#TITLETRANSLIT:;
#SUBTITLETRANSLIT:;
#ARTISTTRANSLIT:;
#GENRE:Future bass;
#CREDIT:tikal.;
#MUSIC:Catch the Wave.ogg;
#BANNER:Catch the Wave.png;
#BACKGROUND:Catch the Wave-bg.png;
#CDTITLE:cdtitle.png;
#SAMPLESTART:51.701;
#SAMPLELENGTH:25.098;
#SELECTABLE:YES;
#OFFSET:-0.721;
#BPMS:0.000=153.000;
#STOPS:;
#BGCHANGES:;
#FGCHANGES:;

//--------------- dance-single - tikal. ----------------
#NOTES:
     dance-single:
     tikal.:
     Hard:
     13:
     0,0,0,0,0:
0000
0000
0000
0000
,
0000
0000
0000
0000
,
0000
0000
0000
0000
,
0000
0000
0000
0000
,
0000
0000
0000
0000
,
1000
1100
0001
0101
,
0010
1100
0010
0101
,
0001
0001
1000
1000
0001
0010
0100
1000
,
0020
0000
0000
0000
0130
0010
1000
0000
,
0002
0000
0000
0013
0100
0000
0001
0000
0200
0000
0000
2300
0000
0000
3020
0000
,
0032
0000
0000
0013
0100
0000
0001
0000
2000
0000
0000
0000
3100
0000
0010
0000
,
0002
0000
0000
0103
0010
0000
0001
0000
0020
0000
0000
2030
0000
0000
3200
0000
,
0302
0000
0103
0100
1000
0010
0100
0001
,
2000
0000
0000
3010
0100
0000
1000
0000
0200
0000
0000
0302
0000
0000
0023
0000
,
2030
0000
0000
3010
0100
0000
1000
0000
0002
0000
0000
0000
0103
0000
0010
0000
,
2000
0000
0000
3100
0010
0000
1000
0000
0020
0000
0000
0032
0000
0000
0203
0000
,
2300
0000
3100
0001
0010
0000
0110
0000
,
1000
0000
0010
0000
0100
0010
1000
0000
,
0001
0000
0010
0000
0100
0001
0100
1000
,
0001
0000
0100
0000
0010
0100
0001
0000
,
1000
0010
1000
0000
0001
0100
0100
0000
,
0001
0000
0010
0000
0100
0010
0001
0000
,
1000
0000
0010
0000
0100
1000
0100
0001
,
1000
0000
0100
0001
0000
0100
0010
0001
,
0000
1000
0010
0100
0000
0001
0001
0000
,
1000
0000
0000
1000
0001
0000
0100
0000
0010
0000
0000
0100
0001
0000
0000
0000
,
1000
0000
0000
1000
0001
0000
0010
0000
0100
0000
0010
0001
1000
0000
0000
0000
,
0001
0000
0000
0001
1000
0000
0100
0000
0010
0000
0000
0100
1000
0000
0000
0000
,
0001
0010
0001
0000
1000
0100
1000
0000
,
0001
0000
0000
0001
1000
0000
0010
0000
0100
0000
0000
0010
1000
0000
0000
0000
,
0001
0000
0000
0001
1000
0000
0100
0000
0010
0000
0100
1000
0001
0000
0000
0000
,
1000
1000
0001
0001
1000
0010
0100
0001
,
0020
0000
0000
0000
0130
0010
0001
0000
,
1000
0000
0000
0010
0000
0000
0100
0000
0101
0000
0000
0001
0010
0000
0100
0000
,
1000
0000
0000
0100
0000
0000
0010
0000
0011
0000
0000
1000
0001
0000
0100
0000
,
0020
0000
1030
0100
0020
0000
0031
0100
,
1000
0100
0010
0000
1010
0000
0101
0000
,
0001
0000
0000
0010
0000
0000
0100
0000
1100
0000
0000
1000
0010
0000
0100
0000
,
0001
0000
0000
0100
0000
0000
0010
0000
1010
0000
0000
0001
1000
0000
0100
0000
,
0020
0000
1030
0010
0002
0000
1003
0010
,
0100
0000
0100
0000
0010
0000
0010
0000
1000
0001
1000
0000
0100
0000
0010
0000
,
0011
0000
0000
0001
0000
0000
1000
0000
1100
0000
0000
1000
0001
0000
1000
0000
,
1010
0000
0000
1000
0000
0000
0001
0000
0101
0000
0000
0001
1000
0000
0010
0000
,
0200
0000
0301
0010
0200
0000
1300
0100
,
0001
0100
0010
0000
0011
0000
1100
0000
,
1010
0000
0000
1000
0000
0000
0001
0000
0101
0000
0000
0001
1000
0000
0001
0000
,
0011
0000
0000
0001
0000
0000
1000
0000
1100
0000
0000
1000
0001
0000
0010
0000
,
0100
0000
0100
0000
1000
0000
1000
0000
0001
0000
0100
0000
0010
1000
0001
0000
,
0200
0000
0000
0000
0310
0100
0001
0000
,
2000
0000
0000
0000
0000
0000
0000
3000
1100
0000
0000
0000
0000
0000
0000
0000
,
0002
0000
0000
0000
0000
0000
0000
0103
0001
0000
0000
0011
0000
0000
0110
0000
,
2000
0000
0000
0000
0000
0000
0000
3000
1010
0000
0000
0000
0000
0000
0000
0000
,
0002
0000
0000
0000
0000
0000
0000
0013
0001
0000
0000
0101
0000
0000
0110
0000
,
2000
0000
0000
3000
0011
0000
0000
0000
,
0002
0000
0000
0000
0000
0000
0000
1003
0010
0000
0000
0110
0000
0000
0101
0000
,
0002
0000
0000
0000
0000
0000
0000
0003
1100
0000
0000
0000
0000
0000
0000
0000
,
1010
1001
0220
0330
,
1000
0100
0001
0000
0001
0100
1000
0000
,
0001
0000
0010
0000
0100
0000
0100
0000
1000
0000
0000
0010
0000
0000
0100
0000
,
0001
0010
1000
0000
1000
0010
0001
0000
,
1000
0000
0100
0000
0010
0000
0010
0000
0001
0000
0000
0100
0000
0000
0010
0000
,
1000
0010
1000
1000
0001
0010
0001
0001
,
1000
0010
0100
0100
0001
0010
0100
0100
,
1000
0100
1000
0000
0001
0100
0001
0000
0100
0010
0100
0000
0001
1000
0001
1000
,
0200
0000
0000
0000
0310
0100
1000
0000
,
1010
0000
0000
0210
0000
0000
1300
0000
0100
0000
0001
1000
0100
0000
0010
0000
,
0011
0000
0000
0210
0000
0000
0301
0000
0100
0000
1000
0000
0001
0000
0100
0000
,
2000
0000
3001
0010
2000
0000
3001
0010
,
0100
1000
1000
0000
1010
0000
0011
0000
,
1100
0000
0000
0120
0000
0000
1030
0000
0010
0000
0001
1000
0010
0000
0100
0000
,
0101
0000
0000
0120
0000
0000
0031
0000
0010
0000
1000
0000
0001
0000
0010
0000
,
2000
0000
3001
0100
0020
0000
0130
0010
,
0001
0000
0001
0000
1000
0000
1000
0000
0100
0010
0100
0000
1000
0000
0001
0000
,
0101
0000
0000
0120
0000
0000
0031
0000
0010
0000
1000
0001
0010
0000
0100
0000
,
1100
0000
0000
0120
0000
0000
1030
0000
0010
0000
0001
0000
1000
0000
0010
0000
,
0002
0000
1003
0100
0002
0000
1003
0100
,
0010
0001
0001
0000
0101
0000
1100
0000
,
0011
0000
0000
0210
0000
0000
0301
0000
0100
0000
1000
0001
0100
0000
0010
0000
,
1010
0000
0000
0210
0000
0000
1300
0000
0100
0000
0001
0000
1000
0000
0100
0000
,
0010
0000
0010
0000
0001
0000
0001
0000
1000
0010
0100
0001
1000
0001
1000
0100
,
0020
0000
0000
0000
0000
0000
0000
0000
0130
0010
0001
0000
1000
0000
0000
0000
;

//--------------- dance-single - tikal. ----------------
#NOTES:
     dance-single:
     tikal.:
     Challenge:
     16:
     0,0,0,0,0:
0000
0000
0000
0000
,
0000
0000
0000
0000
,
0000
0000
0000
0000
,
0000
0000
0000
0000
,
0000
0000
0000
0000
,
0001
0000
0000
0100
0000
0000
0010
0000
1000
0000
0000
0000
0100
0000
0010
0000
,
1000
0000
0000
0010
0000
0000
0100
0000
0020
0000
0000
0000
0031
0000
0100
0000
,
0010
0000
0010
0000
0100
0000
0100
0000
0010
1000
0001
0010
0100
1000
0001
0100
,
0020
0000
0000
0000
0100
0000
0000
0000
0130
0000
0010
0000
1000
0010
0100
0001
,
0020
0000
0000
0130
1000
0000
0010
0000
0120
0000
0000
0001
0000
0000
2030
0000
,
3200
0000
0000
0310
0001
0000
0100
0000
0120
0000
0000
1030
0001
0010
0100
1000
,
0020
0000
0000
0130
0001
0000
0010
0000
0120
0000
0000
1000
0000
0000
0032
0000
,
0203
0000
1300
0100
0010
1000
0002
0023
,
0130
0010
0100
0010
0001
0000
0100
0000
0210
0000
0000
1000
0000
0000
0302
0000
,
0023
0000
0000
0130
1000
0000
0010
0000
0210
0000
0000
0301
1000
0100
0010
0001
,
0200
0000
0000
0310
1000
0000
0100
0000
0210
0000
0000
0001
0000
0000
2300
0000
,
3010
0000
0000
0010
0100
0000
0001
1000
0100
0010
0001
0000
0100
0000
0000
0000
,
0020
0000
0000
0032
0000
0000
2003
0000
3100
0010
0100
0000
0001
0000
1000
0000
,
0200
0000
0000
0302
0000
0000
2003
0000
3010
0100
0010
0000
0001
0000
0001
0000
,
2000
0000
0000
3020
0000
0000
0230
0000
0301
1000
0001
0000
0020
0000
0000
0000
,
0130
0000
0001
0000
0200
0000
0000
0000
0310
0001
1000
0000
2000
0000
0000
0000
,
3200
0000
0000
0302
0000
0000
2003
0000
3010
0100
0010
0000
0001
0000
1000
0000
,
0020
0000
0000
0032
0000
0000
2003
0000
3200
0000
0301
0000
0002
0000
1003
0000
,
1000
0000
0000
1000
0100
0000
0001
0000
0100
0010
0001
0000
1000
0000
0010
0000
,
0100
0000
0001
1000
0001
0000
0010
0000
0000
0000
0100
0000
0100
0000
0000
0000
,
1000
0000
0000
1000
0001
0000
0100
0000
0010
0100
0010
1000
0100
0000
0010
0000
,
0001
0000
0000
0001
1000
0000
0100
0000
0010
0100
0010
0001
0100
0000
0010
0000
,
1000
0000
0000
1000
0010
0000
0100
0010
0001
0010
0100
0001
1000
0000
0001
0000
,
0010
0000
1000
0000
0020
0000
0000
0000
0130
1000
0001
0100
0002
0000
0000
0000
,
1003
0000
0000
1000
0001
0000
0010
0000
0100
0010
0100
1000
0010
0000
0100
0000
,
0001
0000
0000
0001
1000
0000
0010
0000
0100
0010
0100
0001
0010
0000
0100
0000
,
1000
0000
1000
0000
0001
0000
0001
0000
0010
0001
1000
0010
0100
0001
1000
0100
,
0020
0000
0000
0000
0130
0010
0001
0000
,
1001
0000
0000
1000
0010
0000
0100
0000
1000
0000
0100
0001
1000
0000
0100
0000
,
0010
0000
0000
0010
1000
0000
0001
0000
0100
0000
0010
0001
1000
0100
0010
0001
,
2000
0000
3000
1000
0010
0000
0100
0000
2000
0000
3000
1000
0100
0000
0010
0000
,
1000
0000
0001
0000
0001
0000
0010
0000
0100
1000
0001
0100
0010
1000
0001
0100
,
0001
0000
0000
0001
0010
0000
0100
0000
0001
0000
0100
1000
0001
0000
0100
0000
,
0010
0000
0000
0010
0001
0000
1000
0000
0100
0000
0010
1000
0001
0100
0010
1000
,
0002
0000
0003
0001
0010
0000
0100
0000
2000
0000
3000
1000
0010
0000
0100
0000
,
0200
0000
0301
0000
0001
0000
0010
0100
1000
0001
0010
0100
2000
0000
3020
0030
,
1001
0000
0000
0001
0100
0000
0010
0000
0001
0000
0010
1000
0001
0000
0010
0000
,
0100
0000
0000
0100
0001
0000
1000
0000
0010
0000
0100
1000
0001
0010
0100
1000
,
0002
0000
0003
0001
0100
0000
0010
0000
0002
0000
0003
0001
0010
0000
0100
0000
,
0001
0000
1000
0001
1000
0000
0100
0000
0010
0001
1000
0010
0100
0001
1000
0010
,
1000
0000
0000
1000
0100
0000
0010
0000
1000
0000
0010
0001
1000
0000
0010
0000
,
0100
0000
0000
0100
1000
0000
0001
0000
0010
0000
0100
0001
1000
0010
0100
0001
,
1000
0000
1000
0000
0100
0000
0100
0000
0001
0100
0010
0001
1000
0010
0100
0010
,
0200
0000
0010
0000
0310
0100
0001
0000
,
1010
0000
1000
0010
0100
0010
1000
0100
0020
0000
1000
0000
0230
0000
0000
0000
,
1300
0000
0001
0010
0100
0010
0001
0100
0010
0000
0000
1010
0000
0000
0101
0000
,
0011
0000
0001
0010
0100
0010
0001
0100
0020
0000
0000
0001
0000
0000
0230
0000
,
0301
0000
1000
0010
0100
0010
1000
0100
0010
0000
0000
0011
0000
0000
1100
0000
,
1010
0000
1000
0010
0100
0001
0010
0100
0002
0000
0000
0203
0000
0000
2300
0000
,
3001
0000
1000
0100
0010
0001
0100
0010
1000
0000
0000
1100
0000
0000
1010
0000
,
0011
0000
0001
0010
0100
1000
0010
0100
2000
0000
0000
3200
0000
0000
0302
0000
,
2003
0000
0000
0000
3200
0000
0310
0100
0001
0100
0010
0001
1000
0000
0000
0000
,
0001
1000
0010
0100
0010
0000
1000
0100
0010
1000
0010
0100
2000
0000
0000
0000
,
3001
0010
0100
1000
0000
0010
0000
0100
1000
0000
0100
0001
0000
0010
0000
0100
,
1000
0001
0010
0100
0010
0000
0001
0100
0010
0001
0010
0200
0000
0000
0301
0000
,
1000
0010
0100
0001
0000
0010
0100
0001
0100
0000
1000
0010
0000
0100
0001
1000
,
0001
0001
0010
0010
0100
0100
1000
1000
,
0010
0010
0100
0100
0001
0001
1000
1000
,
0100
1000
0100
1000
0001
0100
0001
0100
0010
1000
0010
1000
0001
0010
0001
0010
,
0200
0000
0000
0000
0310
0100
1000
0000
,
1001
0000
1000
0010
0100
0000
1000
0100
0001
0000
0010
0100
0001
0000
0100
0000
,
1000
0000
0001
0010
0100
0000
0001
0100
1000
0001
0010
0100
1000
0001
0100
0010
,
2000
0000
3000
1000
0100
0000
0001
0000
2000
0000
3000
1000
0001
0000
0100
0000
,
0010
0000
0001
1000
0001
0000
0100
0000
0010
1000
0001
1000
0100
0010
0001
1000
,
0001
0000
1000
0100
0010
0000
1000
0010
0001
0000
0100
0010
0001
0000
0010
0000
,
1000
0000
0001
0100
0010
0000
0001
0010
1000
0001
0100
0010
1000
0001
0010
0100
,
2000
0000
3000
1000
0010
0000
0100
0000
0002
0000
0003
0001
0010
0000
0100
0000
,
0200
0000
1300
0000
1000
0000
0001
0100
0010
1000
0100
0010
0002
0000
0023
0030
,
1001
0000
1000
0010
0100
0000
1000
0100
0001
0000
0010
0100
0001
0000
0100
0000
,
1000
0000
0001
0010
0100
0000
0001
0100
1000
0001
0010
0100
1000
0001
0100
0010
,
2000
0000
3000
1000
0100
0000
0001
0000
2000
0000
3000
1000
0001
0000
0100
0000
,
0010
0000
0001
1000
0001
0000
0100
0000
0010
1000
0001
1000
0100
0010
0001
1000
,
0001
0000
1000
0100
0010
0000
1000
0010
0001
0000
0100
0010
0001
0000
0010
0000
,
1000
0000
0001
0100
0010
0000
0001
0010
1000
0001
0100
0010
1000
0001
0010
0100
,
1000
0000
1000
0000
0010
0000
0010
0000
0001
0010
0100
0001
1000
0100
0010
0100
,
0020
0000
0000
0000
0100
0000
0000
0000
0130
0010
0001
0000
1000
0000
0000
0000
;
