#TITLE:Catch You Catch Me;
#SUBTITLE:;
#ARTIST:日向めぐみ (グミ);
#TITLETRANSLIT:;
#SUBTITLETRANSLIT:;
#ARTISTTRANSLIT:;
#GENRE:;
#CREDIT:;
#BANNER:Catch You Catch Me.png;
#BACKGROUND:Catch You Catch Me bg.png;
#LYRICSPATH:;
#CDTITLE:;
#MUSIC:Catch You Catch Me.ogg;
#OFFSET:-0.038000;
#SAMPLESTART:45.511002;
#SAMPLELENGTH:15.002000;
#SELECTABLE:YES;
#BPMS:0.000000=127.987000
;
#STOPS:
;
#BGCHANGES:0.038=Catch You Catch Me.mp4=1.000=0=0=0=StretchNoLoop====,
99999=-nosongbg-=1.000=0=0=0 // don't automatically add -songbackground-
;
#KEYSOUNDS:;
#ATTACKS:;

//---------------dance-single - ----------------
#NOTES:
     dance-single:
     :
     Hard:
     12:
     0.395511,0.520587,0.331283,0.437766,0.041410,234.000000,206.000000,28.000000,37.000000,0.000000,0.000000,0.395511,0.520587,0.331283,0.437766,0.041410,234.000000,206.000000,28.000000,37.000000,0.000000,0.000000:
// measure 0
0000
0000
0000
0000
,  // measure 1
0000
0000
0000
0000
,  // measure 2
0000
0000
0000
0000
,  // measure 3
0000
0000
0000
1001
0000
0110
0000
0011
,  // measure 4
0000
1010
0010
1000
0100
0010
0010
0000
,  // measure 5
0001
0100
0010
0100
0000
0001
0100
1000
,  // measure 6
0000
0100
0001
0000
0010
0001
0001
0000
,  // measure 7
0100
0010
1000
1100
0000
1001
0000
0011
,  // measure 8
0000
0110
1000
0100
0002
0000
0103
2000
,  // measure 9
0000
3010
0100
0010
2000
0000
3001
2000
,  // measure 10
0000
3010
1000
0010
0002
0000
0013
2000
,  // measure 11
0000
3100
0010
0100
0020
0000
0031
0200
,  // measure 12
0000
0301
0010
0100
2000
0000
3010
0002
,  // measure 13
0000
0013
1000
0100
2000
0000
3001
0200
,  // measure 14
0000
0310
0100
0001
1001
0000
0000
2000
,  // measure 15
0000
3100
0001
0100
2000
0000
3001
0020
,  // measure 16
0000
0031
2000
0000
3001
0000
0200
0000
,  // measure 17
0310
2000
3100
0020
,  // measure 18
0031
0000
0200
0000
0320
0000
1030
0200
,  // measure 19
0000
1300
0100
0010
0002
0000
0023
0000
,  // measure 20
0230
0000
0320
0000
0031
1000
0010
0000
,  // measure 21
1000
0100
0010
0000
0001
0100
0010
0000
,  // measure 22
0100
0001
0010
0000
0001
0010
0100
1000
,  // measure 23
0001
0010
0100
1000
0002
1003
0020
0130
,  // measure 24
0002
1003
0100
0010
0100
1001
0100
1001
,  // measure 25
0100
1001
0100
1001
1000
0020
0000
0000
,  // measure 26
0000
0030
1000
1010
,  // measure 27
0001
0000
0100
0000
0001
0000
0000
0000
1000
0001
0010
0001
1000
0000
0000
0000
,  // measure 28
0011
0000
0001
1000
0010
1001
0010
1001
,  // measure 29
0010
1001
0010
1001
1000
0200
0000
0000
,  // measure 30
0000
0000
0000
0000
0000
0000
0300
0000
0010
0100
0010
0100
0010
0000
0001
0000
,  // measure 31
1000
0100
1000
0100
1000
0000
0010
0100
0010
0000
0200
0000
0301
0000
0200
0000
,  // measure 32
0310
2000
3100
0020
0000
0000
0000
0000
,  // measure 33
0000
0000
0030
1100
0000
0110
0000
0101
,  // measure 34
0000
1001
0000
0001
0010
0100
0100
0000
,  // measure 35
1000
0010
0100
0010
0000
1000
0010
0001
,  // measure 36
0000
0010
1000
0000
0100
1000
1000
0000
,  // measure 37
0010
0100
0001
0011
0000
1001
0000
1100
,  // measure 38
0000
0110
0000
1000
0001
0000
2002
0000
,  // measure 39
0000
0000
0000
0000
,  // measure 40
3003
0000
0000
0000
;
