#VERSION:0.83;
#TITLE:カジノファイヤーことみちゃん;
#SUBTITLE:;
#ARTIST:ARM feat. 山本椛+Brasscapsule;
#TITLETRANSLIT:Casino fire Kotomi-chan;
#SUBTITLETRANSLIT:;
#ARTISTTRANSLIT:;
#GENRE:;
#ORIGIN:;
#CREDIT:;
#BANNER:Casino fire Kotomi-chan-banner.png;
#BACKGROUND:Casino fire Kotomi-chan-bg.png;
#PREVIEWVID:;
#JACKET:Casino fire Kotomi-chan-jacket.png;
#CDIMAGE:;
#DISCIMAGE:;
#LYRICSPATH:;
#CDTITLE:CDtitle.png;
#MUSIC:Casino fire Kotomi-chan.ogg;
#OFFSET:-0.011000;
#SAMPLESTART:73.054001;
#SAMPLELENGTH:18.783001;
#SELECTABLE:YES;
#BPMS:0.000=230.000;
#STOPS:;
#DELAYS:;
#WARPS:;
#TIMESIGNATURES:0.000=4=4;
#TICKCOUNTS:0.000=4;
#COMBOS:0.000=1;
#SPEEDS:0.000=1.000=0.000=0;
#SCROLLS:0.000=1.000;
#FAKES:;
#LABELS:0.000=Song Start;
#BGCHANGES:;
#KEYSOUNDS:;
#ATTACKS:
;

//---------------dance-single - ----------------
#NOTEDATA:;
#CHARTNAME:;
#STEPSTYPE:dance-single;
#DESCRIPTION:;
#CHARTSTYLE:;
#DIFFICULTY:Easy;
#METER:9;
#RADARVALUES:0.336742,0.551976,0.226989,0.218259,0.008730,270.000000,244.000000,26.000000,25.000000,0.000000,0.000000,0.000000,0.000000,0.000000,0.336742,0.551976,0.226989,0.218259,0.008730,270.000000,244.000000,26.000000,25.000000,0.000000,0.000000,0.000000,0.000000,0.000000;
#CREDIT:Pandemonium X;
#NOTES:
// measure 0
0000
0000
0000
0000
,  // measure 1
0000
0000
0000
0000
,  // measure 2
0000
0000
0000
0000
,  // measure 3
0000
0000
0000
0000
,  // measure 4
0000
0000
0000
0000
,  // measure 5
0000
0000
0000
0000
,  // measure 6
0000
0000
0000
0000
,  // measure 7
0000
0000
0000
0000
,  // measure 8
0001
1000
0000
0000
,  // measure 9
0001
1000
0000
0000
,  // measure 10
0000
0000
0000
0000
0000
0000
0001
0100
,  // measure 11
0000
0100
0000
0100
0010
0000
1000
0000
,  // measure 12
0001
1000
0000
0000
,  // measure 13
0001
1000
0000
0000
,  // measure 14
0001
0001
1000
1000
,  // measure 15
0001
0100
0010
1000
,  // measure 16
0001
0100
0020
0000
,  // measure 17
0130
0010
2000
0000
,  // measure 18
3001
0010
0100
0010
,  // measure 19
0001
0001
1000
1000
,  // measure 20
0010
1000
0200
0000
,  // measure 21
0310
0001
0200
0000
,  // measure 22
0310
1000
0001
0010
,  // measure 23
0100
0000
0100
0000
1000
0000
0000
1100
,  // measure 24
0000
0000
0000
0000
0000
0000
0000
0011
,  // measure 25
0000
0000
0000
0000
0000
0000
0000
0101
,  // measure 26
0000
0000
0000
1010
0000
0000
0000
1001
,  // measure 27
0000
0000
0000
0110
0000
1001
0000
0000
,  // measure 28
0000
0001
0010
0100
,  // measure 29
1000
0100
0010
0002
,  // measure 30
0000
0000
2000
0000
,  // measure 31
0000
0000
0000
3003
,  // measure 32
0001
0000
0000
0000
0100
0000
0000
0010
,  // measure 33
0000
0000
0000
0000
1000
0000
0000
0100
,  // measure 34
0000
0000
0000
0000
1000
0000
0000
0010
,  // measure 35
0000
0000
0100
0000
,  // measure 36
0010
0000
0000
0010
0000
0000
0010
0000
,  // measure 37
0100
0000
0000
0100
0000
0000
0100
0000
,  // measure 38
0020
0000
0000
0000
,  // measure 39
2030
0000
0000
0000
,  // measure 40
3100
1000
0001
0000
,  // measure 41
0010
0100
1000
0000
,  // measure 42
0100
1000
0010
0100
,  // measure 43
0001
0010
0100
0000
,  // measure 44
0110
0000
0000
0001
0000
0000
0100
0000
,  // measure 45
0110
0000
0000
0010
0000
0000
1000
0000
,  // measure 46
0001
1000
0000
0010
0000
0100
0010
0100
,  // measure 47
0001
0000
2002
0000
,  // measure 48
3003
0000
0000
0000
,  // measure 49
0000
0000
0000
0000
,  // measure 50
0000
0000
0000
0000
,  // measure 51
0000
0000
0000
0000
1000
0001
0000
0000
,  // measure 52
0100
0000
0000
0100
0000
0000
0100
0000
,  // measure 53
0000
0100
0000
0000
0100
0000
0010
0000
,  // measure 54
1000
0000
0000
1000
0000
0000
1000
0000
,  // measure 55
0000
1000
0000
0000
1000
0000
0001
0000
,  // measure 56
0010
0000
0000
0010
0000
0000
0010
0000
,  // measure 57
0000
0010
0000
0000
0010
0000
0100
0000
,  // measure 58
1000
0000
0000
1000
0000
0000
1000
0000
,  // measure 59
0000
1000
0000
0000
0100
0000
0010
0000
,  // measure 60
0001
0000
0000
0100
0000
0000
0001
0000
,  // measure 61
0000
0010
0000
0000
0100
0000
1000
0000
,  // measure 62
0010
0000
0000
0100
0000
0000
0010
0000
,  // measure 63
0000
1000
0000
0000
0001
0000
0010
0000
,  // measure 64
0200
0000
0310
0001
,  // measure 65
2000
0000
0000
3010
,  // measure 66
1000
0000
0000
0001
0000
0000
0010
0000
,  // measure 67
0000
0100
0000
0000
0010
0000
0001
0000
,  // measure 68
2002
0000
0000
3003
,  // measure 69
1000
0010
0100
0001
,  // measure 70
1000
1000
1000
1000
,  // measure 71
0001
0001
0001
0001
,  // measure 72
1000
0001
1000
0001
,  // measure 73
1001
1001
1001
0000
,  // measure 74
0001
0001
0001
0001
,  // measure 75
1000
1000
1000
1000
,  // measure 76
0001
1000
0001
1000
,  // measure 77
1001
1001
1001
0000
,  // measure 78
1010
0000
0000
0000
0000
0000
0010
0000
0000
0000
0000
0101
,  // measure 79
0000
0000
0000
0000
,  // measure 80
0011
0000
0000
0000
0000
0000
0010
0000
0000
0000
0000
0110
,  // measure 81
0000
0000
0000
0000
,  // measure 82
0200
0000
0000
0300
,  // measure 83
1000
0000
0000
0010
0000
0000
0100
0000
,  // measure 84
0101
0000
0000
0010
0000
0000
0000
0000
,  // measure 85
1100
0000
0000
0010
0000
0000
0000
0000
,  // measure 86
2002
0000
0000
3003
,  // measure 87
0001
0100
0010
1000
,  // measure 88
0001
0100
0020
0000
,  // measure 89
0130
0010
2000
0000
,  // measure 90
3001
0010
0100
0010
,  // measure 91
0001
0001
1000
1000
,  // measure 92
0001
1000
0020
0000
,  // measure 93
1030
0100
0020
0000
,  // measure 94
0130
1000
0010
0100
,  // measure 95
0001
0001
0100
0010
,  // measure 96
2020
0000
0000
0000
,  // measure 97
0000
0000
0000
0000
,  // measure 98
0000
0000
0000
0000
,  // measure 99
0000
0000
0000
3030
0000
0000
0000
0000
,  // measure 100
0100
0000
0000
0000
,  // measure 101
0010
0000
0000
0000
,  // measure 102
1000
0000
0000
0000
,  // measure 103
0001
0000
0000
0000
,  // measure 104
0000
0000
2002
0000
,  // measure 105
0000
0000
3000
0003
0000
0000
0000
0000
;

//---------------dance-single - ----------------
#NOTEDATA:;
#CHARTNAME:;
#STEPSTYPE:dance-single;
#DESCRIPTION:;
#CHARTSTYLE:;
#DIFFICULTY:Medium;
#METER:13;
#RADARVALUES:0.475180,0.782894,0.349214,0.296832,0.039287,381.000000,341.000000,40.000000,34.000000,0.000000,0.000000,0.000000,0.000000,0.000000,0.475180,0.782894,0.349214,0.296832,0.039287,381.000000,341.000000,40.000000,34.000000,0.000000,0.000000,0.000000,0.000000,0.000000;
#CREDIT:Pandemonium X;
#NOTES:
// measure 0
0000
0000
0000
0000
,  // measure 1
0000
0000
0000
0000
,  // measure 2
0000
0000
0000
0000
,  // measure 3
0000
0000
0000
0000
,  // measure 4
0000
0000
0000
0000
,  // measure 5
0000
0000
0000
0000
,  // measure 6
0000
0000
0000
0000
,  // measure 7
0000
0000
0000
0000
,  // measure 8
0001
1000
0000
0000
,  // measure 9
0010
1000
0000
0000
,  // measure 10
0200
0000
0000
0000
0000
0000
0310
0001
,  // measure 11
0000
0001
0000
0001
0200
0000
0320
0000
,  // measure 12
1030
0001
0000
0000
,  // measure 13
1000
0010
0000
0000
,  // measure 14
0100
0010
1000
0001
,  // measure 15
1000
0001
1000
0001
1000
0010
1000
0010
,  // measure 16
1000
0000
0100
0000
0010
0001
0100
0000
,  // measure 17
0010
0000
1000
0000
0100
1000
0010
0000
,  // measure 18
0100
0000
0010
1000
0000
0001
0000
0010
,  // measure 19
0001
0100
0010
0000
0100
0010
1000
0000
,  // measure 20
0001
0000
0100
0000
0010
0100
0001
0000
,  // measure 21
0010
0000
0001
0000
1000
0100
0010
0000
,  // measure 22
0100
0000
1000
0100
0000
1000
0000
0010
,  // measure 23
0100
0000
0010
0000
1000
0001
0010
0100
,  // measure 24
0000
0100
0010
0001
0000
0001
0000
1001
,  // measure 25
0000
1000
0010
0100
0000
0100
0000
0110
,  // measure 26
0000
0000
0000
1001
0000
0000
0000
1010
,  // measure 27
0000
0000
0000
0101
0000
0011
0000
0000
,  // measure 28
0000
0002
0023
0230
,  // measure 29
2300
3200
0320
0032
,  // measure 30
0000
0000
0003
0000
1002
2000
0000
0000
,  // measure 31
0000
0000
0000
3003
,  // measure 32
0001
0010
0000
0100
0010
0000
0001
0100
,  // measure 33
0000
0010
0000
1000
0001
0000
0000
1000
,  // measure 34
0000
0100
0000
0010
0100
0000
1000
0010
,  // measure 35
0000
0100
0000
0010
1000
0000
0000
0000
,  // measure 36
0020
0000
0000
1030
0000
0000
0010
0000
,  // measure 37
0200
0000
0000
0301
0000
0000
0010
0000
,  // measure 38
0200
0000
0000
0000
,  // measure 39
1300
0100
0000
0001
0000
0100
0000
1000
,  // measure 40
0001
1000
0000
0010
1000
0000
0100
0010
,  // measure 41
0000
0100
0000
1000
0001
0000
0000
0100
,  // measure 42
0000
0010
1000
0000
0001
0000
0010
0100
,  // measure 43
0000
0000
0000
0010
0000
0000
0000
0000
0000
0001
0000
0000
0100
0000
0000
0000
0010
0000
0000
0000
1000
0000
0000
0000
,  // measure 44
0002
0000
0000
1003
0000
0000
0001
0000
,  // measure 45
0020
0000
0000
0130
0000
0000
0010
0000
,  // measure 46
0001
0100
0000
1010
0000
1000
0100
0010
,  // measure 47
0100
0000
0012
0000
,  // measure 48
1003
0000
0000
1000
0000
0000
0001
0000
,  // measure 49
0000
0001
0000
0000
1000
0000
0001
0000
,  // measure 50
1000
0000
0000
1000
0000
0000
0001
0000
,  // measure 51
0000
0001
0000
0000
0100
0100
0000
0000
,  // measure 52
0010
0000
0000
1000
0000
0000
0010
0000
,  // measure 53
0000
0100
0000
0000
0001
0000
0010
0000
,  // measure 54
0100
0000
0000
0010
0000
0000
0001
0000
,  // measure 55
0000
0100
0000
0000
0010
0000
1000
0000
,  // measure 56
0001
0000
0000
1000
0000
0000
0100
0000
,  // measure 57
0000
0010
0000
0000
0100
0000
1000
0000
,  // measure 58
0010
0000
0000
0100
0000
0000
0001
0000
,  // measure 59
0000
0010
0000
0000
0100
0000
0010
0000
,  // measure 60
0001
0100
0010
1000
,  // measure 61
0001
0010
0100
0010
,  // measure 62
0001
0100
0010
1000
,  // measure 63
0100
0000
0000
0010
,  // measure 64
2002
0000
3003
0100
,  // measure 65
2002
0000
3003
0001
,  // measure 66
0100
0010
1000
0001
,  // measure 67
0010
0000
0100
0010
0001
1000
0010
0000
,  // measure 68
2002
0000
0000
3003
,  // measure 69
1000
0100
0010
0001
,  // measure 70
1000
0001
0100
0101
,  // measure 71
0001
1000
0100
1100
,  // measure 72
1001
1001
0110
0110
,  // measure 73
1001
0000
0110
1000
0001
0000
0000
0000
,  // measure 74
0001
1000
0010
1010
,  // measure 75
1000
0001
0010
0011
,  // measure 76
1001
1001
0110
0110
,  // measure 77
1001
0110
1001
0000
,  // measure 78
0102
0000
0000
0000
0000
0000
0100
0000
0000
0000
0000
0013
,  // measure 79
0000
0000
0000
0000
,  // measure 80
2100
0000
0000
0000
0000
0000
0010
0000
0000
0000
0000
3001
,  // measure 81
0000
0000
0000
0000
,  // measure 82
1001
0001
0100
0010
,  // measure 83
1010
1000
0010
0100
,  // measure 84
0101
0000
0000
0011
0000
0000
0001
0000
,  // measure 85
1100
0000
0000
1010
0000
0000
0100
0000
,  // measure 86
2002
0000
0000
3003
,  // measure 87
0001
0000
0100
0000
0010
1000
0010
1000
,  // measure 88
0010
0000
0100
0000
0001
0010
0100
0000
,  // measure 89
0010
0000
0001
0000
1000
0100
0010
0000
,  // measure 90
0100
1000
0001
0100
,  // measure 91
0010
1000
0010
0100
0010
1000
0010
0100
,  // measure 92
0001
0000
1000
0000
0100
0010
0001
0000
,  // measure 93
0010
0000
0001
0000
0100
0010
1000
0000
,  // measure 94
0001
0000
1000
0001
0000
0010
0100
1000
,  // measure 95
0001
0100
0010
0100
0001
0100
0010
0100
,  // measure 96
0002
0000
0000
0000
,  // measure 97
0000
0000
0000
0000
,  // measure 98
0000
0000
0000
0000
,  // measure 99
0003
0000
0000
1100
0000
0000
0000
0000
,  // measure 100
0000
0200
0000
0000
0000
0000
0000
0000
0000
0000
0020
0000
,  // measure 101
0000
0000
0000
0000
0300
0000
0031
0000
0000
0100
0000
0010
,  // measure 102
0000
1000
0000
0001
0000
0000
0010
0000
0000
0200
0000
0000
,  // measure 103
0000
0000
0000
0000
,  // measure 104
0300
0000
2002
0000
,  // measure 105
0000
0000
3003
0000
;

//---------------dance-single - ----------------
#NOTEDATA:;
#CHARTNAME:;
#STEPSTYPE:dance-single;
#DESCRIPTION:;
#CHARTSTYLE:;
#DIFFICULTY:Hard;
#METER:15;
#RADARVALUES:0.627338,0.827964,0.401596,0.357944,0.213893,503.000000,457.000000,46.000000,41.000000,0.000000,0.000000,1.000000,0.000000,0.000000,0.627338,0.827964,0.401596,0.357944,0.213893,503.000000,457.000000,46.000000,41.000000,0.000000,0.000000,1.000000,0.000000,0.000000;
#CREDIT:Pandemonium X;
#NOTES:
// measure 0
0000
0000
0000
0000
,  // measure 1
0000
0000
0000
0000
,  // measure 2
0000
0000
0000
0000
,  // measure 3
0000
0000
0000
0000
,  // measure 4
0000
0000
0000
0000
,  // measure 5
0000
0000
0000
0000
,  // measure 6
0000
0000
0000
0000
,  // measure 7
0000
0000
0000
0000
,  // measure 8
0101
0110
0010
0000
,  // measure 9
1100
0110
0010
0000
,  // measure 10
0400
0000
0000
0000
0000
0000
0310
0001
,  // measure 11
0000
0001
0000
0001
1000
0010
1000
0000
,  // measure 12
1001
1100
0010
0000
,  // measure 13
0110
0011
1000
0000
,  // measure 14
0001
0100
1000
0100
,  // measure 15
0001
0000
0100
0000
0001
0000
0100
0000
0010
0000
2000
3000
0100
0000
2000
3000
,  // measure 16
0001
0010
0001
0010
0001
0010
0010
0000
,  // measure 17
0100
1000
0100
1000
0100
1000
1000
0000
,  // measure 18
0001
1000
0001
1000
0000
0010
0000
0100
,  // measure 19
0001
0100
0010
0100
0001
0010
0100
0010
,  // measure 20
0001
1000
0001
1000
0001
0100
0100
0000
,  // measure 21
0010
1000
0010
1000
0010
1000
1000
0000
,  // measure 22
0001
1000
0000
0100
0000
0010
0100
1000
,  // measure 23
0001
0010
0100
0010
0001
0010
0100
1100
,  // measure 24
0000
1000
0100
0010
0000
0011
0000
1010
,  // measure 25
0000
1000
0100
0010
0000
0011
0000
1001
,  // measure 26
0000
0001
0100
0110
0000
0010
1000
1100
,  // measure 27
0000
0100
0010
0110
0000
1001
0000
0000
,  // measure 28
0000
0002
0203
2300
,  // measure 29
3020
0032
2003
0002
,  // measure 30
0000
0000
3003
0000
1002
2000
0000
0000
,  // measure 31
0000
0000
0000
3003
,  // measure 32
0001
0100
0001
0100
0010
1000
0010
1000
,  // measure 33
0001
1000
0001
1000
0001
0010
0100
1000
,  // measure 34
0010
0100
0010
0100
0001
1000
0001
1000
,  // measure 35
0001
0010
0001
0010
0100
1000
0010
0100
,  // measure 36
0001
0100
0010
0000
0100
0001
0010
0000
,  // measure 37
0100
1000
0010
0000
0100
0010
1000
0000
,  // measure 38
0001
0010
0100
1000
0100
0010
0100
1000
,  // measure 39
0001
1001
0000
0110
0000
0011
0000
0101
,  // measure 40
0001
0100
0000
0010
1000
0000
0010
0100
,  // measure 41
0001
1000
0000
1000
0100
0000
0010
0001
,  // measure 42
0000
0100
0000
0010
1000
0000
0001
1000
,  // measure 43
0000
0000
0000
0100
0000
0000
0000
0000
0000
0010
0000
0000
0100
0000
0000
0000
1000
0000
0000
0000
0001
0000
0000
0000
,  // measure 44
0200
0000
0301
0020
0000
0100
0130
0000
,  // measure 45
0020
0000
0130
2000
0000
0001
3001
0000
,  // measure 46
1000
0010
0000
0101
0000
1000
0100
0010
,  // measure 47
0001
0000
0000
0000
0022
0000
0000
0033
,  // measure 48
2002
0000
0000
0000
0000
0000
0000
0000
0000
0000
3003
0000
0000
0000
0000
0000
0000
0000
0000
0000
0000
0000
0000
0000
0000
0000
0000
0000
0000
0000
0000
0000
0000
0000
0000
0000
0000
0000
0000
0000
0000
0000
0000
0000
0000
0000
0000
0000
0000
0000
0000
0000
0000
0000
0000
0000
0000
0000
0000
0000
0000
0000
0000
0000
0000
0000
0000
0000
0000
0000
0000
0000
1000
0000
0000
0000
0000
0000
0000
0000
0000
0000
0000
0000
0000
0000
0000
0000
0000
0000
0000
0000
0000
0000
0000
0000
0000
0000
0000
0000
0000
0000
0000
0000
0000
0000
0000
0000
0000
0000
0000
0000
0000
0000
0000
0000
0000
0000
0000
0000
0000
0000
0000
0000
0000
0000
0000
0000
0000
0000
0000
0000
0000
0000
0000
0000
0000
0000
0000
0000
0000
0000
0000
0000
0010
0000
0000
0000
0000
0000
0000
0000
0000
0000
0000
0000
0000
0000
0000
0000
0000
0000
0000
0000
0000
0000
0000
0000
0000
0000
0000
0000
0000
0000
0000
0000
0000
0000
0000
0000
0000
0000
0000
0000
0000
0000
0000
0000
0000
0000
0000
0000
,  // measure 49
0000
1000
0000
0000
0001
0000
1000
0000
,  // measure 50
0201
0000
0000
0001
0000
0000
0310
0000
,  // measure 51
0000
1000
0000
0000
1001
1001
0000
0000
,  // measure 52
0001
0000
0100
0010
1000
0000
0100
0000
,  // measure 53
0010
0100
1000
0000
0010
0000
0100
0001
,  // measure 54
0010
0000
0100
0000
0010
0001
1000
0000
,  // measure 55
0010
0000
0100
0000
0010
1000
0010
0100
,  // measure 56
0000
0000
0000
0000
0000
0000
0010
0000
0000
0100
0000
0000
0001
0000
0000
1000
0000
0000
0100
0000
0000
0000
0100
0000
,  // measure 57
0000
0000
0000
0000
0100
0000
0000
0000
0000
0000
0000
0000
0100
0000
0000
0000
0000
0000
0000
0000
0100
0000
0000
0000
0000
0000
0000
0000
0000
0000
0100
0000
0000
0000
0000
0000
0000
0000
0000
0100
0000
0000
0000
0000
0000
0000
0000
0000
,  // measure 58
0200
0000
0000
0000
,  // measure 59
1300
0000
0010
0000
0100
0010
0100
0000
,  // measure 60
1001
0000
0001
0000
0010
0100
1000
0000
,  // measure 61
0010
0000
0100
0000
0010
0100
0001
0000
,  // measure 62
1000
0000
0001
0000
1000
0100
1000
0001
,  // measure 63
0000
0000
0000
1000
,  // measure 64
0202
0000
0303
1000
,  // measure 65
2200
0000
3300
1000
,  // measure 66
0001
0000
0010
0100
1000
0000
0100
1000
,  // measure 67
0010
0000
0100
0010
0000
0010
0100
0000
0000
0001
0000
1000
,  // measure 68
0020
0000
0000
0000
,  // measure 69
1030
1000
0001
0001
,  // measure 70
1000
0000
0010
1000
0000
0010
0000
0000
1000
0000
0000
0010
,  // measure 71
0000
0000
1000
0010
0000
1000
0000
0000
0010
0000
0000
0000
,  // measure 72
0010
1001
0001
0011
,  // measure 73
0010
0000
0100
0000
0000
1100
0000
0000
0000
0000
0000
0000
,  // measure 74
0001
0000
0100
0001
0000
0100
0000
0000
0001
0000
0000
0100
,  // measure 75
0000
0000
0001
0100
0000
0001
0000
0000
0100
0000
0000
0000
,  // measure 76
0010
1010
1000
1001
,  // measure 77
0010
0000
0100
0000
0000
1001
0000
0000
0000
0000
0000
0000
,  // measure 78
0201
0000
0000
0000
0000
0000
0010
0000
0000
0000
0000
0301
,  // measure 79
0000
0000
0000
0100
0000
0010
0000
0000
1000
0001
0000
0000
,  // measure 80
2100
0000
0000
0000
0000
0000
0010
0000
0000
0000
0000
3100
,  // measure 81
0000
0000
0000
1000
0000
0100
0000
0000
0010
0001
0000
0000
,  // measure 82
2001
0010
0010
3010
,  // measure 83
1002
0100
0100
0103
,  // measure 84
0021
0000
0000
0000
0000
1000
0000
0000
0000
0031
0000
0000
,  // measure 85
0201
0000
0000
0000
0000
1000
0000
0000
0000
0301
0000
0000
,  // measure 86
2002
0000
0000
3003
,  // measure 87
0001
0000
0100
0000
0010
0100
0001
1000
,  // measure 88
0001
0010
0001
0010
0001
1000
1000
0000
,  // measure 89
0001
0100
0001
0100
0001
0010
0010
0000
,  // measure 90
0100
1000
0100
0010
0000
0100
0000
1000
,  // measure 91
0001
0010
0100
0010
0001
0100
0001
1000
,  // measure 92
0001
0010
0001
0010
0001
0100
0100
0000
,  // measure 93
0010
1000
0010
1000
0010
0100
0100
0000
,  // measure 94
0010
1000
0001
0010
0000
0100
0010
0001
,  // measure 95
1000
0100
0010
0100
1000
0001
0100
0010
,  // measure 96
2000
0000
0000
3001
0010
0100
0010
0001
,  // measure 97
1000
0000
0010
0000
0100
0000
0001
0000
1000
0000
0100
0000
,  // measure 98
0000
0020
0000
0000
,  // measure 99
0000
0000
0000
0000
0000
0000
0031
1000
0001
0000
0000
0000
0000
0000
0000
0000
,  // measure 100
0000
0000
0201
0000
0000
0000
0000
0000
0000
0000
0320
0000
,  // measure 101
0000
0000
0000
0000
0000
0000
1030
0000
0100
0000
0010
0000
,  // measure 102
0100
0000
1000
0000
0001
0000
0100
0000
0000
0020
0000
0000
,  // measure 103
0000
0000
0000
0000
,  // measure 104
0000
0030
2002
0000
,  // measure 105
0000
0000
0003
3000
0000
0000
0000
0000
;

//---------------dance-single - ----------------
#NOTEDATA:;
#CHARTNAME:;
#STEPSTYPE:dance-single;
#DESCRIPTION:;
#CHARTSTYLE:;
#DIFFICULTY:Beginner;
#METER:5;
#RADARVALUES:0.144674,0.319312,0.078573,0.000000,0.000000,116.000000,107.000000,9.000000,0.000000,0.000000,0.000000,0.000000,0.000000,0.000000,0.144674,0.319312,0.078573,0.000000,0.000000,116.000000,107.000000,9.000000,0.000000,0.000000,0.000000,0.000000,0.000000,0.000000;
#CREDIT:Pandemonium X;
#NOTES:
// measure 0
0000
0000
0000
0000
,  // measure 1
0000
0000
0000
0000
,  // measure 2
0000
0000
0000
0000
,  // measure 3
0000
0000
0000
0000
,  // measure 4
0000
0000
0000
0000
,  // measure 5
0000
0000
0000
0000
,  // measure 6
0000
0000
0000
0000
,  // measure 7
0000
0000
0000
0000
,  // measure 8
0001
0000
0000
0000
,  // measure 9
1000
0000
0000
0000
,  // measure 10
0000
0000
0000
0010
,  // measure 11
0000
0000
0000
0000
,  // measure 12
0100
0000
0000
0000
,  // measure 13
0001
0000
0000
0000
,  // measure 14
1000
0000
0001
0000
,  // measure 15
1000
1000
1000
0000
,  // measure 16
0010
0000
0000
0000
,  // measure 17
0100
0000
0000
0000
,  // measure 18
0001
0000
0000
0000
,  // measure 19
0010
0000
0100
0000
,  // measure 20
0010
0000
0000
0000
,  // measure 21
0001
0000
0000
0000
,  // measure 22
1000
0000
0010
0000
,  // measure 23
1000
0000
0000
0000
0000
0000
0000
0001
,  // measure 24
0000
0000
0000
0000
0000
0000
0000
1000
,  // measure 25
0000
0000
0000
0000
0000
0000
0000
0001
,  // measure 26
0000
0000
0000
1000
0000
0000
0000
0001
,  // measure 27
0000
0000
0000
1000
0000
1000
0000
0000
,  // measure 28
0000
0000
0000
0000
,  // measure 29
0000
0000
0000
0000
,  // measure 30
0000
0000
0110
0000
,  // measure 31
0000
0000
0000
0000
,  // measure 32
1000
0000
0000
0000
,  // measure 33
0001
0000
0000
0000
,  // measure 34
0010
0000
0000
0000
,  // measure 35
0100
0000
0000
0000
,  // measure 36
0010
0000
0000
0000
,  // measure 37
0001
0000
0000
0000
,  // measure 38
0100
0000
0000
0000
,  // measure 39
0010
0000
0000
0000
,  // measure 40
1000
0000
0000
0000
,  // measure 41
0100
0000
0000
0000
,  // measure 42
1000
0000
0001
0000
,  // measure 43
0100
0000
0010
0000
,  // measure 44
0100
0000
0000
0000
,  // measure 45
0010
0000
0000
0000
,  // measure 46
1000
0000
0000
0000
,  // measure 47
0000
0000
1001
0000
,  // measure 48
0000
0000
0000
0000
,  // measure 49
0000
0000
0000
0000
,  // measure 50
0000
0000
0000
0000
,  // measure 51
0000
0000
0110
0000
,  // measure 52
0001
0000
0000
0000
,  // measure 53
0000
0000
1000
0000
,  // measure 54
0100
0000
0000
0000
,  // measure 55
0000
0000
0010
0000
,  // measure 56
0001
0000
0000
0000
,  // measure 57
0000
0000
0100
0000
,  // measure 58
0010
0000
0000
0000
,  // measure 59
0000
0000
0100
0000
,  // measure 60
0001
0000
0000
0000
,  // measure 61
0000
0000
1000
0000
,  // measure 62
0100
0000
0000
0000
,  // measure 63
0000
0000
0010
0000
,  // measure 64
0001
0000
0000
0000
,  // measure 65
0010
0000
0000
0000
,  // measure 66
0100
0000
1000
0000
,  // measure 67
0010
0000
0100
0000
,  // measure 68
1001
0000
0000
0000
,  // measure 69
0001
0001
1000
1000
,  // measure 70
0001
0000
0000
0000
,  // measure 71
0100
0000
0000
0000
,  // measure 72
0010
0000
1000
0000
,  // measure 73
0100
0000
0000
0000
,  // measure 74
0010
0000
0000
0000
,  // measure 75
0100
0000
0000
0000
,  // measure 76
1000
0000
0001
0000
,  // measure 77
1000
0000
0000
0000
,  // measure 78
0110
0000
0000
0000
,  // measure 79
0000
0000
0000
0000
,  // measure 80
1001
0000
0000
0000
,  // measure 81
0000
0000
0000
0000
,  // measure 82
0100
0000
0000
0000
,  // measure 83
0010
0000
0000
0000
,  // measure 84
0001
0000
0000
0000
,  // measure 85
1000
0000
0000
0000
,  // measure 86
0110
0000
0000
0000
,  // measure 87
0100
0000
0010
0000
,  // measure 88
1000
0000
0000
0000
,  // measure 89
0001
0000
0000
0000
,  // measure 90
0010
0000
0000
0000
,  // measure 91
0100
0100
0100
0000
,  // measure 92
0010
0000
0000
0000
,  // measure 93
0001
0000
0000
0000
,  // measure 94
1000
0000
0000
0000
,  // measure 95
0010
0010
0010
0000
,  // measure 96
1001
0000
0000
0000
,  // measure 97
0000
0000
0000
0000
,  // measure 98
0000
0000
0000
0000
,  // measure 99
0000
0100
0000
0000
,  // measure 100
0000
0010
0000
0000
,  // measure 101
0100
0000
0000
0000
,  // measure 102
0000
0000
0000
0000
,  // measure 103
0001
0000
0000
0000
,  // measure 104
0000
0000
1001
0000
;
