#TITLE:Captain Cowbell;
#SUBTITLE:;
#ARTIST:lapix;
#TITLETRANSLIT:;
#SUBTITLETRANSLIT:;
#ARTISTTRANSLIT:;
#GENRE:;
#CREDIT:;
#BANNER:Captain Cowbell.png;
#BACKGROUND:Captain Cowbell-bg.png;
#LYRICSPATH:;
#CDTITLE:;
#MUSIC:Captain Cowbell.ogg;
#OFFSET:-0.030141;
#SAMPLESTART:60.655006;
#SAMPLELENGTH:15.000000;
#SELECTABLE:YES;
#BPMS:0.000000=190.000000
,14.000000=95.000000
,15.000000=190.000000
,45.000000=95.000000
,46.000000=190.000000
,192.000000=95.000000
,193.500000=190.000000
,236.000000=95.000000
,237.500000=190.000000
;
#STOPS:190.000000=0.157894,
190.500000=0.157894,
191.000000=0.157894,
191.500000=0.157894,
193.500000=0.157894,
234.000000=0.157890,
234.500000=0.157890,
235.000000=0.157890,
235.500000=0.157890,
237.500000=0.157898
;
#BGCHANGES:;
#KEYSOUNDS:;
#ATTACKS:;

//---------------dance-single - ----------------
#NOTES:
     dance-single:
     :
     Hard:
     16:
     0.808707,1.046595,0.634873,0.219182,0.200287,749.000000,665.000000,84.000000,29.000000,3.000000,0.000000,0.808707,1.046595,0.634873,0.219182,0.200287,749.000000,665.000000,84.000000,29.000000,3.000000,0.000000:
0000
0000
0000
0000
,
0000
0000
0000
0000
,
0000
0000
0000
0000
,
0000
0000
0000
0000
0000
0000
1000
0100
,
0010
0100
1000
0100
0001
0100
1000
0010
,
0100
0010
1000
0010
0001
0010
1000
0100
,
1000
0010
0100
0001
0100
0010
1000
0000
,
1100
0000
1001
0000
0101
0000
0001
0010
,
0011
0000
0001
0011
0000
0010
0001
1000
,
1010
0000
0010
1010
0000
0010
0100
0001
,
0011
0000
0010
0011
0000
0001
0100
1000
,
0100
0000
001M
0000
1000
0001
1000
0001
1000
0000
0010
0000
0110
0000
0010
0000
,
0100
0110
0100
0001
1000
0100
1100
0100
,
0010
0011
0010
0001
1000
0010
1000
0010
,
0100
0001
0100
0001
0010
0000
0011
0000
,
1001
0000
1010
0000
0010
0100
0001
0100
,
0010
0000
1000
0001
1000
0000
0100
0000
0000
0000
0100
0000
1000
0000
0100
0000
,
0010
0001
0010
0100
0010
0001
1000
0010
,
0100
0000
0001
1000
0001
0000
0010
0000
0000
0000
0010
0000
0100
0000
1000
0000
,
1001
0100
1001
0001
0010
0100
1000
0100
,
0010
0000
0001
1000
0001
0000
0100
0000
0000
0000
0100
0000
0001
0000
0100
0000
,
0010
1000
0010
0100
0010
1000
0001
0010
,
0100
0000
1000
0001
1000
0000
0010
0000
0000
0000
0010
0000
1000
0000
0001
0000
,
0110
1000
0110
0001
1000
0200
0310
0000
,
0001
0200
0310
0100
0001
0200
0310
0000
,
1000
0200
0310
0100
1000
1000
0001
0001
,
0100
0000
0001
1000
0001
0000
0010
0000
0000
0000
0010
0000
0100
0000
0010
0000
,
1001
0000
1000
0000
0001
0010
0001
0010
0001
0000
0001
0000
0010
0000
0100
0000
,
1000
1000
0100
0010
0100
0100
1000
0001
,
0010
0010
0001
0100
0110
0000
1001
0000
,
1000
0010
0100
0001
0010
0100
0100
0010
,
0001
1000
0010
0100
0010
0000
0010
0000
,
0010
0000
0010
0000
0010
0010
0000
0010
,
0000
0010
1000
0010
0110
0000
0010
0000
,
0010
0000
0010
0000
0010
0010
0000
0010
,
0000
0010
0100
0010
1010
0000
0011
0000
,
0010
0000
0110
0000
0010
0010
0001
0010
,
0000
0010
0100
0010
0011
0000
0110
0000
,
1010
0000
0110
0000
0010
0001
0010
1000
,
0010
0100
0110
0000
1002
0000
0103
0000
,
0102
0013
0012
1003
,
1100
1010
2001
3100
,
2100
3010
2010
3001
,
0101
0000
0011
0000
0001
0010
0100
0001
,
0100
0010
0100
0000
1000
0000
0001
0000
1000
0000
0010
0000
0100
0000
1000
0000
,
0100
0010
0100
0000
0001
0000
1000
0000
0001
0000
0001
0000
0010
0000
0010
0000
,
0100
0000
0100
0000
1000
0100
1000
0100
0020
0000
0130
0000
0200
0000
0310
0000
,
0020
0130
0200
M310
0011
1100
0011
1100
,
1000
0001
0000
0001
0200
0000
0310
0000
0100
0000
0001
0000
0100
0000
0010
0000
,
0100
1000
0100
0010
0100
0001
0100
1000
,
0100
0010
0020
0000
0130
0001
1000
1010
,
0000
1010
0010
1000
1100
0100
0010
0011
,
0000
0010
0200
0000
0310
0001
0010
0100
,
0010
1000
0010
0100
0010
0001
0010
1000
,
0020
0230
0320
0130
0110
0010
0001
0011
,
0000
0011
0001
0100
0110
0010
1000
1010
,
0000
1000
0001
0001
0100
0001
0100
0010
,
0100
1000
0100
0001
0010
0001
0010
1000
,
0010
0100
0200
000M
1300
0101
0011
1010
,
1000
0001
0000
0001
0020
0000
0130
0000
1000
0001
1000
0001
1000
0001
1000
0001
,
1000
0001
1000
0001
1000
0001
1000
0001
0100
0000
0001
0000
0010
0000
0001
0000
,
1000
0100
1000
0010
0100
0001
0100
0010
,
0100
0001
0100
0010
0100
0100
0001
1001
,
0000
1001
0001
0010
0100
1000
0100
0010
,
0100
1000
0100
0010
0100
0100
1000
1001
,
0000
1001
1000
0010
0100
0001
0100
1000
,
0100
0001
0010
0100
1000
1000
0100
0011
,
0000
0011
0001
0010
0100
1000
0100
0001
,
0100
1000
0010
0100
0001
0001
0011
0010
,
0100
0100
1100
1000
0001
0200
0301
0000
,
1000
0200
1300
0010
1000
0200
1300
0000
,
0001
0200
0301
0010
0001
1000
0010
0100
,
0010
1000
0001
0010
0100
0200
0300
0100
,
1000
0001
1001
0000
1010
0000
0101
0000
,
1100
0000
0011
0000
2000
0001
0000
0001
,
3000
0001
1000
0010
0110
0000
1001
0000
,
0110
0000
1001
0000
1000
0100
0010
0001
,
0101
0000
0000
0000
1001
0000
0000
0000
1000
0000
0001
0010
0000
0001
0010
0000
,
0100
0000
1000
0000
0010
0000
0100
0000
0001
0000
1000
0010
0000
1000
0010
0000
,
0100
0000
0001
0000
0010
0000
0100
0000
1000
0000
0001
0010
0000
0001
0010
0000
,
0100
0000
1000
0000
0001
0000
0100
0000
0010
0000
1000
0001
0000
0001
1000
0000
,
0100
0000
1000
0000
0001
1000
0001
0000
0100
0000
0010
1000
0000
0010
0100
0000
,
0001
0000
0010
0000
0100
0000
1000
0000
0100
0000
0010
0001
0000
0010
0100
0000
,
1000
0000
0010
0000
0100
0000
0001
0000
0100
0000
0010
1000
0000
0001
0010
0000
,
0001
0000
1000
0000
0100
0000
0010
0000
0001
0000
1000
0010
0000
0010
0100
0000
,
0010
0000
1000
0000
0001
1000
0001
0000
0010
0000
0001
0000
1100
0000
0000
0000
,
0001
0010
1100
0000
1000
0010
0101
0000
,
0010
0000
1000
0000
0101
0000
0000
0000
0001
0000
0100
0010
0000
0100
0010
0000
,
1000
0000
0010
0000
0100
0000
0001
0000
1000
0000
0100
0010
0000
0010
0100
0000
,
1000
0100
1000
0000
0001
0010
0001
0000
1000
0000
1000
0000
0010
0000
0100
0000
,
0001
0001
0100
0010
0100
0100
0001
1000
,
0010
0010
1000
0001
1000
0000
1100
0000
,
1001
0000
0000
0000
0101
0000
0000
0000
0001
0000
1000
0010
1000
0000
0001
0000
,
0010
0001
0010
0000
0001
0010
0100
1000
0002
0000
0000
0000
0000
0000
0000
0000
,
0000
0000
0000
0000
,
0000
0000
0003
0000
;

//---------------dance-single - ----------------
#NOTES:
     dance-single:
     :
     Medium:
     12:
     0.529061,0.721790,0.634873,0.324994,0.015116,490.000000,406.000000,84.000000,43.000000,3.000000,0.000000,0.529061,0.721790,0.634873,0.324994,0.015116,490.000000,406.000000,84.000000,43.000000,3.000000,0.000000:
0000
0000
0000
0000
,
0000
0000
0000
0000
,
0000
0000
0000
0000
,
0000
0000
0000
0001
,
1100
0010
1001
0100
,
0011
1000
0101
0010
,
1100
0001
0110
1000
,
0011
0000
0200
0300
0200
0300
2000
0000
,
3010
0000
2000
3010
0000
0000
0200
0000
,
0310
0000
0200
0310
0000
0000
0200
0000
,
0301
0000
0200
0301
0000
0000
1000
0001
,
1000
000M
0100
0100
0010
0000
0011
0000
,
0001
0011
1000
1100
,
0100
1100
2000
3020
,
0230
0000
0302
0000
0103
0010
0100
0010
,
1000
1001
0001
0100
,
0110
0000
0100
0001
0000
0001
0010
0000
,
0110
1001
1000
0100
,
0110
0000
0100
1000
0000
1000
0001
1000
,
0010
0100
0010
0000
1000
0000
0010
0000
,
0101
0000
0100
0001
0000
0001
0010
0000
,
0110
1001
0001
0010
,
1100
0000
0100
1000
0000
1000
0010
0000
,
0100
0010
0100
0010
1000
0000
0101
0000
,
0010
1001
0100
1010
,
0001
1100
0100
0010
,
1001
0000
0001
0010
0000
1000
0010
0000
,
0100
1000
0010
1000
,
0100
0010
0001
0100
,
0010
1000
0010
0100
,
0001
0010
0100
0100
,
0200
0310
2002
0000
,
0000
0000
0000
0000
,
3003
1001
0110
0000
,
0000
0000
0000
0000
,
0000
1100
0012
0000
,
2003
0000
3020
0000
,
1030
0101
2010
0000
,
3002
0000
0023
0000
,
0031
1100
1002
0103
,
2001
3100
1002
0103
,
1010
0011
0120
0031
,
0210
1300
0120
0031
,
0011
0000
1010
0000
0010
1000
0010
0000
,
0100
0001
0100
0000
0001
0010
0001
0000
,
1000
0100
1000
0000
0001
1000
0100
0000
,
1000
0001
0100
0000
0010
0100
0010
0100
,
0010
0100
0010
M000
0101
1001
1100
1001
,
0001
0100
0000
0100
0020
0000
0030
0000
1000
0000
0010
0000
0000
0000
0101
0000
,
0000
1010
0000
1100
0000
1010
0000
0101
,
0000
0100
0010
0000
1000
0000
1000
0100
,
0000
0100
1000
0000
0001
0000
0001
0010
,
0000
0010
0002
0000
0013
0001
0000
0011
,
0000
0101
0000
1100
0000
0101
0000
0011
,
0000
0010
0100
0000
1000
0000
0010
0100
,
0000
0100
0001
0000
0001
0000
0010
0100
,
0000
0100
2000
0000
3001
1000
0000
1010
,
0000
0101
0000
0011
0000
1100
0000
1010
,
0000
0010
0200
M000
0301
0011
1010
0011
,
1000
0100
0000
0100
0020
0000
0030
0000
0010
0000
0100
0000
0010
0000
0100
0000
,
0010
0100
0010
0100
1000
0000
0100
0000
,
0001
0110
1000
0100
,
0010
0000
0001
0000
0010
0010
0000
0100
,
0000
1000
0000
1000
0001
0000
0100
0000
,
0010
0000
1000
0000
0010
0010
0000
0100
,
0000
0100
0001
0000
1000
0000
0100
0000
,
0001
0000
0100
0000
1000
1000
0000
0100
,
0000
0010
0000
0010
0001
0000
0100
0000
,
1000
0000
0100
0000
0001
0001
0000
0100
,
0000
0100
0010
0000
1000
0000
1100
0000
,
0001
1100
0010
0101
,
1000
0000
0101
0000
1000
0100
0010
0000
,
0010
0100
1000
0000
0001
0100
0010
0100
,
0000
1001
0001
0010
,
0100
1000
0100
0000
1000
0000
0010
0000
,
0100
0001
0100
0000
0010
1000
0001
0000
,
0010
0001
1000
0000
0220
0000
0330
0000
,
1001
0000
1001
0000
1000
0000
0100
0010
,
0100
0000
1000
0000
0001
0100
0010
0100
,
0010
0000
1000
0000
0001
0000
0010
0100
,
0010
0001
1000
1100
,
0001
0000
0101
0000
0001
0000
0100
0010
,
0100
0000
0001
0000
1000
0100
0010
0100
,
0010
0000
0001
0000
1000
0000
0010
0100
,
0010
1000
0001
0101
,
1000
1100
0010
0101
,
1000
0110
0001
1010
,
0100
0000
0011
0000
1000
0000
0001
0100
,
0001
0000
0010
0000
0001
1000
0100
1000
,
0100
0010
0200
2300
,
3100
0110
0002
0203
,
0301
0110
2000
3200
,
0302
0000
0023
0000
1030
0000
1000
0010
,
0100
0001
1000
0000
0200
0000
0000
0000
,
0000
0000
0000
0000
,
0000
0000
0300
0000
;

//---------------dance-single - ----------------
#NOTES:
     dance-single:
     :
     Easy:
     9:
     0.354147,0.541342,0.143602,0.204066,0.015116,328.000000,309.000000,19.000000,27.000000,0.000000,0.000000,0.354147,0.541342,0.143602,0.204066,0.015116,328.000000,309.000000,19.000000,27.000000,0.000000,0.000000:
0000
0000
0000
0000
,
0000
0000
0000
0000
,
0000
0000
0000
0000
,
0000
0000
0000
1000
,
0100
1000
0000
0100
,
0010
0100
0000
0010
,
0001
0010
0000
0001
,
0001
1000
1000
0001
,
0100
0001
0000
0100
,
0010
0100
0000
0010
,
1000
0010
0000
1000
,
0001
0000
0100
0100
0001
0000
1000
0000
,
0100
0010
0001
1000
,
0010
0100
0001
0010
,
0100
1000
0010
0010
,
0020
0030
1000
0010
,
0100
0001
0001
0100
,
0010
1000
1000
0010
,
0100
0001
0010
0010
,
0100
0100
1000
0100
,
0010
0001
0001
0010
,
0100
1000
1000
0100
,
0010
0001
0100
0100
,
0010
0010
2000
3001
,
0002
2003
3002
1003
,
2000
3002
1003
0100
,
0010
0100
0001
0100
,
0010
0010
0001
0000
,
0001
0100
1000
0000
,
1000
0100
0001
0000
,
0001
0010
1000
0010
,
0100
0010
2002
0000
,
0000
0000
0000
0000
,
3003
1001
0202
0000
,
0000
0000
0000
0000
,
0303
0101
2200
0000
,
0000
0000
0000
0000
,
3300
1100
0220
0000
,
0000
0000
0000
0000
,
0330
0110
1001
0000
,
1001
0000
0101
0000
,
0101
0010
1001
0000
,
1001
0000
1100
0000
,
1100
0010
1001
1000
,
0100
0010
1001
0001
,
0100
0010
1000
1000
,
0001
0001
0010
0010
,
0010
0000
0010
0000
0100
1000
0001
0100
,
0100
0010
0000
0020
0000
0000
0030
0000
0100
0000
0000
0000
0001
0000
0000
0000
,
1000
0100
1000
0001
,
0100
0000
0010
0000
1000
0000
0000
1000
,
0000
0000
0000
0000
0001
0000
0000
0001
,
0000
0000
0010
0001
,
1000
0010
1000
0001
,
0010
0000
0001
0000
0100
0000
0000
0100
,
0000
0000
0000
0000
0010
0000
0000
0010
,
0000
0000
0100
0001
,
1000
0100
1000
0001
,
0100
0000
0010
0000
1000
1000
1000
1000
,
0100
0010
0000
0020
0000
0000
0030
0000
0001
0000
1000
0000
0001
0000
1000
0000
,
0001
1000
0001
0000
0200
0000
0300
0000
,
0020
0030
1000
0100
,
0010
0000
0100
0000
1000
0000
0000
0100
,
0000
1000
0000
0000
0001
0000
0100
0000
,
0010
0000
0100
0000
0001
0000
0000
0100
,
0000
0001
1000
0010
,
0100
0000
0001
0000
1000
0000
0000
0010
,
0000
1000
0000
0000
0001
0000
0010
0000
,
0100
0000
1000
0000
0001
0000
0000
0010
,
0000
0001
1000
0100
,
1000
1000
0001
0100
,
0001
0001
1000
0100
,
0010
0000
0001
0000
1000
0000
0000
0010
,
0000
0010
1000
0001
,
0200
0300
0001
1000
,
0200
0300
1000
0001
,
0100
0010
2000
0000
,
3001
0001
1000
0100
,
1000
0100
0010
0100
,
0010
0100
0010
0001
,
0010
0001
1000
0010
,
0200
0300
0001
0100
,
0001
0100
0010
0100
,
0010
0100
0010
1000
,
0010
1000
0001
0010
,
0200
0300
1000
0100
,
0100
1000
0001
0100
,
0100
0001
1000
0100
,
0001
0100
1000
0001
,
2002
3003
0001
0100
,
0010
1000
1000
0100
,
0010
0001
0001
0010
,
1000
0010
0001
0100
,
0010
1000
0002
0000
,
0000
0000
0000
0000
,
0000
0000
0003
0000
;

//---------------dance-single - ----------------
#NOTES:
     dance-single:
     :
     Beginner:
     4:
     0.159798,0.318003,0.098254,0.022674,0.000000,148.000000,135.000000,13.000000,3.000000,0.000000,0.000000,0.159798,0.318003,0.098254,0.022674,0.000000,148.000000,135.000000,13.000000,3.000000,0.000000,0.000000:
0000
0000
0000
0000
,
0000
0000
0000
0000
,
0000
0000
0000
0000
,
0000
0000
0000
1000
,
0000
0000
0000
1000
,
0000
0000
0000
0001
,
0000
0000
0000
0001
,
0000
0001
0000
0100
,
0000
0000
0000
0100
,
0000
0000
0000
0010
,
0000
0000
0000
0010
,
0000
0000
1000
0000
,
0000
0000
0001
0000
,
0000
0000
1000
0000
,
0100
0000
0010
0000
,
0001
0000
1000
0000
,
0000
0000
1000
0000
,
0000
0000
0001
0000
,
0000
0000
0001
0000
,
0000
0000
0100
0000
,
0000
0000
0100
0000
,
0000
0000
0010
0000
,
0000
0000
0010
0000
,
0000
0000
1000
0000
,
0001
0000
1000
1000
,
1000
0000
0001
0000
,
0000
0000
0001
0000
,
0000
0000
0010
0000
,
0000
0000
0010
0000
,
0000
0000
0100
0000
,
0000
0000
0100
0000
,
0000
0000
1001
0000
,
0000
0000
0000
0000
,
0000
0000
0110
0000
,
0000
0000
0000
0000
,
0000
0000
1001
0000
,
0000
0000
0000
0000
,
0000
0000
0110
0000
,
0000
0000
0000
0000
,
0000
0000
1001
0000
,
0000
0000
1000
0000
,
0001
0000
0110
0000
,
0000
0000
0010
0000
,
0100
0000
1001
0000
,
1000
0000
0001
0000
,
0100
0000
0010
0000
,
0000
0000
0100
0000
,
0100
0000
0001
0001
,
0002
0003
1000
0100
,
1000
0100
1000
0100
,
1000
0000
0101
0000
,
0000
0000
0011
0000
,
0000
0000
0001
0100
,
0001
0100
0001
0100
,
0001
0000
1100
0000
,
0000
0000
1010
0000
,
0000
0000
1000
0100
,
1000
0100
1000
0100
,
1000
0000
0001
0001
,
0002
0003
0010
0100
,
0010
0100
0020
0000
,
0000
0030
0100
0000
,
0000
0000
1000
0000
,
0000
0000
0001
0000
,
0000
0000
0100
0000
,
0000
0000
0010
0000
,
0000
0000
1000
0000
,
0000
0000
0001
0000
,
0000
0000
0010
0000
,
0000
0000
0100
0000
,
0100
0000
0010
0000
,
0010
0000
0100
0000
,
0000
0000
0100
0000
,
0000
0000
1000
0000
,
0000
0000
0001
0000
,
0000
0000
0100
0000
,
0100
0000
0110
0000
,
0000
0000
0001
0000
,
0100
0000
0001
0000
,
0100
0000
0010
0000
,
0100
0000
0010
0000
,
0000
0000
1000
0000
,
0100
0000
1000
0000
,
0100
0000
0010
0000
,
0100
0000
0010
0000
,
0000
0000
0001
0000
,
0100
0000
0010
0000
,
0100
0000
0001
0000
,
1000
0000
0001
0000
,
0000
0000
1000
0000
,
0100
0000
0010
0000
,
0100
0000
1000
0000
,
0001
0000
1000
0000
,
0000
0000
1001
0000
;
