#TITLE:Candy Store;
#SUBTITLE:;
#ARTIST:Hyper Crush;
#TITLETRANSLIT:;
#SUBTITLETRANSLIT:;
#ARTISTTRANSLIT:;
#GENRE:ELECTROPOP;
#CREDIT:;
#BANNER:Candy Store.png;
#BACKGROUND:Candy Store-bg.png;
#LYRICSPATH:;
#CDTITLE:cdtitle.png;
#MUSIC:Candy Store.ogg;
#OFFSET:-0.016000;
#SAMPLESTART:39.044998;
#SAMPLELENGTH:15.000000;
#SELECTABLE:YES;
#BPMS:0.000000=122.986008
;
#STOPS:
;
#BGCHANGES:;
#KEYSOUNDS:;
#ATTACKS:;

//---------------dance-single - Daff_4K----------------
#NOTES:
     dance-single:
     Daff_4K:
     Beginner:
     2:
     0.125782,0.175553,0.057736,0.000000,0.000000,122.000000,114.000000,8.000000,0.000000,0.000000,0.000000,0.125782,0.175553,0.057736,0.000000,0.000000,122.000000,114.000000,8.000000,0.000000,0.000000,0.000000:
0000
0000
0000
0000
,
0000
0000
0000
0000
,
0000
0000
0000
0000
,
0000
0000
0000
0000
,
0001
0000
0010
0000
,
0001
0000
0000
0000
,
1000
0000
0010
0000
,
1000
0000
0000
0000
,
0100
0100
0100
0000
,
0010
0010
0010
0000
,
0001
0000
0001
0000
,
1000
0000
1000
0000
,
0010
0000
0100
0000
,
0001
0000
0000
0000
,
0010
0000
0100
0000
,
1000
0000
0000
0000
,
0001
0001
0001
0000
,
1000
1000
1000
0000
,
0010
0000
0100
0000
,
0010
0010
0010
0000
,
1000
0000
0100
0000
,
0001
0000
0000
0000
,
0110
0000
0000
0000
,
1001
0000
0000
0000
,
0001
0000
0100
0000
,
1000
0000
0000
0000
,
0110
0000
0000
0000
,
1001
0000
0000
0000
,
1000
1000
0000
0000
,
0001
0001
0000
0000
,
0100
0100
0000
0000
,
0010
0010
0000
0000
,
1000
0000
0000
0000
,
0100
0000
0010
0000
,
0001
0000
0000
0000
,
1000
1000
1000
0000
,
0001
0000
0000
0000
,
0100
0000
0010
0000
,
1000
0000
0000
0000
,
0001
0001
0001
0000
,
0000
1000
0000
0010
,
0000
0100
0100
0100
,
0000
0001
0000
0010
,
0000
0100
0100
0000
,
1000
0000
0001
0000
,
0100
0100
0100
0100
,
0000
0000
0000
0000
,
0000
0000
0000
0000
,
0001
0000
0000
1000
,
1000
0000
0000
0010
,
0010
0000
0000
0100
,
0100
0000
0000
0000
,
0001
0000
1000
0000
,
0100
0100
0000
0000
,
1000
0000
0010
0000
,
0001
0000
0000
0000
,
0110
0000
0000
0000
,
1001
0000
0000
0000
,
0001
0000
0010
0000
,
1000
0000
0000
0000
,
0110
0000
0000
0000
,
1001
0000
0000
0000
,
0001
0000
0100
0000
,
1000
0000
0000
0000
,
1000
0000
0010
0000
,
0001
0000
0000
0000
,
1000
0000
0100
0000
,
0001
0000
0000
0000
,
0001
0000
0010
0000
,
1000
0000
0001
0000
;

//---------------dance-single - Daff_4K----------------
#NOTES:
     dance-single:
     Daff_4K:
     Easy:
     5:
     0.226820,0.251692,0.000000,0.223727,0.000000,220.000000,220.000000,0.000000,31.000000,0.000000,0.000000,0.226820,0.251692,0.000000,0.223727,0.000000,220.000000,220.000000,0.000000,31.000000,0.000000,0.000000:
// measure 0
0000
0000
0000
0000
,  // measure 1
0000
0000
0000
0000
,  // measure 2
0000
0000
0000
0000
,  // measure 3
0000
0000
0000
0000
,  // measure 4
0001
0000
1000
0000
,  // measure 5
0010
0100
0010
0000
,  // measure 6
1000
0000
0001
0000
,  // measure 7
0010
0100
0010
0000
,  // measure 8
0001
0100
0000
0010
,  // measure 9
1000
0100
0000
0010
,  // measure 10
0001
0000
1000
0000
,  // measure 11
0010
0100
0001
0000
,  // measure 12
1000
0100
0001
0100
,  // measure 13
1000
0010
0100
0100
,  // measure 14
0001
0000
1000
0000
,  // measure 15
0100
0010
0001
1000
,  // measure 16
0001
0100
0010
0000
,  // measure 17
1000
0100
0010
0000
,  // measure 18
0001
0100
1000
0100
,  // measure 19
0001
0020
0100
0130
,  // measure 20
2000
0000
3010
0010
,  // measure 21
0100
0002
2000
3003
,  // measure 22
0001
0100
0000
0001
0100
0000
0000
0000
,  // measure 23
0010
1000
0000
0010
1000
0000
0000
0000
,  // measure 24
0002
0000
0013
0010
,  // measure 25
0100
2000
0002
3003
,  // measure 26
1000
0100
0000
1000
0100
0000
0000
0000
,  // measure 27
0010
0001
0000
0010
0001
0000
0000
0000
,  // measure 28
1000
0010
0100
0100
,  // measure 29
0001
1000
0100
0010
,  // measure 30
0001
0010
0100
0100
,  // measure 31
1000
0001
0100
0010
,  // measure 32
1000
0100
0001
0100
,  // measure 33
1000
0010
0001
0010
,  // measure 34
1000
0001
0010
0100
,  // measure 35
1000
0000
0001
0000
0100
0100
0100
0000
,  // measure 36
0001
0100
1000
0100
,  // measure 37
0001
0010
1000
0010
,  // measure 38
0001
1000
0010
0100
,  // measure 39
0001
0000
1000
0000
0100
0100
0100
0000
,  // measure 40
0010
0001
1000
0010
,  // measure 41
0100
0000
0001
0000
0010
0010
0010
0000
,  // measure 42
0100
1000
0001
0100
,  // measure 43
0010
1000
0001
0010
,  // measure 44
0010
0100
0100
1000
,  // measure 45
0010
0100
0001
0020
,  // measure 46
0200
0000
0000
0000
,  // measure 47
0000
0000
0000
0000
,  // measure 48
0330
0000
2000
0020
,  // measure 49
3030
0000
0002
0020
,  // measure 50
0033
0000
2000
3002
,  // measure 51
1003
0000
0000
0000
,  // measure 52
0100
0010
0000
0100
0010
0000
0100
0000
,  // measure 53
2000
0002
0000
3003
,  // measure 54
0002
0000
0103
0010
,  // measure 55
2000
0100
0002
3003
,  // measure 56
1000
0010
0000
1000
0010
0000
0000
0000
,  // measure 57
0001
0010
0000
0001
0010
0000
0000
0000
,  // measure 58
2000
0000
3100
0010
,  // measure 59
0002
0100
2000
3003
,  // measure 60
0001
0010
0000
0001
0010
0000
0000
0000
,  // measure 61
1000
0010
0000
1000
0010
0000
0000
0000
,  // measure 62
0002
0000
0203
0000
,  // measure 63
1300
0010
0001
0000
,  // measure 64
2000
0000
3200
0000
,  // measure 65
0301
0010
1000
0000
,  // measure 66
0200
0310
0002
1003
,  // measure 67
0001
1000
0010
0000
,  // measure 68
0200
0310
2000
3001
,  // measure 69
1000
0001
0010
0100
;

//---------------dance-single - Daff_4K----------------
#NOTES:
     dance-single:
     Daff_4K:
     Medium:
     7:
     0.328888,0.403430,0.122689,0.411368,0.000000,319.000000,302.000000,17.000000,57.000000,0.000000,0.000000,0.328888,0.403430,0.122689,0.411368,0.000000,319.000000,302.000000,17.000000,57.000000,0.000000,0.000000:
// measure 0
0000
0000
0000
0000
,  // measure 1
0000
0000
0000
0000
,  // measure 2
0000
0000
0000
0000
,  // measure 3
0000
0000
0000
0000
,  // measure 4
0020
0000
1030
0000
0100
0010
0100
0000
,  // measure 5
0001
0100
1000
0100
,  // measure 6
0020
0000
0031
0000
0100
0010
0100
0000
,  // measure 7
1000
0100
0001
0100
,  // measure 8
0010
1000
0000
1000
0100
0000
0010
0000
,  // measure 9
0001
1000
0001
0000
1000
0000
0100
0000
,  // measure 10
0010
0001
0000
0001
0100
0000
0010
0000
,  // measure 11
1000
0001
1000
0000
0001
0000
0100
0000
,  // measure 12
0001
0000
0010
0000
0100
1000
0100
0000
,  // measure 13
1000
0010
0001
0100
,  // measure 14
1000
0000
0010
0000
0100
0001
0100
0000
,  // measure 15
0001
0010
0100
1000
,  // measure 16
0002
0000
0103
0000
0010
0010
0010
0000
,  // measure 17
2000
0000
3100
0000
0010
0010
0010
0000
,  // measure 18
0001
0001
0001
0000
1000
1000
1000
0000
,  // measure 19
0001
0000
0200
0000
0010
0000
0310
1000
,  // measure 20
0002
0010
1000
0100
,  // measure 21
0023
0000
0130
1000
0002
0000
0103
0000
,  // measure 22
0010
1000
0000
1000
0100
0000
1001
0000
,  // measure 23
0010
0001
0000
0001
0100
0000
1001
0000
,  // measure 24
2000
0010
0001
0100
,  // measure 25
3020
0000
0130
0001
2000
0000
3100
0000
,  // measure 26
0010
0001
0000
0001
0100
0000
1001
0000
,  // measure 27
0010
1000
0000
1000
0100
0000
1001
0000
,  // measure 28
0002
0000
0103
0000
1000
0100
0001
0000
,  // measure 29
0020
0000
0230
0000
1300
1000
0001
0000
,  // measure 30
2000
0000
3100
0000
0001
0100
1000
0000
,  // measure 31
0020
0000
0230
0000
0301
0001
1000
0000
,  // measure 32
0020
0130
0002
1003
,  // measure 33
0200
0310
0002
0103
,  // measure 34
2000
3100
0002
1003
,  // measure 35
0001
0010
0000
0100
1000
0000
0001
0000
,  // measure 36
0020
0130
2000
3001
,  // measure 37
0200
0310
2000
3100
,  // measure 38
0002
0103
2000
3001
,  // measure 39
1000
0010
0000
0100
0001
0000
1000
0000
,  // measure 40
0001
0000
0010
0000
1000
0010
0001
0000
,  // measure 41
0100
0100
0010
0000
1001
1001
1001
0000
,  // measure 42
1000
0010
0001
0000
0010
0000
1000
0000
,  // measure 43
0100
0100
0010
0010
0001
1000
0001
0000
,  // measure 44
0110
1001
0110
1001
,  // measure 45
0001
0010
0001
0000
1000
0010
1000
0000
,  // measure 46
0200
0000
0000
0000
,  // measure 47
0010
0010
0010
0310
,  // measure 48
2002
3003
0001
0100
,  // measure 49
2020
3030
1000
0100
,  // measure 50
0022
0033
0001
1000
,  // measure 51
2002
3003
0001
1000
,  // measure 52
0010
0100
0000
0010
0100
0000
0001
0000
,  // measure 53
1000
0200
0010
0310
,  // measure 54
0002
0100
0010
1000
,  // measure 55
0203
0000
0310
1000
0200
0000
0310
0000
,  // measure 56
0001
1000
0000
1000
0010
0000
0101
0000
,  // measure 57
0001
1000
0000
1000
0100
0000
0010
0001
,  // measure 58
2000
0100
0010
0001
,  // measure 59
3200
0000
0310
0001
0200
0000
0310
0000
,  // measure 60
1000
0001
0000
0001
0010
0000
1100
0000
,  // measure 61
1000
0001
0000
0001
0100
0000
0010
1000
,  // measure 62
0002
0013
2000
3100
,  // measure 63
0002
0010
0100
1003
,  // measure 64
2000
3010
0002
0103
,  // measure 65
2000
0010
0100
3001
,  // measure 66
0002
0013
2000
3100
,  // measure 67
0002
0000
0013
0000
0100
1000
0001
0000
,  // measure 68
2000
3010
0002
0103
,  // measure 69
2000
0000
3010
0000
0100
0000
0001
1000
;

//---------------dance-single - Daff_4K----------------
#NOTES:
     dance-single:
     Daff_4K:
     Hard:
     12:
     0.529933,0.529501,0.137123,0.389717,0.187642,514.000000,495.000000,19.000000,54.000000,0.000000,0.000000,0.529933,0.529501,0.137123,0.389717,0.187642,514.000000,495.000000,19.000000,54.000000,0.000000,0.000000:
// measure 0
0000
0000
0000
0000
,  // measure 1
0000
0000
0000
0000
,  // measure 2
0000
0000
0000
0000
,  // measure 3
0000
0000
0000
0000
0000
0000
1000
0001
,  // measure 4
0020
0000
0000
0000
0130
0000
1000
0000
0001
0000
0100
0001
0200
0000
0000
0000
,  // measure 5
0310
1000
0100
0001
0100
0010
0001
1000
,  // measure 6
0020
0000
0000
0000
0130
0000
0001
0000
1000
0000
0100
1000
0100
0000
0020
0000
,  // measure 7
0000
0031
0100
1000
0100
0001
0100
0010
,  // measure 8
1000
0200
0000
0301
0100
1000
0001
0200
,  // measure 9
0000
1300
0100
0001
0010
0010
0100
0100
,  // measure 10
1000
0000
0002
0000
0000
0000
0103
0000
0010
0000
1000
0001
2000
0000
0000
0000
,  // measure 11
3100
0000
0010
0000
0001
0000
0100
0000
0010
0000
1000
0001
1000
0000
0001
0000
,  // measure 12
0010
0000
1000
0000
0010
0000
0001
1000
0001
0000
0100
0000
0010
0000
1000
0000
,  // measure 13
0100
0001
0100
1000
0001
0100
0020
0000
,  // measure 14
1030
0000
0200
0000
0000
0000
0301
0000
0100
0000
1000
0001
2000
0000
0000
0000
,  // measure 15
3001
0100
1000
0100
0001
0010
0100
1000
,  // measure 16
1010
0000
0000
0000
0101
0000
0000
0001
1000
0000
0100
0000
0010
0000
0002
0000
,  // measure 17
0000
0103
1000
0001
0010
1000
0100
0001
,  // measure 18
0100
0010
0001
1000
0010
0010
0100
0200
,  // measure 19
0000
0301
0001
1000
1000
0100
0010
0001
,  // measure 20
2000
0000
3100
0001
1000
0010
0100
1000
,  // measure 21
0001
0000
0000
0001
0100
0000
0010
0000
2000
0000
0000
0000
3100
0000
0010
0000
,  // measure 22
0001
0100
0100
1000
0020
0000
0130
0001
,  // measure 23
1000
0010
0010
0001
0200
0000
0310
1000
,  // measure 24
0002
0000
0103
1000
0001
0010
0100
0001
,  // measure 25
1000
0000
0000
1000
0100
0000
0010
0000
0002
0000
0000
0000
0103
0000
0010
0000
,  // measure 26
1000
0100
0100
0001
0020
0000
0130
1000
,  // measure 27
0001
0010
0010
1000
0200
0000
0310
0001
,  // measure 28
1000
0100
0000
0100
0001
0000
0000
0000
0110
0000
0001
0000
1000
0000
0000
0000
,  // measure 29
0001
0010
0000
0000
0010
1000
0000
0000
0100
0010
0100
0000
1001
0000
0000
0000
,  // measure 30
0001
0100
0000
0100
1000
0000
0000
0000
0110
0000
1000
0000
0001
0000
0000
0000
,  // measure 31
1000
0010
0000
0000
0010
0001
0000
0000
0100
0010
0100
0000
1001
0000
0001
0000
,  // measure 32
0100
1000
0100
0001
0010
1000
0010
0001
,  // measure 33
2000
0010
3020
0100
0230
0001
0302
0010
,  // measure 34
0013
0000
1100
0000
1000
0001
1001
0000
,  // measure 35
1000
0000
0010
0000
0001
0000
0010
0100
0010
0000
1000
0000
0001
0000
1000
0000
,  // measure 36
0100
0001
0100
1000
0010
0001
0010
1000
,  // measure 37
0002
0010
0023
0100
0230
1000
2300
0010
,  // measure 38
3010
0000
0101
0000
0001
1000
1001
0000
,  // measure 39
0001
0000
0010
0000
1000
0000
0010
0100
0010
0000
0001
0000
1000
0000
0000
0000
,  // measure 40
0100
0010
0000
0100
0010
0000
0001
0000
0100
0000
1000
0000
0100
0000
0001
0000
,  // measure 41
0010
0000
0100
0000
1000
0000
0001
0000
0100
0010
1000
0001
1000
0000
0001
0000
,  // measure 42
1000
0000
0100
0000
0010
0000
0001
1000
0001
0000
0100
0010
0100
0000
0001
0000
,  // measure 43
0010
0100
1000
0010
0100
0001
2000
0100
,  // measure 44
3200
0010
0320
0001
0032
0100
0203
0010
,  // measure 45
0320
0000
2030
0000
3200
0000
0320
0000
0031
1000
0001
1000
0020
0000
0000
0000
,  // measure 46
0200
0000
0000
0330
,  // measure 47
1001
0000
1001
0000
1001
0000
0001
0200
,  // measure 48
1000
0000
0010
0000
0301
0010
0100
2000
,  // measure 49
0010
0000
0000
0000
0001
0000
0000
0000
3100
0000
1000
0001
1000
0000
0200
0000
,  // measure 50
0001
0000
0010
0000
1300
0010
0100
0002
,  // measure 51
0010
0000
1000
0000
0103
0001
0010
0100
,  // measure 52
1000
0010
0010
0001
0100
0100
1000
0001
,  // measure 53
0100
0000
0010
0000
1000
0001
1000
0001
0010
0100
0010
0000
0100
0000
1000
0000
,  // measure 54
0002
0000
0103
1000
0001
0010
0100
0001
,  // measure 55
0010
0000
0000
0010
0100
0000
1000
0000
0001
0000
0100
0001
0100
0000
0010
0000
,  // measure 56
1000
0100
0100
0001
0110
0000
1001
0000
,  // measure 57
0001
0000
0010
0000
0010
0000
1000
0000
0010
0100
0000
1001
0000
0001
1000
0001
,  // measure 58
2000
0000
3100
0001
1000
0010
0100
1000
,  // measure 59
0010
0000
0000
0010
0100
0000
0001
0000
1000
0000
0100
1000
0100
0000
0010
0000
,  // measure 60
0001
0100
0100
1000
0110
0000
1001
0000
,  // measure 61
1000
0000
0010
0000
0010
0000
0001
0000
0110
0000
0000
1000
0000
0001
0100
0010
,  // measure 62
2000
0000
3100
0010
0002
0000
0103
0010
,  // measure 63
1000
0000
0001
1000
0001
0000
0010
0000
0200
0000
0000
0000
2300
0000
0000
0000
,  // measure 64
3002
0000
0103
0010
2000
0000
3100
0010
,  // measure 65
0001
0000
1000
0001
1000
0000
0010
0000
0200
0000
0000
0000
0302
0000
0000
0000
,  // measure 66
1003
0000
0000
1000
0100
0000
0001
0000
1000
0000
0000
1000
0010
0000
0001
0000
,  // measure 67
1000
0000
0010
0100
0010
0000
0001
0000
0010
0000
1000
0000
0100
0000
0010
0000
,  // measure 68
0001
0000
0000
0001
0100
0000
1000
0000
0001
0000
0000
0001
0010
0000
1000
0000
,  // measure 69
0001
0000
0010
0100
0010
0000
1000
0000
0010
0000
0001
0000
0100
0000
1000
0000
;
