#TITLE:Can U Feel It;
#SUBTITLE:;
#ARTIST:siqlo;
#TITLETRANSLIT:;
#SUBTITLETRANSLIT:;
#ARTISTTRANSLIT:;
#GENRE:;
#CREDIT:;
#BANNER:;
#BACKGROUND:;
#LYRICSPATH:;
#CDTITLE:;
#MUSIC:Can U Feel It.ogg;
#OFFSET:-0.170000;
#SAMPLESTART:81.718391;
#SAMPLELENGTH:12.307693;
#SELECTABLE:YES;
#BPMS:0.000000=156.000000
;
#STOPS:
;
#BGCHANGES:;
#KEYSOUNDS:;
#ATTACKS:;

//---------------dance-single - ----------------
#NOTES:
     dance-single:
     :
     Challenge:
     17:
     0.732237,1.035780,0.207397,0.585155,0.759220,692.000000,664.000000,28.000000,79.000000,14.000000,0.000000,0.732237,1.035780,0.207397,0.585155,0.759220,692.000000,664.000000,28.000000,79.000000,14.000000,0.000000:
0000
0000
0000
0000
,
0000
0000
0000
0000
,
0000
0000
0000
0000
,
0000
0000
0000
0000
,
0000
0000
0000
0000
,
0001
0000
0000
0000
0000
0000
0000
0000
0000
0000
0000
0000
0100
0000
0001
0000
0100
0000
0001
0000
0000
1000
0000
0000
0100
0000
0000
0000
0000
0000
0010
0000
0000
0000
0000
0000
0100
0000
0000
0000
0000
0000
0001
0000
0000
0000
0000
0000
,
0100
0000
0000
0000
0000
0000
0000
0000
0000
0000
0000
0000
0000
0000
0000
0000
0000
0000
0000
0000
0000
0000
0000
0000
0000
0000
0000
0000
0000
0000
0000
0000
0000
0000
0000
0000
0000
0000
0000
0000
0000
0000
0000
0000
0000
0000
0000
0000
0010
0000
0000
0000
0000
0000
0000
0000
0001
0000
0000
0000
0000
0000
0000
0000
0010
0000
0000
0000
0000
0000
0000
0000
0001
0000
0000
0000
0000
0000
0000
0000
0000
0000
0000
0000
1000
0000
0000
0000
0000
0000
0000
0000
0000
0000
0000
0000
0010
0000
0000
0000
0000
0000
0000
0000
0000
0000
0000
0000
0000
0000
0000
0000
0000
0000
0000
0000
0000
0000
0000
0000
0100
0000
0000
0000
0000
0000
0000
0000
0000
0000
0000
0000
0001
0000
0000
0000
0000
0000
0000
0000
0000
0000
0000
0000
1000
0000
0000
0000
0000
0000
0010
0000
0000
0000
0000
0000
1000
0000
0000
0000
0000
0000
0000
0000
0000
0000
0000
0000
0001
0000
0000
0000
0000
0000
0000
0000
0000
0000
0000
0000
0010
0000
0000
0000
0000
0000
0000
0000
0000
0000
0000
0000
,
0100
0000
0000
0000
1000
0001
1000
0001
1000
0000
1000
0000
0010
0000
0100
0000
,
1000
0100
1000
0100
0002
0000
4003
0000
,
3100
0000
0010
0000
0001
0000
0010
0000
0100
0000
0010
0000
0001
1000
0001
1000
,
0010
0100
0001
0001
1000
1000
0200
0000
,
0310
0001
0010
0001
1000
0010
1000
0010
0100
0001
1000
0100
0010
0001
1000
0001
,
0200
0000
0000
0300
,
1002
0000
0000
0000
0000
1003
0100
0010
,
0001
0000
0001
0000
2000
0000
3010
0100
0001
1000
0001
0000
1000
0100
0010
0001
,
2000
0000
0000
0000
0100
0000
3001
1000
0010
0100
0001
0000
0200
0000
0300
0000
,
01M0
0000
1000
0001
0100
00M0
0100
0000
1000
0001
0100
0001
0020
0000
0030
0000
,
0210
0000
0000
0000
1000
0000
0310
0000
0001
1000
0001
1000
0001
0100
0001
0100
,
0010
0000
1010
0000
1000
0001
1000
0001
1000
0100
1000
0100
0020
0000
0000
0000
,
0032
0000
0000
0000
1003
0001
1000
0001
0200
0000
0010
0000
0301
1000
0001
1000
,
0010
0000
1000
0100
00M0
0100
0001
0000
1001
0000
1000
0100
1000
0000
0001
0000
,
0100
0100
1000
0001
0100
0100
1000
0001
0020
0000
0000
0000
0130
0100
0001
1000
,
0100
0100
0001
1000
0100
0100
0001
1000
0020
0000
0100
0000
1030
0001
0010
0010
,
1000
0001
0010
0010
1000
0001
0010
0010
2000
0000
0000
0000
3002
0000
0000
0000
,
0103
0000
0000
0100
0000
0000
0100
0000
0000
0001
0000
0000
1000
0000
0100
0000
1000
0000
0100
0000
0000
0010
0000
0000
0001
0000
0000
0000
0000
0000
1000
0000
0000
0000
0000
0000
0100
0000
0000
0000
0000
0000
1000
0000
0000
0000
0000
0000
,
0100
0001
M000
0001
0010
1000
000M
1000
0100
0010
0001
0010
0002
0000
0000
0000
,
2003
0000
0000
0000
3100
00M0
0100
0000
0001
0100
0001
0100
0020
0000
0000
0000
,
0000
0000
0000
0000
0000
0000
0000
0000
1030
0001
1000
0001
0010
0M00
0010
0000
,
0200
0000
0010
0301
0101
1000
0200
0000
,
0000
0000
0000
0000
0000
0000
0310
0001
1000
0000
0010
0000
0100
0000
0001
0000
,
1000
0100
1000
0100
0010
0001
0010
0001
1000
0010
0100
0001
0020
0030
0000
0000
,
0022
0000
0033
2200
0000
3300
0102
0000
,
1003
0000
0000
0000
0100
00M0
0100
0000
0002
0000
0000
0000
0000
0000
0000
0000
,
2003
0000
0000
0000
0000
0000
3100
0010
0001
0000
1000
0000
0010
0000
1000
0000
,
0100
0000
1000
0010
0000
0000
0100
0000
0001
1000
0000
0001
0010
0001
0100
0020
,
2000
0000
3030
0202
0000
0303
2100
0000
,
3001
0000
0100
0000
0001
0000
1000
0100
2000
0000
0000
0000
0000
0000
0000
0000
,
3020
0000
0000
0000
,
0000
0000
0000
0000
,
0000
0000
0000
0000
,
0000
0000
0000
0000
0000
0000
0000
0000
0000
0000
0000
0000
0000
0000
0130
0001
,
2000
0000
0000
0000
0000
0000
3100
0010
0002
0000
0000
0000
1003
0000
0002
0000
,
0000
0000
0000
0000
0000
0000
0103
0010
1000
0000
0100
0000
1000
0000
0002
0000
,
0003
0200
0300
0020
0030
1000
0001
0020
,
0030
0000
0200
0000
0300
0000
0020
0000
0030
0000
0002
0000
0003
0000
1000
0010
,
0200
0000
0000
0000
0000
0301
0010
0001
,
2000
0000
3020
0000
0130
0001
0020
0000
,
0230
0000
0000
0000
0000
1300
0010
1000
,
0002
0000
0023
0000
0130
1000
0010
1000
,
0001
0010
0001
0010
0100
1000
0100
1000
0001
0100
0001
0100
0010
1000
0010
1000
,
0001
0010
0100
1000
0001
0100
0001
1000
0100
0010
0100
1000
0001
0100
0010
4000
,
0004
0000
0000
3003
,
0001
0000
0001
0000
0010
0000
0100
1000
0000
0100
1000
0000
0001
0000
0000
0000
,
1001
0000
0000
0000
0001
0100
0001
0100
0010
0000
1000
0100
0010
0000
0001
0000
,
0100
0100
1000
0000
0100
0100
0001
0000
0100
0010
0100
0100
2000
0000
3001
0010
,
0200
0000
0000
0000
1300
0100
0010
0100
0001
0000
0100
0010
0000
0001
1000
0001
,
0100
0000
0001
1000
0100
00M0
0100
0000
0001
0010
0100
0100
0001
0000
1000
0000
,
1002
0000
0000
0000
0023
0000
0000
0000
0031
0100
0100
0100
0010
1000
0001
1000
,
0001
0100
0100
0100
0010
1000
0001
1000
0001
0100
0100
0100
0020
0000
0000
0000
,
1030
0000
0000
0000
1010
0000
1000
0001
1000
0100
0100
0100
0010
0001
1000
0001
,
2000
3020
0230
0302
,
1003
0100
00M0
0100
0001
0100
0010
2000
0001
0000
3010
0000
0100
0000
0001
0000
,
1000
0000
0010
0000
1000
0100
0010
0001
1000
0100
0100
0001
1000
0001
0100
0010
,
2000
0000
0000
0000
3001
0010
0001
0000
0100
0000
0010
0000
0100
0100
1000
0000
,
0001
0000
0100
0100
1000
0000
0001
0000
0010
0000
0100
1000
0020
0000
0030
0000
,
0110
0000
0000
0000
1000
0100
0010
0002
1000
0000
0013
0000
0100
0000
1000
0000
,
0001
0000
0010
0000
0001
0100
0010
1000
0001
0100
0100
1000
0001
1000
0100
0010
,
0002
0000
0000
0000
1003
0010
1000
0000
0001
0000
0100
0100
1000
0001
1000
0000
,
0010
0000
0100
0001
0010
0000
0100
0000
1000
0000
0001
0000
0020
0000
0030
0000
,
0011
1010
1001
0001
0100
0010
1010
0011
,
1001
1000
0100
0010
0001
0100
0101
1100
,
1001
0000
0000
0000
0001
0100
0100
0100
0001
1000
0100
0000
0010
0000
0001
0000
,
2000
0000
0000
0000
3001
0010
0001
0010
0100
0000
1000
0000
0010
0000
0100
0100
,
1000
1001
1001
0001
0100
0001
0010
0100
,
1000
0001
1000
0010
0100
0001
0101
1100
,
1001
0000
0000
0000
1000
0100
0100
0100
1000
0001
0100
0000
0010
0000
1000
0000
,
0002
0000
0000
0000
1003
0010
1000
0010
0100
0000
0001
0000
0010
0000
0100
0200
,
0001
0000
0000
0000
0310
0000
0100
0200
1000
0000
0310
0000
0001
1000
0001
0000
,
0100
0020
0000
0000
1030
0000
1000
0001
0020
0000
0000
0000
0130
1000
0100
0000
,
0020
0000
0000
0000
0000
0000
0000
0000
0031
0000
1000
0010
1000
0000
0001
0000
0010
0000
0100
0000
1000
0000
0001
0000
0200
0000
0000
0000
0000
0000
0000
0000
,
0310
1000
0010
1000
0001
1000
0100
0100
0002
0000
0000
0000
1003
0010
1000
0010
,
0100
0001
0100
0001
1000
0100
1000
0100
,
0010
0001
1000
0020
0000
0000
0230
0000
,
0000
0000
0000
0000
,
0000
0000
0000
0000
0000
0000
0000
0000
0000
0300
0000
0000
0000
0000
0000
M000
0M00
00M0
000M
0000
0000
0000
0000
0000
;

//---------------dance-single - ----------------
#NOTES:
     dance-single:
     :
     Hard:
     15:
     0.610550,0.753294,0.222211,0.422200,0.459235,577.000000,547.000000,30.000000,57.000000,9.000000,0.000000,0.610550,0.753294,0.222211,0.422200,0.459235,577.000000,547.000000,30.000000,57.000000,9.000000,0.000000:
0000
0000
0000
0000
,
0000
0000
0000
0000
,
0000
0000
0000
0000
,
0000
0000
0000
0000
,
0000
0000
0000
0000
,
1001
0000
0000
0000
1000
0001
1000
0001
0100
0000
0010
0000
0100
0000
1000
0000
,
0100
0000
0000
0000
0001
1000
0001
1000
0100
0000
0001
0000
0100
0000
0010
0001
,
1000
0000
0000
0000
0001
0100
0001
0100
0001
0000
0001
0000
1000
0000
0100
0000
,
0001
0100
0001
0100
0020
0000
0032
0000
,
1003
0000
0010
0000
1000
0000
0010
0000
0100
0000
0001
0000
1000
0100
1000
0000
,
0001
0000
0010
0000
0001
0000
0010
0000
0100
0000
1000
0000
0001
0100
0001
0000
,
1000
0010
1000
0000
0001
0010
0001
0000
1000
0100
1000
0000
0001
0100
0001
0000
,
0020
0000
0000
0030
,
2001
0000
0000
0000
0000
3001
0100
0010
,
1000
0000
1000
0000
0001
0000
0010
0000
0100
1000
0100
0000
0010
0001
1000
0001
,
2000
0000
0000
0000
3002
0000
0013
0100
1000
0000
0100
00M0
0200
0000
0000
0000
,
0301
0000
1000
0100
1000
0000
0001
0000
1000
0100
1000
0000
0020
0000
0030
0000
,
0110
0000
0000
0000
0001
0000
0010
0000
0100
1000
0100
0000
1000
0100
1000
0000
,
0010
0000
0010
0000
0100
0001
0100
0000
0001
0100
0001
0000
2000
0000
0000
0000
,
3200
0000
0000
0000
0310
0001
0010
0000
0100
0000
1000
0000
0010
1000
0010
0000
,
0100
0000
0001
1000
0000
0001
1000
0000
0100
0000
0010
0000
0002
0000
0000
0000
,
1003
0000
0010
0000
0100
0001
0100
0001
1000
0000
0000
0000
0001
0000
0010
0000
,
0100
1000
0100
1000
0001
0100
0001
0100
0010
0000
0000
0000
1000
0000
0100
0000
,
0010
0001
0010
0001
1000
0010
1000
0010
0100
0000
0000
0000
0001
0000
0000
0000
,
0100
0010
0100
0010
1000
0000
0001
0000
0100
0000
0010
0000
0100
0000
0001
0000
,
0100
1000
0000
0000
0100
0001
0000
0000
1000
0000
0100
0010
0001
0000
0000
0000
,
2000
0000
0000
0000
3010
0000
0100
0000
0001
1000
0001
1000
0200
0000
0000
0000
,
0000
0000
0000
0000
0000
0000
0000
0000
0310
0001
0010
0000
0100
0000
1000
0000
,
0002
0000
0103
1000
0100
0010
2000
0000
,
0000
0000
0000
0000
,
3001
0010
0001
0000
1000
0000
0010
0000
0100
0001
0100
0001
1000
0000
0000
0000
,
1001
0000
0000
0110
0000
0000
1001
0000
,
1000
0000
0100
0100
0020
0000
0030
0000
,
0002
0000
0000
0000
,
1003
0000
1000
0010
0000
0000
0100
0001
0100
0001
0000
1000
0100
0000
0010
0001
,
1000
0000
0000
0110
0000
0000
1001
0000
,
0001
0000
0100
0000
0001
0000
1000
0100
2000
0000
0000
0000
0000
0000
0000
0000
,
3020
0000
0000
0000
,
0000
0000
0000
0000
,
0000
0000
0000
0000
,
0000
0000
0000
0000
,
0130
0000
0000
0000
0000
0000
0001
1000
0001
0000
0000
0000
1000
0000
0200
0000
,
0000
0000
0000
0310
0001
0100
0010
0002
,
0000
0023
0000
2030
0000
3100
0010
0200
,
0000
0000
0302
0000
0000
0000
0203
0000
0000
0000
0320
0000
0000
0000
0031
1000
,
0001
0000
0000
0000
0000
1000
0100
1000
,
0020
0030
0020
0030
0100
0001
2000
0000
,
3200
0000
0310
0000
0000
0001
0100
0001
,
0020
0000
0230
0000
1300
0001
0100
0010
,
1000
0100
1000
0100
0010
0001
0010
0001
,
1000
0010
1000
0010
0100
0001
0100
0001
,
1000
0100
1000
0000
0001
0010
0001
0000
1000
0010
1000
0010
0100
0001
0100
0001
,
1000
0000
0100
0000
0010
0000
0001
0100
0000
0001
1000
0000
0200
0000
0000
0000
,
0310
0000
0000
0000
0001
0100
0001
0000
1000
0000
0001
0100
0001
0000
0010
0000
,
0100
1000
0100
00M0
0100
0001
0100
00M0
0100
0000
1000
0001
0200
0000
0000
0310
,
2000
0000
0000
0000
3001
0010
0001
0010
0100
0000
1000
0010
0000
1000
0001
0000
,
0010
0000
0100
1000
0100
0000
0010
0000
0001
1000
0001
1000
0010
0000
0100
0000
,
0002
0000
0000
0000
2003
0000
0000
0000
3100
00M0
0100
0001
1000
0000
0010
0000
,
0100
00M0
0100
1000
0001
0000
0010
0000
0100
00M0
0100
0001
2000
0000
0000
0000
,
3010
0000
0000
0000
0110
0000
0100
0001
1000
0000
0010
0000
0100
00M0
0100
0000
,
2000
3200
0320
0032
,
1003
0010
0000
1000
0100
0000
0010
0001
1000
0000
0100
0000
1000
0000
0001
0000
,
1000
0000
0100
0000
0010
0001
0010
0M00
0010
1000
0010
0100
0002
0000
0000
0000
,
0023
0000
0000
0000
0130
1000
0010
0000
1000
0000
0001
0000
0100
0001
0010
0000
,
0100
0000
1000
0001
0100
0000
0010
0000
1000
0000
0001
0000
1001
0000
0000
0000
,
0110
0000
0000
0000
0001
1000
0010
1000
0001
0000
0100
0000
0001
0000
1000
0000
,
0001
0000
0100
0000
0010
1000
0010
0M00
0010
0001
0010
0100
2000
0000
0000
0000
,
3020
0000
0000
0000
0130
0001
0010
0000
0001
0000
1000
0000
0100
1000
0010
0000
,
0100
0000
0001
1000
0100
0000
0010
0000
0001
0000
1000
0000
1001
0000
0000
0000
,
0001
0100
0101
0000
1100
0000
0011
0001
,
1001
0000
1010
0000
0110
0000
0101
0001
,
1001
0000
0000
0000
1000
0100
1000
0000
1000
0100
1000
0000
0001
0000
0100
0000
,
0020
0000
1000
0000
0000
0000
0100
0000
0000
0000
1030
0000
0001
0000
0010
0100
,
1000
0001
1001
0000
0101
0000
1100
0000
,
0011
0000
0101
0000
1001
0000
1010
0010
,
0110
0000
0000
0000
0001
0100
0001
0000
0001
0100
0001
0000
1000
0000
0100
0000
,
0020
0000
0001
0000
0000
0000
0100
0000
0000
0000
0031
0000
1000
0000
0010
0100
,
0002
0000
0000
0000
0010
0000
1003
0100
2000
0000
0010
0000
0000
0000
0000
0000
,
3001
0010
0000
0000
0011
0000
1000
0010
0200
0000
0000
0000
0000
0000
0000
0000
,
0302
0000
0000
0000
1003
0100
1000
0100
1000
0000
0001
0100
0001
0000
0010
0000
,
0100
1000
0100
1000
0001
0000
0100
0010
2000
0000
0000
0000
3001
0010
0001
0010
,
0200
0000
0000
0000
,
0000
0000
0000
0300
0000
0000
2002
0000
,
0000
0000
0000
0000
,
0000
0000
0000
3003
;

//---------------dance-single - ----------------
#NOTES:
     dance-single:
     :
     Medium:
     11:
     0.460294,0.564971,0.155547,0.503678,0.022221,435.000000,414.000000,21.000000,68.000000,1.000000,0.000000,0.460294,0.564971,0.155547,0.503678,0.022221,435.000000,414.000000,21.000000,68.000000,1.000000,0.000000:
0000
0000
0000
0000
,
0000
0000
0000
0000
,
0000
0000
0000
0000
,
0000
0000
0000
0000
,
0000
0000
0000
0000
,
1000
0000
0001
0100
0001
0100
0010
1000
,
0001
0000
1000
0100
0001
0100
1000
0001
,
0100
0000
0001
0010
0001
0010
0100
1000
,
0010
0100
0010
0100
0002
0000
0000
0000
,
1003
0100
1000
0100
0010
0001
0010
0001
,
1000
0010
1000
0010
0100
0001
1000
0000
,
0001
0010
0100
1000
0001
0100
0001
0010
,
0002
0000
0000
0000
,
2003
0000
0000
0000
0000
3010
0100
0001
,
2000
0000
3200
0000
0310
0001
0100
0001
,
2000
0000
3010
0100
0001
0100
0020
0000
,
1030
1000
0100
1000
1000
0001
0200
0000
,
0310
0000
1000
0001
0010
0001
0010
0001
,
1000
0000
0010
0100
0010
0100
0002
0000
,
2003
0000
3100
0100
0010
0001
1000
1000
,
0010
0000
0000
0100
0000
0000
0010
0000
1000
0000
0001
0000
0010
0000
0100
0000
,
1000
0100
1000
0100
1100
0000
0001
0100
,
0001
0100
0001
0100
0101
0000
1000
0010
,
1000
0010
1000
0010
1010
0000
0002
0000
,
0013
0100
1000
0100
0020
0000
0032
0000
,
1003
0000
0010
0000
0000
0M00
0000
0000
0010
0000
0001
0000
0000
0000
0000
0000
1000
0000
0000
0000
0010
0000
0000
0000
0200
0000
0000
0000
0000
0000
0000
0000
,
0302
0000
1003
0100
0010
0001
2000
0000
,
0000
0000
0000
0000
3001
0100
0010
0010
,
2000
0000
3001
0010
0100
1000
0002
0000
,
0000
0000
0000
0000
,
1003
0010
0100
0001
1000
0010
0100
0000
,
0101
0000
0000
1100
0000
0000
0102
0000
,
1003
0000
0100
0010
0002
0000
0000
0000
,
2003
0000
0000
0000
,
3001
0000
0000
0100
0000
0000
0001
0000
0010
0000
0001
0000
1000
0000
0100
0000
,
1100
0000
0000
0101
0000
0000
2100
0000
,
3001
0100
0002
0000
2003
0000
0000
0000
,
3200
0000
0000
0000
,
0000
0000
0000
0000
,
0000
0000
0000
0000
,
0000
0000
0000
0000
,
0320
0000
0000
0000
0031
0000
1000
0001
,
0000
0000
0000
0100
0010
1000
0100
1000
,
0000
0001
0000
0100
0000
0010
1000
0010
,
0000
0100
0000
0001
0000
1000
0000
0100
,
0020
0000
0000
0000
0000
0031
1000
0010
,
2000
0000
3002
0000
0013
0100
2000
0000
,
3020
0000
0230
0000
0000
0301
1000
0100
,
0020
0000
0032
0000
1003
0010
0100
0001
,
1000
0100
1000
0100
0010
0001
0010
0001
,
1000
0010
1000
0010
0100
0001
0100
0001
,
2000
0000
0000
0000
3001
0010
0001
0000
,
0100
0010
1000
0002
0000
0013
0100
1000
,
1001
0000
0001
0100
0001
0010
0100
1000
,
0001
0001
0100
0100
0010
1000
0020
0000
,
0230
0000
0000
0000
0301
0000
1000
0000
0100
0000
0000
0010
0000
0000
0100
0000
,
1000
0000
0001
0100
0001
1000
0002
0000
,
0023
0000
0230
0000
0301
0100
1000
0100
,
0001
0100
1000
0100
0001
0100
0020
0000
,
0031
0000
0100
0010
0001
0010
1000
0010
,
0200
0302
2003
3200
,
0310
0001
1000
0001
0010
0002
0000
0103
,
0010
1000
0001
0001
0010
0100
1000
0020
,
0000
0000
0130
0001
1000
0100
1000
0020
,
0000
0000
0130
0001
0010
0001
2000
0000
,
3020
0000
0130
0001
1000
0200
0000
0310
,
0001
1000
0001
0001
0100
0010
1000
0200
,
0000
0000
1300
0001
0100
0010
1000
0002
,
0000
0000
0013
0100
1000
0000
1100
0000
,
0001
0100
0001
0000
0101
0000
1000
0100
,
1000
0000
1100
0000
0110
0000
0001
0010
,
0001
0000
1000
0100
1000
0010
1000
0100
,
0010
0002
0000
0203
0000
0320
0000
1030
,
0001
0010
0001
0000
0011
0000
0110
0000
,
1100
0000
1001
0000
0101
0000
1000
0010
,
1000
0000
0001
0010
0001
0100
0001
0010
,
0100
2000
0000
3020
0000
0230
0000
0301
,
1002
0000
0013
0100
0100
1000
0000
0001
,
0100
0001
1000
0100
0020
0000
0000
0000
,
0032
0000
1003
0010
1000
0100
1000
0001
,
0100
0020
0000
2030
0000
3002
0000
0013
,
0012
0000
0000
0000
,
0000
0000
0000
2000
,
0000
0000
0000
0000
,
0000
0000
0000
3003
;

//---------------dance-single - ----------------
#NOTES:
     dance-single:
     :
     Easy:
     7:
     0.262420,0.376647,0.007407,0.288874,0.000000,248.000000,247.000000,1.000000,39.000000,0.000000,0.000000,0.262420,0.376647,0.007407,0.288874,0.000000,248.000000,247.000000,1.000000,39.000000,0.000000,0.000000:
0000
0000
0000
0000
,
0000
0000
0000
0000
,
0000
0000
0000
0000
,
0000
0000
0000
0000
,
0000
0000
0000
0000
,
1000
0100
1000
1000
,
0001
0100
0001
0001
,
0010
0100
0100
1000
,
0001
0001
0002
0000
,
1003
0010
0100
0001
,
0001
0010
0100
1000
,
0001
0000
0100
0000
0010
0000
1000
0001
,
1000
0000
0000
0000
,
0200
0000
0000
0000
,
0320
0000
0000
0000
,
0031
0100
0001
1000
,
0100
0000
0010
0001
0000
0010
0001
0000
,
1000
0010
0100
0100
,
0001
0010
0100
0200
,
0000
1300
0001
1000
,
0020
0000
0130
0001
,
2000
0000
3100
0020
,
0000
0000
0031
0200
,
0000
0000
0310
1000
,
0001
0001
0001
0000
,
0010
0100
1000
0100
,
0020
0000
0031
2000
,
0000
0000
3010
0100
,
0010
0000
2000
0000
0002
3003
1001
0000
,
0000
0000
0000
0000
,
0001
0100
0010
1000
,
0001
0000
0000
0010
0000
0000
0100
0000
,
0010
0000
0001
1000
0002
0000
0000
0000
,
0203
0000
0000
0000
,
0301
0000
0010
0000
0100
0000
1000
0001
,
1000
0000
0000
0010
0000
0000
0100
0000
,
0001
1000
0001
0000
0020
0000
0000
0000
,
0230
0000
0000
0000
,
0000
0000
0000
0000
,
0000
0000
0000
0000
,
0000
0000
0000
0000
,
1300
0000
0001
0000
,
0100
0000
0010
0000
,
0200
0000
0000
0000
,
0302
0000
0000
0000
,
2003
0000
0000
3100
,
0010
0001
0100
0001
,
0002
0000
0000
1003
,
0100
1000
0001
0100
,
0020
0000
2030
0000
,
3001
0010
0002
0000
,
1003
0010
0100
0001
,
0100
0010
0100
0020
0000
0000
0000
0000
,
1030
0001
0010
0100
,
1000
1000
1000
0002
,
0103
0010
1000
0001
,
0010
0000
0100
1000
,
0200
0000
0320
0000
,
0032
0000
2003
0000
,
3010
0000
0100
0001
0200
0000
0000
0000
,
0310
1000
0001
0010
,
0100
0000
1000
0000
0001
0100
0000
0001
,
0100
0000
0010
0000
1000
0000
0001
0020
,
0000
0000
0130
0000
1000
0000
0001
0020
,
0000
0130
1000
0001
,
0100
0000
0001
0000
1000
0100
0000
1000
,
0100
0000
0010
0000
0001
0000
1000
0020
,
0000
0000
0130
0000
0001
0000
1000
0020
,
0000
0130
0001
1000
,
0010
0100
0010
0000
1000
0000
0100
0010
,
0100
0000
1000
0000
0001
0000
0100
0010
,
0100
0002
0000
1003
,
0100
0010
0001
1000
,
0001
0100
0001
0000
0010
0000
0100
0000
,
1000
0000
0001
0000
0100
0000
0010
1000
,
0010
0200
0000
0301
,
1000
0100
0010
0001
,
1000
0000
0010
0000
0100
0010
0000
0000
,
1000
0001
2000
0000
,
3001
0010
0100
1000
,
0001
0000
0100
0000
0010
0000
1000
0001
,
2000
0000
0000
0000
,
0000
0000
0000
3002
,
0000
0000
0000
0000
,
0000
0000
0000
0003
;

//---------------dance-single - ----------------
#NOTES:
     dance-single:
     :
     Beginner:
     3:
     0.123803,0.219711,0.051849,0.125919,0.000000,117.000000,110.000000,7.000000,17.000000,0.000000,0.000000,0.123803,0.219711,0.051849,0.125919,0.000000,117.000000,110.000000,7.000000,17.000000,0.000000,0.000000:
// measure 0
0000
0000
0000
0000
,  // measure 1
0000
0000
0000
0000
,  // measure 2
0000
0000
0000
0000
,  // measure 3
0000
0000
0000
0000
,  // measure 4
0000
0000
0000
0000
,  // measure 5
1000
0000
0000
0000
,  // measure 6
0001
0000
0000
0000
,  // measure 7
1000
0000
0000
0000
,  // measure 8
0010
0000
0010
0000
,  // measure 9
0100
0000
0000
0000
,  // measure 10
0001
0000
0000
0000
,  // measure 11
1000
0000
0100
0000
,  // measure 12
0010
0000
0000
0000
,  // measure 13
0002
0000
0000
0000
,  // measure 14
1003
0000
1000
0000
,  // measure 15
0001
0000
0100
0000
,  // measure 16
0010
0000
0000
0000
,  // measure 17
1000
0000
0100
0000
,  // measure 18
0010
0000
0000
0001
,  // measure 19
0000
0000
1000
0000
,  // measure 20
0020
0000
0030
0000
,  // measure 21
0200
0000
0300
0002
,  // measure 22
0000
0000
0003
2000
,  // measure 23
0000
0000
3000
0000
,  // measure 24
0100
0000
0010
0000
,  // measure 25
0002
0000
0003
0000
,  // measure 26
2000
0000
3010
0010
,  // measure 27
0000
0000
0100
0000
,  // measure 28
0001
0000
0000
1000
,  // measure 29
0000
0000
0000
0000
,  // measure 30
0001
0000
0010
0000
,  // measure 31
0200
0000
0000
0300
,  // measure 32
1000
0000
0001
0000
,  // measure 33
1000
0000
0000
0000
,  // measure 34
0010
0000
0000
0000
,  // measure 35
0200
0000
0000
0300
,  // measure 36
0001
0000
2000
0000
,  // measure 37
3100
0000
0000
0000
,  // measure 38
0000
0000
0000
0000
,  // measure 39
0000
0000
0000
0000
,  // measure 40
0000
0000
0000
0000
,  // measure 41
0010
0000
0000
0000
,  // measure 42
0001
0000
0000
0000
,  // measure 43
1000
0000
0000
0000
,  // measure 44
0010
0000
0000
0000
,  // measure 45
0100
0000
0000
0000
,  // measure 46
0001
0000
1000
0000
,  // measure 47
0001
0000
0000
0000
,  // measure 48
1000
0000
0001
0000
,  // measure 49
1000
0000
0000
0000
,  // measure 50
0100
0000
0010
0000
,  // measure 51
0001
0000
0001
0000
,  // measure 52
1001
0000
0000
0000
,  // measure 53
1000
0000
0100
0000
,  // measure 54
1000
0000
0000
0001
,  // measure 55
0001
0000
0100
0000
,  // measure 56
0001
0000
0000
0000
,  // measure 57
2000
0000
0000
0000
,  // measure 58
3200
0000
0000
0000
,  // measure 59
0310
0000
0010
0000
,  // measure 60
0001
0000
0000
0000
,  // measure 61
1000
0000
0010
0000
,  // measure 62
1000
0000
0000
0001
,  // measure 63
0001
0000
0010
0000
,  // measure 64
0001
0000
0000
0000
,  // measure 65
0000
1001
0000
0000
,  // measure 66
1000
0000
0001
0000
,  // measure 67
1000
0000
0000
0000
,  // measure 68
0020
0000
0000
0000
,  // measure 69
0130
0000
1001
0000
,  // measure 70
0100
0000
1001
0000
,  // measure 71
1000
0100
0000
0010
,  // measure 72
0001
0000
1000
0000
,  // measure 73
0001
0000
1001
0000
,  // measure 74
0100
0000
1001
0000
,  // measure 75
0001
0100
0000
0010
,  // measure 76
1000
0000
0001
0000
,  // measure 77
2000
0000
0000
0000
,  // measure 78
3100
0000
0010
0000
,  // measure 79
0002
0000
0000
0000
,  // measure 80
0103
0000
0010
0000
,  // measure 81
2002
0000
0000
0000
,  // measure 82
0000
0000
0000
3000
,  // measure 83
0000
0000
0000
0000
,  // measure 84
0000
0000
0000
0003
;
