#TITLE:Caleb;
#SUBTITLE:;
#ARTIST:Sonata Arctica;
#TITLETRANSLIT:;
#SUBTITLETRANSLIT:;
#ARTISTTRANSLIT:;
#GENRE:;
#CREDIT:;
#MUSIC:caleb.ogg;
#BANNER:ban.png;
#BACKGROUND:bg.png;
#CDTITLE:;
#SAMPLESTART:25.910;
#SAMPLELENGTH:12.000;
#SELECTABLE:YES;
#OFFSET:-0.030;
#BPMS:0.000=100.008
,4.000=96.008
,5.000=104.008
,7.000=95.008
,9.000=103.008
,15.000=92.008
,16.000=100.000
,44.000=200.000
,292.000=100.000
;
#STOPS:;
#BGCHANGES:;
#FGCHANGES:;

//--------------- dance-single - ----------------
#NOTES:
     dance-single:
     :
     Beginner:
     4:
     0,0,0,0,0:
0000
0000
0000
0000
,
2000
0000
0000
3000
,
0000
0001
0000
0000
,
0200
0000
0000
0000
,
0300
0000
0000
0000
,
0001
0000
1000
0000
,
0001
0000
0100
0000
,
0010
0000
1000
0000
,
0001
0000
0010
0000
,
0100
0000
1000
0000
,
0001
0000
0010
0000
,
0100
0000
1000
0000
,
0001
0000
0100
0000
,
0010
0000
1000
0000
,
0001
0000
1000
0000
,
0001
0000
0001
0000
,
1000
0000
0010
0000
,
1000
0000
0001
0000
,
1000
0000
1001
0000
,
1000
0000
0001
0000
,
0100
0000
0010
0000
,
1000
0000
0001
0000
,
0010
0000
0100
0000
,
1000
0000
0001
0000
,
0100
0000
0010
0000
,
1000
0000
0100
0000
,
0010
0000
1001
0000
,
0001
0000
1000
0000
,
0001
0000
0100
0000
,
0010
0000
1000
0000
,
0100
0000
0010
0000
,
0001
0000
1000
0000
,
0001
0000
0100
0000
,
0010
0000
1000
0000
,
0001
0000
1000
0000
,
1001
0000
0000
0001
,
0000
0000
0100
0000
,
0000
0010
0000
0000
,
1000
0000
0000
0001
,
0000
0000
0010
0000
,
0000
0100
0000
0000
,
1001
0000
0000
0001
,
0000
0000
1000
0000
,
0000
0010
0000
0000
,
0100
0000
0000
0001
,
0000
0000
0100
0000
,
0000
0010
0000
0000
,
1001
0000
0000
0001
,
0000
0000
0100
0000
,
0000
0010
0000
0000
,
1000
0000
0000
0001
,
0000
0000
0100
0000
,
0000
0010
0000
0000
,
1001
0000
0000
1000
,
0000
0000
0001
0000
,
0000
0100
0000
0000
,
0010
0000
0000
1000
,
0000
0000
0001
0000
,
0000
1000
0000
0000
,
2002
0000
3003
0002
,
0000
0003
2000
0000
,
3000
0020
0000
0030
,
0200
0000
0300
0002
,
0000
0003
1000
0000
,
0000
0001
0000
0000
,
1000
0000
0000
0001
,
0000
0000
1000
0000
,
1001
0000
0001
0000
,
0100
0000
0100
0000
,
0010
0000
1000
0000
,
1001
0000
0001
0000
,
0100
0000
0010
0000
,
0000
1000
0000
0000
,
1001
0000
0000
0001
0000
0000
0100
0000
,
0000
0010
0000
0000
1000
0000
0000
0100
,
0000
0010
0000
0000
;

//--------------- dance-single - ----------------
#NOTES:
     dance-single:
     :
     Easy:
     7:
     0.243,0.307,0,0.08,0:
0000
0000
0000
0000
,
1000
0001
0100
0010
,
0000
1000
0000
0000
,
0001
1000
0001
0100
,
0000
0000
0000
0000
,
0001
0100
0010
1000
,
0100
0010
0001
0100
,
0010
1000
0100
0010
,
0100
1000
0001
1000
,
1001
0001
0101
0100
,
0110
0010
1000
0001
,
1000
0010
1010
0000
,
1000
0100
1100
0000
,
1000
0001
1001
0000
,
0100
0010
0110
0000
,
0100
0100
0010
0000
,
0100
0100
0001
0000
,
1000
1000
0001
0000
,
0100
0100
0001
0000
,
1000
0001
1000
0000
,
0001
0100
0001
0000
,
0100
0010
1000
0000
,
0001
0100
0001
0000
,
1000
0001
1000
0000
,
0001
0100
0001
0000
,
0010
0100
1000
0000
,
0001
0100
0202
0303
,
2000
0000
0000
0020
,
0000
0000
3030
0000
,
0200
0000
0000
0002
,
0000
0000
0303
0000
,
1000
0001
1000
0000
,
0001
0100
0001
0000
,
0100
0010
0100
0000
,
0001
1000
0001
0000
,
1000
0100
0100
0010
,
0001
0001
0100
0010
,
0010
1000
0001
0001
,
1000
0010
0010
0100
,
0001
0001
1000
0010
,
0010
0100
0001
0001
,
1000
0010
1000
0010
,
1000
0001
1000
0010
,
1000
0001
0100
0001
,
0100
0010
0100
0001
,
0100
0010
1000
0001
,
0010
0100
1000
0001
,
0100
0010
0100
0010
,
0100
0001
1000
0100
,
0010
0100
1000
1000
,
0001
1000
0010
1000
,
0001
0000
0100
0000
0010
0000
0000
1000
,
0000
0001
1000
0100
,
1000
0001
1000
2000
,
3000
1000
0010
0100
,
0001
0100
0010
1000
,
0100
0010
0001
0100
,
0010
1000
0001
0010
,
0100
1000
0001
1000
,
0002
0000
0000
0203
,
0000
0000
0320
0000
,
0000
2030
0000
0000
,
3020
0000
0000
2030
,
0000
0000
3002
0000
,
0000
2003
0000
0000
,
3100
0100
0100
0010
,
0001
0100
0010
1000
,
0001
1000
0010
1000
,
0001
0001
0100
0010
,
0100
0001
1000
0001
,
1000
0010
0100
0001
,
0010
0000
0100
0000
1000
0000
0000
0001
,
0000
0000
1000
0000
0000
0001
0000
0000
,
1000
0000
0000
0001
0000
0000
0100
0000
,
0000
0010
0000
0000
1000
0000
0000
0001
,
0000
1001
0000
0000
;

//--------------- dance-single - ----------------
#NOTES:
     dance-single:
     :
     Medium:
     10:
     0.319,0.362,0.133,0.009,0:
0000
0000
0000
0000
,
1000
0001
0100
0010
,
0000
0100
0000
0000
,
0001
1000
0001
0100
,
0000
0000
0000
0000
,
0001
0100
0100
0010
1000
0001
0001
0100
,
0010
1000
1000
0001
0010
0100
1000
0001
,
0100
0010
1000
0000
0001
0100
0001
0000
,
1000
0010
1000
0000
0001
0100
0001
0100
,
0010
1000
1000
0000
0001
0100
0010
0000
,
1000
0100
0010
0000
0001
1000
0001
0000
,
1000
0000
0001
0000
1000
0010
0000
0000
,
0100
0000
0001
0000
0010
0001
0000
0000
,
0100
0000
0010
0000
1000
0100
0000
0000
,
1000
0000
0001
0000
1000
0010
0000
0000
,
1000
0000
0001
0000
1000
0020
0000
0000
,
1030
0000
0001
0000
0100
0002
0000
0000
,
0013
0000
0100
0000
0010
0002
0000
0000
,
1003
0001
2002
3003
,
1000
0000
0010
0000
1000
0100
0000
0000
,
0010
0000
0001
0000
0010
0001
0000
0000
,
0100
0000
0010
0000
0100
0001
0000
0000
,
1000
0000
0100
0000
1000
0010
0000
0000
,
1000
0000
0100
0000
0010
0002
0000
0000
,
0103
0000
0010
0000
1000
0200
0000
0000
,
0310
0000
0001
0000
1000
0200
0000
0000
,
0310
0001
0202
0303
,
0001
0100
0001
0000
1000
0002
0000
0000
,
1003
0100
1000
0000
0001
0200
0000
0000
,
0301
0010
0100
0000
1000
0002
0000
0000
,
1003
0100
0010
0000
0001
0100
0000
0010
,
1000
0100
1000
0000
0001
0200
0000
0000
,
0301
0010
0001
0000
0100
0002
0000
0000
,
1003
0100
1000
0000
0001
0100
0000
0001
,
0100
0000
0010
0000
1000
0100
0000
1000
,
0001
0100
0010
0100
,
0001
0100
0010
1000
,
0100
1000
0010
1000
,
0001
0010
0100
0010
,
0001
0100
0010
0100
,
0001
0010
0001
0100
,
0101
0000
0001
0010
0001
0000
0101
0000
,
0100
0010
0100
0000
1010
0000
1000
0100
,
0010
0000
0110
0000
0010
0100
1000
0000
,
1001
0000
0001
1000
0010
0000
0110
0000
,
0100
0001
1000
0000
1100
0000
0100
0010
,
0100
0000
1100
0000
1000
0001
0010
0000
,
0001
0000
0100
0001
0100
0000
0010
0000
,
1000
0100
1000
0000
0001
0000
0100
0010
,
0100
0001
1000
1000
,
0001
0000
1000
0100
1000
0000
0001
0000
,
0100
0000
0010
0000
1000
0010
0000
0010
,
0000
1000
0001
0000
0100
0000
0001
0000
,
1001
1000
0001
0202
,
0303
0100
0010
0000
1000
0000
0001
0000
,
1000
0010
1000
0000
0001
0100
0010
0000
,
1000
0100
0000
1000
0000
0001
1000
0000
,
0010
0000
0100
0000
0001
0100
0001
0000
,
0100
0000
0010
1000
0000
0010
1000
0001
,
1000
0100
1000
0000
0010
0000
0100
0001
,
0100
0000
0010
0000
1000
0100
1000
0000
,
0001
0000
0100
0010
0100
0000
0001
0000
,
1000
0100
1000
0000
0001
0000
0010
0100
,
1000
0000
0001
0000
0100
0010
0100
0000
,
0001
0000
0100
0010
0100
0000
0001
0000
,
1000
0010
1000
0010
1000
0000
0001
0100
,
0001
0100
0001
0000
1000
0000
1000
0000
,
0001
0010
0001
1000
0001
1000
0010
0000
,
0100
0000
0001
0000
0010
0001
1000
0010
,
0100
0000
0010
1000
0010
1000
0001
1000
,
0001
0010
0001
0100
0001
0000
1001
0000
,
1000
0010
1000
0001
1000
0000
0000
0010
,
0000
0100
0001
0100
,
0001
1000
0010
1000
0100
1000
0001
0100
,
0010
1000
0000
0000
0001
0100
0001
0100
,
0010
1000
2002
0000
3003
0000
0000
0000
;

//--------------- dance-single - XMOD XO FS BR- DS ----------------
#NOTES:
     dance-single:
     XMOD XO FS BR- DS:
     Hard:
     13:
     0.601,0.753,0.151,0.027,0.474:
0000
0000
0000
0000
,
1000
0001
0100
0010
,
0000
1000
0000
0000
,
0001
1000
0001
0100
,
0000
0000
0000
0000
,
0001
1000
0001
0000
0100
0010
0000
0000
0100
0001
0100
0000
0010
1000
0000
0000
,
0100
1000
0100
0000
1000
0001
0000
0000
0100
0010
0100
0000
0001
1000
0001
1000
,
0010
0100
0001
0000
0100
0010
0000
0000
0100
0010
0100
0000
0001
0010
0000
0000
,
0001
0100
0001
0000
0100
0010
0000
0000
1000
0100
1000
0000
0001
0100
0001
0100
,
0001
1000
0010
0000
1000
0100
0000
0000
0010
0001
0010
0000
0001
0100
0000
0000
,
0010
1000
0100
0000
1000
0001
1000
0000
0010
1000
0010
0000
2000
0000
0000
0000
,
3001
1000
0010
0000
1000
0100
00M0
0100
,
0010
1000
0100
0000
1000
0010
0M00
0010
,
0001
0100
0010
0000
1000
0100
00M0
0100
,
0001
0100
0010
0000
1000
0010
0M00
0010
,
0001
1000
0010
0000
1100
0001
0000
1000
,
0001
0100
0001
0000
1100
0001
0000
1000
,
0010
0100
0001
0000
1010
0001
0000
1000
,
0100
0010
0001
0000
0011
0000
0010
0000
,
0001
1000
0001
0000
1000
0010
0M00
0010
,
0001
0100
0001
0000
1000
0100
00M0
0100
,
0001
0100
0010
0000
1000
0100
00M0
0100
,
0010
1000
0001
0000
1000
0010
000M
0010
,
0100
1000
0001
0000
0101
1000
0000
0001
,
0100
0001
1000
0000
0011
1000
0000
0001
,
0010
0100
1000
0000
0101
1000
0000
0001
,
1000
0010
1000
0000
2020
0000
3030
0000
,
1000
0100
1000
0000
0010
0100
0000
0001
,
0010
0001
0100
0000
0010
1000
0000
0100
,
1000
0001
0100
0000
0001
0010
0000
0100
,
1000
0001
1000
0000
0001
0010
0000
0100
,
1000
0001
1000
0000
0100
0010
0000
0001
,
0100
0001
0100
0000
0010
1000
0000
0100
,
1000
0001
0100
00M0
0100
1000
0000
1000
,
0100
00M0
0100
0000
0001
0000
0000
0000
1001
0000
0000
0000
1000
0000
0000
0000
,
0001
010M
1000
0001
,
001M
1000
0001
010M
,
1000
0001
001M
1000
,
0001
001M
0100
0001
,
001M
0100
0001
001M
,
1000
0001
010M
1000
,
1001
0000
0001
0100
1000
0100
0002
0000
,
1003
0010
0001
0010
2000
0000
3001
0100
,
0010
0001
0020
0000
0130
0001
1000
0010
,
2000
0000
3010
0100
1000
0100
0002
0000
,
1003
0010
0100
0001
0020
0000
0031
0010
,
0100
1000
0002
0000
1003
0010
1000
0001
,
1000
0100
1000
0100
1000
0010
0100
0001
,
0100
0010
0100
0001
0010
0100
1000
0100
,
0010
0001
1000
0010
1000
0100
1000
0010
,
1000
0001
0100
0001
0100
0001
0010
0100
,
1000
0001
0100
0001
0100
0010
0000
1000
,
0000
0100
1000
0000
0001
1000
0010
1000
,
0001
0000
0101
0000
0110
0000
0010
1000
,
0100
1000
0100
0010
0001
0100
0001
0100
,
0000
0010
1000
0000
0001
0100
0001
1000
,
0010
1000
0100
0010
0001
1000
0001
0000
,
1000
0001
1000
0100
0010
0001
0010
0100
,
1000
0000
0001
1000
0000
0010
1000
0001
,
1000
0100
0010
0001
1000
0000
0001
0100
,
0001
0100
0010
0000
1000
0100
1000
0001
,
1000
0000
0010
0100
0001
0100
0010
0000
,
1000
0100
0010
0001
1000
0000
0010
1000
,
0100
1000
0010
0000
0100
0001
0010
0001
,
0100
0000
0001
0010
0100
1000
0001
0000
,
1001
0000
1000
0010
1000
0100
1000
0001
,
1000
0100
0010
0001
0010
0100
1000
0000
,
0001
0000
0100
00M0
0100
0000
0000
0000
1000
0000
0000
0000
1100
0000
0000
0000
,
0100
0000
0010
0000
0001
0000
1000
0000
0001
0000
0100
00M0
0100
0000
0000
0000
,
1000
0000
0001
0000
0100
00M0
0100
0000
1000
0000
0010
0000
0100
0000
0001
0000
,
1000
0100
0010
0000
0001
0000
0101
0000
,
0100
0010
1000
0001
0010
0100
0010
0001
,
1000
0001
0100
0010
0100
0001
0100
0000
,
0001
0010
0100
1000
0010
1000
0001
0100
,
0001
1000
0000
0000
0001
1000
0010
1000
,
0001
1000
0001
0000
0000
0000
0000
0000
;

//--------------- dance-single - XMOD FS+ BR XO SS SJ DS ----------------
#NOTES:
     dance-single:
     XMOD FS+ BR XO SS SJ DS:
     Challenge:
     15:
     0.697,0.92,0.213,0.027,0.559:
0000
0000
0000
0000
,
1000
0001
0100
0020
,
0030
1000
0000
0000
,
1001
1000
0010
0100
,
0000
0000
0000
0000
,
1000
0001
0010
0010
1000
0010
0010
0001
1000
0100
0010
0010
1000
0100
0100
0001
,
1000
0001
0100
0100
1000
0010
0010
0001
0100
0010
1000
0000
0001
0100
0010
0100
,
0001
1000
0010
0010
0001
0100
0100
1000
0001
0100
0010
0010
0001
0010
0010
0100
,
0001
1000
0100
0100
0001
0100
0100
1000
0001
0100
0001
0000
1000
0100
0010
0001
,
1000
0010
1000
0100
0001
0100
0000
1000
1001
0001
0100
0100
1000
0100
0100
0001
,
1000
0010
0100
0100
1000
0100
0100
0001
1000
0010
1000
0000
0010
0000
1000
0000
,
0001
1000
0001
0000
1100
0001
0000
1000
,
0001
0100
0010
0000
1100
0010
0000
1000
,
0100
0010
0001
0000
1010
0001
0000
1000
,
0001
0100
0001
0000
1010
0001
0000
0100
,
0010
1000
0010
0000
0011
1000
0000
0100
,
0010
0001
1000
0000
1010
0001
0000
1000
,
0100
0010
0001
0000
1100
0001
0000
1000
,
0010
0100
0001
0000
2002
0000
3003
0000
,
1000
0001
1000
0000
0001
0100
0000
1000
,
0100
0001
0100
0000
0001
0010
0000
1000
,
0010
0001
0100
0000
0001
0100
0000
1000
,
0100
0001
0100
0000
0010
1000
0001
0100
,
0010
0100
0001
0000
1010
0001
0000
0001
,
1000
0100
1000
0000
1100
0001
0000
0010
,
0100
1000
0001
0000
1010
0001
0000
1000
,
0100
0010
0001
0000
2002
0000
3003
0000
,
1000
0100
1000
0100
0010
0001
0100
0010
,
1000
0001
0100
0000
0011
1000
0000
0001
,
0100
00M0
0100
0000
1000
0000
0000
0000
0101
0000
1000
0000
0000
0000
0001
0000
,
0010
0100
1000
0000
1100
0001
0000
1000
,
0100
00M0
0100
0000
0010
0000
0000
0000
1100
0000
0010
0000
0000
0000
1000
0000
,
0100
00M0
0100
0000
0001
0000
0000
0000
0101
0000
1000
0000
0000
0000
0001
0000
,
0100
00M0
0100
0000
1000
0000
0000
0000
0101
0000
0001
0000
0000
0000
0100
0000
,
0010
0100
0010
1000
0001
0100
0010
0000
,
1000
0100
0001
1000
,
0010
0001
1000
0010
,
0001
1000
0100
0001
,
1000
0010
0001
1000
,
0100
0001
1000
0100
,
0001
1000
0010
0001
,
0012
0000
1003
0100
0001
0100
2100
0000
,
3001
0100
0010
1000
1020
0000
1030
0010
,
0001
0010
2010
0000
3001
0100
0010
0100
,
0102
0000
1003
0100
0010
0001
2001
0000
,
3001
0100
0010
0100
0120
0000
0130
0001
,
1000
0100
2100
0000
3001
0100
0010
1000
,
0001
0100
0001
1000
M010
0001
0100
0010
,
1000
0001
010M
1000
0010
0100
0001
1000
,
M100
0001
0100
0010
0100
0001
1000
0010
,
0001
0010
1000
0001
010M
1000
0010
0100
,
0010
0000
1000
0001
0100
0100
0000
0010
,
0000
1000
1001
0000
0001
0100
0001
0100
,
0010
0000
1000
0100
0001
0100
2000
0000
,
3001
0000
0010
0M00
0010
0000
1000
0000
0001
0000
0100
0000
0010
0000
0001
0000
,
0010
0000
1000
0000
0100
0000
1000
0000
0010
0M00
0010
0000
0001
0000
0000
0000
,
1000
0100
0001
0100
0000
1000
1010
0000
,
0010
0000
0100
0000
0001
0000
0100
0000
0010
M000
0010
0000
0001
0000
0000
0000
,
0100
0001
1000
0001
1000
0010
001M
0010
,
1100
0001
0100
0010
1000
0001
1010
0001
,
0100
0010
0100
0001
1100
0001
0010
0100
,
1000
0001
1010
0001
1000
0100
0010
0001
,
1100
0001
0100
0001
1000
0001
1100
0010
,
1000
0001
0010
0000
0011
0001
0100
0010
,
1000
0001
1100
0010
0100
0001
0010
0100
,
1000
0001
0100
01M0
0100
0100
0100
0100
,
1000
0000
0100
0000
0100
0000
0010
0000
0001
0000
1000
0000
0100
0000
0001
00M0
,
0001
0000
1000
0000
0010
0000
1000
0000
0010
0000
0001
0M00
0001
0000
0010
0000
,
0100
0000
1000
0000
0100
0000
0001
00M0
0001
0000
0100
0000
0010
0000
1000
0000
,
0010
0000
0001
0M00
0001
0000
0010
0000
0100
0000
1000
0000
0100
0000
0001
00M0
,
0001
0000
0100
0000
0010
0000
1000
0000
0010
0000
0001
0M00
0001
0000
1000
0000
,
0010
0000
1000
0000
0100
0000
0001
00M0
0002
0000
0100
0000
0103
0000
0002
0000
,
0000
0000
0003
0000
1001
0000
1000
0000
0001
0100
0001
0000
0101
0000
0000
0000
,
0100
0010
1000
0010
0010
0100
0001
0100
,
0100
0010
1000
0100
0010
0010
0001
0100
,
0100
0010
0200
0000
0000
0000
0000
0000
,
0300
0000
0000
0000
;
