#TITLE:C.Q.C;
#SUBTITLE:;
#ARTIST:TORIENA;
#TITLETRANSLIT:;
#SUBTITLETRANSLIT:;
#ARTISTTRANSLIT:;
#GENRE:;
#CREDIT:;
#BANNER:CQC-bn.png;
#BACKGROUND:CQC-bg.png;
#LYRICSPATH:;
#CDTITLE:;
#MUSIC:CQC.ogg;
#OFFSET:0.005000;
#SAMPLESTART:34.567917;
#SAMPLELENGTH:15.000000;
#SELECTABLE:YES;
#BPMS:0.000000=170.000000
;
#STOPS:
;
#BGCHANGES:;
#KEYSOUNDS:;
#ATTACKS:;

//---------------dance-single - ----------------
#NOTES:
     dance-single:
     :
     Medium:
     13:
     0.568798,0.706153,0.191499,0.398956,0.059843,499.000000,475.000000,24.000000,50.000000,0.000000,0.000000,0.568798,0.706153,0.191499,0.398956,0.059843,499.000000,475.000000,24.000000,50.000000,0.000000,0.000000:
// measure 0
0000
0000
0000
0000
,  // measure 1
0000
0000
0000
0000
,  // measure 2
0000
0000
0000
0000
,  // measure 3
0000
0000
0000
0000
,  // measure 4
0000
0000
0000
0000
0001
1000
0010
0000
,  // measure 5
1000
0001
0010
0000
0100
1000
0001
0000
,  // measure 6
0100
0010
1000
0000
0001
1000
0100
0000
,  // measure 7
1000
0001
0100
0000
0010
1000
0004
0000
,  // measure 8
0000
0000
0000
0000
0013
0100
0010
0100
,  // measure 9
1000
0001
0100
0000
0010
1000
0001
1000
,  // measure 10
0010
0100
0001
0000
1000
0100
0010
0100
,  // measure 11
1000
0001
0100
0000
0010
0010
0010
1000
,  // measure 12
0001
1000
0001
0000
1000
0010
0100
0001
,  // measure 13
0100
0010
1000
0000
0001
0010
0100
0010
,  // measure 14
0001
0100
0010
0000
1000
0001
0100
0010
,  // measure 15
0100
0001
1000
0000
0100
0100
0100
1000
,  // measure 16
0001
1000
0010
0100
0002
0000
0100
0000
,  // measure 17
0000
1000
0000
1000
,  // measure 18
0000
0010
0000
0010
,  // measure 19
0000
1000
0000
0203
,  // measure 20
0010
0010
0301
0001
,  // measure 21
0001
0000
0001
0010
0100
0000
0100
0000
,  // measure 22
0100
0000
0000
0000
0100
0000
0000
0000
1000
0000
0000
0010
1000
0000
0001
0000
,  // measure 23
1000
0000
0000
0100
1000
0000
0000
0000
0011
0000
0001
0000
1000
0000
0001
0000
,  // measure 24
0100
0010
1000
0000
2010
0000
3001
0000
,  // measure 25
0011
0000
0000
0001
0100
0000
0001
0000
0010
0000
0001
0000
1000
0000
1000
0000
,  // measure 26
0100
1000
0020
0000
0130
0001
0010
0100
,  // measure 27
0010
1000
0010
0100
0010
0001
1000
0010
,  // measure 28
0200
0301
0012
1003
,  // measure 29
1010
0000
0000
1000
0100
0000
1000
0000
0010
0000
1000
0000
0001
0000
0001
0000
,  // measure 30
0100
0001
0020
0000
0130
0000
1000
0010
,  // measure 31
0100
0010
0001
0010
0200
0001
0301
0000
,  // measure 32
2000
0100
3100
0000
2100
0000
3001
0000
,  // measure 33
0101
0000
0000
0001
0010
0000
0001
0000
0100
0000
0001
0000
0010
0000
1000
0000
,  // measure 34
0010
0001
2000
0000
3100
0010
0100
0001
,  // measure 35
0100
0010
0100
1000
0001
0100
0010
0000
,  // measure 36
2000
3001
0020
0130
,  // measure 37
1000
0000
0001
0000
1000
0000
0001
0001
,  // measure 38
1000
1000
0020
0000
0230
0000
1000
0000
,  // measure 39
0010
0002
0303
0000
,  // measure 40
0000
2000
3200
0000
,  // measure 41
0320
0000
0032
0000
,  // measure 42
0203
0000
2300
0000
,  // measure 43
3200
0000
0000
0000
0301
1000
0001
1000
,  // measure 44
0100
0010
0001
1000
0020
0000
0000
0000
,  // measure 45
0230
0000
0302
0000
,  // measure 46
0023
0000
2030
0000
,  // measure 47
3020
0000
0000
0000
0000
0000
0000
0000
0031
1000
0000
0001
1000
0000
0010
0100
,  // measure 48
0000
0010
0100
0000
0001
0010
0000
0100
1000
0000
0001
0000
1000
0000
0001
0000
,  // measure 49
0010
0100
0010
0100
1000
0010
0100
0010
,  // measure 50
1000
0000
1000
0001
0010
0001
1000
0010
,  // measure 51
0100
0001
0100
0010
1000
0001
1000
0001
,  // measure 52
0000
0000
0001
0100
0010
0100
0001
1000
,  // measure 53
0100
0001
0100
1000
0001
0100
0010
1000
,  // measure 54
0100
0000
0100
1000
0010
0100
0010
1000
,  // measure 55
0100
0100
0020
0000
0031
0010
1000
0010
,  // measure 56
0002
0000
0000
0000
1003
0010
1010
0000
,  // measure 57
0100
0001
0101
0000
1000
0000
0101
0000
,  // measure 58
1000
0000
0110
0000
0001
0010
0011
0000
,  // measure 59
0100
1000
1100
0000
0001
0000
1010
1000
,  // measure 60
0001
0000
0110
0000
1000
0100
0001
0100
,  // measure 61
1000
0100
0110
0000
0010
0001
0100
0010
,  // measure 62
1010
0000
0101
0000
0001
1000
0100
0010
,  // measure 63
0001
0001
0200
0000
0310
1000
0100
0001
,  // measure 64
0100
0110
2100
0001
,  // measure 65
0100
0001
0010
0001
,  // measure 66
0001
0010
0000
0100
,  // measure 67
0001
0010
0001
0100
,  // measure 68
0010
3010
0120
0100
,  // measure 69
0100
0000
1030
0001
2000
0000
0100
0000
,  // measure 70
3100
0000
0000
0010
0002
0000
0000
0000
2003
0000
0000
0000
3001
0000
0100
0000
,  // measure 71
0020
2030
3001
0000
,  // measure 72
0000
0000
2100
3010
,  // measure 73
0000
0000
0000
0000
0000
1000
0010
0001
,  // measure 74
0010
1000
0001
0000
0011
0010
0100
0010
,  // measure 75
1000
0010
0100
0010
0001
0100
1000
0100
,  // measure 76
0020
1030
0102
0013
,  // measure 77
0100
1000
0010
1000
0100
0010
0001
0100
,  // measure 78
0001
0010
0100
0100
1000
0010
0001
0010
,  // measure 79
0100
0000
0010
0000
0001
0000
0010
0000
0100
0010
0100
0000
0001
0000
0000
0000
,  // measure 80
1000
0000
0100
0000
1000
0010
0000
1000
0020
0000
0000
0000
0031
0000
0000
0000
,  // measure 81
0010
0100
0001
0010
0100
0010
0001
0100
,  // measure 82
0010
1000
0200
0000
0301
0100
0010
0100
,  // measure 83
0001
0100
0010
0100
1000
0010
0001
0010
,  // measure 84
0200
0000
0302
0000
2003
0000
3100
0010
,  // measure 85
0100
0010
0100
0010
0001
0010
0001
0010
,  // measure 86
0001
1000
0001
1000
0020
0100
0100
0100
,  // measure 87
0100
0100
0100
0200
0330
0000
0000
0000
,  // measure 88
0000
0001
2000
0000
3000
0000
0000
0000
;

//---------------dance-single - ----------------
#NOTES:
     dance-single:
     :
     Hard:
     16:
     0.737499,0.882691,0.263311,0.247353,0.394967,647.000000,614.000000,33.000000,31.000000,0.000000,0.000000,0.737499,0.882691,0.263311,0.247353,0.394967,647.000000,614.000000,33.000000,31.000000,0.000000,0.000000:
0000
0000
0000
0000
,
0000
0000
0000
0000
,
0000
0000
0000
0000
,
0000
0000
0000
0000
,
0000
0000
0000
0000
0001
0100
0010
0000
,
0100
0001
1000
0000
0100
1000
0001
0000
,
1000
0001
0010
0000
0100
1000
0010
0000
,
0100
0010
1000
0000
0001
1000
0100
0040
,
0000
0000
0000
0000
0031
1000
0010
0100
,
1000
0100
0020
0000
1030
0001
0010
0100
,
0001
0100
2000
0000
3100
0010
0001
1000
,
0100
0000
0010
0000
2000
0000
0000
0000
3010
0000
0001
0010
0001
0000
0010
0001
,
1000
0000
0001
0100
0010
0000
0100
0010
1000
0000
0001
0000
0010
0000
0100
0000
,
0001
0100
2000
0000
3001
0100
2000
0000
,
3100
0010
0001
1000
0100
0001
1000
0001
,
0100
0000
0010
0000
0002
0000
0000
0000
0013
0000
0100
0010
0100
0000
0010
1000
,
0001
0000
1000
0100
1000
0000
0001
0010
0200
0000
0000
0000
0010
0000
0000
0000
,
0000
1000
0000
1000
,
0000
0001
0000
0001
,
0000
0010
0000
4300
,
3040
0430
0301
0012
,
0010
0000
0013
0100
1000
0000
2010
0000
,
0010
0000
0000
0000
3010
0000
0000
0000
1000
0000
0001
0010
0001
0000
1000
0000
,
0001
0000
1000
0001
0010
0000
0000
0000
0011
0000
0001
1000
0001
0100
0010
0100
,
1000
0100
1000
0100
0010
2000
3000
0000
2010
0000
0000
0000
3100
0000
0000
0000
,
0011
0000
0000
0001
0100
0000
0001
0000
0010
0001
0000
0000
0100
0000
0001
1000
,
0100
0000
1000
0000
0010
0000
0010
1000
0100
0000
0010
0000
0100
0000
0001
0000
,
0100
0010
0100
0000
1000
0000
0100
0000
0010
0000
0001
0000
0010
0100
0001
0100
,
0020
0031
2100
3010
,
0101
0000
0000
0001
0010
0000
0001
0000
0100
0001
0000
0000
0010
0000
0001
1000
,
0010
0000
1000
0000
0100
0000
0100
1000
0010
0000
0100
0000
0010
0000
0001
0000
,
0010
0100
0010
0000
1000
0000
0001
0000
0010
0100
0010
0000
0001
0000
0100
0010
,
0100
0000
1000
0000
0100
0010
1000
0001
0020
0000
0000
0000
0130
0000
0000
0000
,
1100
0000
0000
1000
0010
0000
1000
0000
0100
1000
0000
0000
0010
0000
1000
0001
,
0010
0000
0100
0000
1200
0000
0000
0000
0301
0000
0100
0000
0010
0100
0010
0000
,
0001
0000
1000
0000
0001
1000
0010
0000
1000
0000
0010
0000
0100
0010
0200
0000
,
1000
0301
0021
1030
,
0010
0000
0100
0000
0010
0000
0100
0100
,
1000
0000
1000
0000
0002
0000
0000
0000
0013
0001
0010
0001
1000
0001
1000
0001
,
1000
0010
1000
0010
0100
0010
0100
0010
0000
0000
0000
0000
0000
0000
0000
0000
,
0000
0000
2000
0000
3100
1000
0001
0010
,
0000
0100
1000
0001
0000
0100
0001
1000
,
0000
0100
1000
0010
0000
0100
0001
1000
,
0100
0000
1000
0000
0010
0000
0100
0000
0001
1000
0001
1000
0001
1000
0000
0001
,
1000
0000
0100
1000
0100
0010
0001
0010
0001
0000
1000
0000
0001
0000
0100
0000
,
0000
0010
1000
0001
0000
0010
0001
1000
,
0000
0010
1000
0100
0000
0010
0100
1000
,
0001
0000
0100
0000
0010
0000
0100
0000
0001
0010
0000
0001
0100
0000
0010
1000
,
0000
0100
1000
0000
0010
0100
0010
1000
0001
0000
1000
0000
0001
0000
1000
0000
,
0010
0100
0010
0100
1000
0100
0001
0010
,
0100
0000
0100
0010
0001
0100
0001
0100
,
0010
1000
0010
1000
0100
0001
0100
1000
,
0000
0000
1000
0100
0010
1000
0001
0100
,
0010
0001
1000
0001
1000
0010
0001
0010
,
1000
0000
1000
0100
0010
0100
0010
0001
,
0100
0010
0001
0000
0001
0010
0100
0001
,
4000
0000
0000
0000
3001
0000
1010
1000
,
0001
1000
1100
0100
0010
0001
0011
1000
,
0010
0000
0101
0001
1000
0001
0011
1000
,
0100
0001
0101
0100
1000
0001
0100
0101
,
0000
0000
1010
0001
1000
0100
0110
0001
,
1000
0010
0110
1000
0001
1000
1100
0001
,
0010
0000
0110
0001
1000
0001
0101
1000
,
0010
0001
0011
0000
0010
0100
0110
0001
,
1000
0000
0010
0000
1000
0001
1000
0001
0200
0000
0000
0000
0010
0000
0000
0000
,
0001
0010
1000
0010
,
0001
0010
0000
1000
,
0010
0001
0340
0000
,
4030
3004
0103
0102
,
0100
0000
0103
0010
1000
0000
2100
0100
,
3100
0000
0000
1000
0100
0000
0000
0000
0020
0000
0000
0000
0001
0000
0001
0000
,
0200
0300
0130
1000
,
0010
0001
0021
1030
,
0000
0000
0000
0000
0000
1000
0100
0001
,
1000
0010
0100
0010
0001
0000
0000
0000
1001
0000
1000
0000
0001
1000
0010
0000
,
0100
0010
0100
0000
0001
1000
0100
0000
0010
0100
0010
0000
0100
1000
0001
0000
,
0102
0013
0021
1030
,
0010
0000
0100
0010
0001
0000
0100
0000
0010
0000
0100
0001
1000
0000
0100
0000
,
1000
0000
0010
0100
1000
0000
1000
0100
0001
1000
0001
0000
1000
0001
0010
0000
,
0100
0010
0100
0000
0010
0000
0100
1000
0001
0100
0001
0000
1000
0000
0100
0010
,
0100
0000
1000
0000
0001
0100
0010
0000
1020
0000
0000
0000
0031
0000
0000
0000
,
0010
0000
0100
0010
1000
0000
0100
0000
0010
0000
0100
1000
0001
0000
0100
0000
,
0001
0000
0010
0100
0001
0000
0001
0100
1000
0001
1000
0000
0001
0100
0010
0000
,
0100
0010
0001
0000
0010
0001
0010
0000
0100
0001
1000
0000
0001
1000
0100
0000
,
0020
0000
1030
0000
0210
0000
1300
0100
,
1000
0100
1000
0010
1000
0010
0100
1000
,
0100
0000
1000
0000
0100
0000
0010
0100
0001
1000
0100
1000
0100
0010
0100
0001
,
0100
0010
0100
1000
0001
1000
0010
0100
0000
0000
0000
0000
0000
0000
0000
0000
,
0000
0010
2000
0000
3000
0000
0000
0000
;

//---------------dance-double - ----------------
#NOTES:
     dance-double:
     :
     Hard:
     17:
     0.742059,0.882691,0.263311,0.239374,0.394967,651.000000,618.000000,33.000000,30.000000,0.000000,0.000000,0.742059,0.882691,0.263311,0.239374,0.394967,651.000000,618.000000,33.000000,30.000000,0.000000,0.000000:
00000000
00000000
00000000
00000000
,
00000000
00000000
00000000
00000000
,
00000000
00000000
00000000
00000000
,
00000000
00000000
00000000
00000000
,
00000000
00000000
00000000
00000000
00010000
00000100
00000010
00000000
,
00001000
00000010
00000001
00000000
00001000
00000010
00000100
00000000
,
00001000
00010000
00100000
00000000
01000000
00010000
00100000
00000000
,
01000000
00010000
00001000
00000000
00000100
00000010
00010000
00004000
,
00000000
00000000
00000000
00000000
01003000
00010000
00100000
01000000
,
10000000
01000000
00200000
00000000
01300000
00100000
00001000
00010000
,
00000010
00000100
00002000
00000000
00013000
00100000
10000000
00010000
,
01000000
00000000
00001000
00000000
00100000
00000000
00000000
00000000
00010000
00000000
00100000
00010000
00100000
00000000
01000000
00100000
,
00001000
00000000
00010000
00001000
00010000
00000000
00000010
00001000
00000001
00000000
00000100
00000000
00001000
00000000
00000100
00000000
,
00000010
00010000
00000200
00000000
00000310
00001000
00020000
00000000
,
01030000
10000000
00010000
01000000
00001000
00100000
01000000
00010000
,
00001000
00000000
00000010
00000000
00000200
00000000
00000000
00000000
00001300
00000000
00000001
00000100
00000001
00000000
00001000
00000100
,
00010000
00000000
00001000
00100000
00010000
00000000
01000000
00001000
00020000
00000000
00000000
00000000
00000010
00000000
00000000
00000000
,
00000000
00001000
00000000
00001000
,
00000000
00100000
00000000
00100000
,
00000000
00001000
00000000
00030400
,
00000340
00000034
00000103
00002010
,
00000010
00000000
00003010
00000100
00001000
00000000
01020000
00000000
,
01000000
00000000
00000000
00000000
01030000
00000000
00000000
00000000
00100000
00000000
10000000
00010000
00100000
00000000
00010000
00000000
,
01000000
00000000
00010000
10000000
01000000
00000000
00000000
00000000
01100000
00000000
00100000
00010000
00100000
00001000
00010000
00000100
,
00001000
00000001
00001000
00000010
00000100
00000020
00000030
00000000
00002010
00000000
00000000
00000000
00003100
00000000
00000000
00000000
,
00000011
00000000
00000000
00000001
00001000
00000000
00000010
00000000
00010000
00001000
00100000
00000000
01000000
00000000
10000000
00010000
,
01000000
00000000
00001000
00000000
00100000
00000000
00010000
01000000
00100000
00000000
00010000
00000000
00001000
00000000
00000100
00000000
,
00001000
00010000
00001000
00000000
01000000
00000000
00010000
00000000
00100000
00000000
00001000
00000000
00000010
00000100
00010000
00001000
,
00200000
00310000
01020000
00130000
,
11000000
00000000
00000000
10000000
00010000
00000000
01000000
00000000
00001000
00010000
00000100
00000000
00000010
00000000
00000001
00001000
,
00000010
00000000
00010000
00000000
00000100
00000000
00001000
00000010
00000100
00000000
00001000
00000000
00010000
00000000
00100000
00000000
,
00010000
00001000
00010000
00000000
00000010
00000000
00000100
00000000
00000001
00001000
00000001
00000000
00000010
00000000
00001000
00010000
,
00001000
00000000
00010000
00000000
01000000
10000000
00010000
10000000
00200000
00000000
00000000
00000000
01300000
00000000
00000000
00000000
,
10100000
00000000
10000000
00010000
01000000
00000000
00001000
00000000
00100000
00001000
00010000
00000000
00000100
00000000
00001000
00000100
,
00000010
00000000
00001000
00000000
00001020
00000000
00000000
00000000
00000031
00000000
00000100
00000000
00000010
00000100
00001000
00000000
,
00010000
00000000
00001000
00000000
00010000
01000000
00100000
00000000
00010000
00000000
10000000
00000000
00100000
01000000
00200000
00000000
,
00010000
10300000
00020000
00031000
,
00000001
00000000
00000001
00000000
00000001
00000000
00000010
00001000
,
00010000
00000000
00100000
00000000
20000000
00000000
00000000
00000000
30100000
10000000
00100000
10000000
00001000
00100000
00001000
00100000
,
00000010
00010000
00000010
00010000
00000001
00000010
00000001
00000010
00000000
00000000
00000000
00000000
00000000
00000000
00000000
00000000
,
00000000
00000000
20000000
00000000
31000000
00010000
00001000
00100000
,
00000000
00001000
00010000
00000010
00000000
00001000
00000001
00000100
,
00000000
00001000
00010000
00100000
00000000
01000000
00100000
10000000
,
01000000
00000000
10000000
00000000
00100000
00000000
00010000
00000000
00001000
00010000
00001000
00010000
00001000
00010000
00000000
00001000
,
00000010
00000000
00000001
00000010
00000001
00001000
00000001
00000100
00000001
00000000
00001000
00000000
00000100
00000000
00000010
00000000
,
00000000
00001000
00010000
01000000
00000000
00010000
00001000
00010000
,
00000000
00000100
00001000
00000010
00000000
00000001
00000010
00000100
,
00001000
00000000
00010000
00000000
00100000
00000000
10000000
00000000
00010000
00100000
00000000
00001000
01000000
00000000
00000100
00010000
,
00000000
00000010
00001000
00000000
00000010
00010000
00001000
01000000
00010000
00000000
10000000
00000000
00010000
00000000
10000000
00000000
,
01000000
00010000
01000000
00010000
00001000
00000100
00001000
00010000
,
00100000
00000000
00100000
01000000
00001000
00010000
00001000
00010000
,
00001000
00000010
00001000
00000010
00000001
00000100
00001000
00000100
,
00000000
00000000
00000100
00000001
00001000
00000100
00000001
00001000
,
00000010
00001000
00010000
00001000
00010000
01000000
00100000
00010000
,
01000000
00000000
01000000
00100000
00010000
00001000
00000010
00000001
,
00001000
00000100
00010000
00000000
00010000
01000000
00100000
00001000
,
00040000
00000000
00000000
00000000
00030010
00000000
00001010
00001000
,
00000100
00000010
00000011
00000001
00001000
00000100
00010000
00001000
,
00011000
00000000
00110000
00010000
01000000
00001000
00011000
00010000
,
00000100
00000010
00000110
00000001
00000100
00001000
00010000
10100000
,
00000000
00000000
10100000
00010000
01000000
00001000
00011000
00010000
,
00000100
00000010
00000110
00000001
00000010
00001000
00010000
01000000
,
11000000
00000000
10010000
10000000
00100000
01000000
01001000
00001000
,
00010000
00000100
00010100
00000000
00010000
00000010
00000110
00000100
,
00000001
00000000
00000010
00000000
00000001
00001000
00000100
00010000
00002000
00000000
00000000
00000000
00010000
00000000
00000000
00000000
,
00100000
00010000
00000010
00010000
,
00100000
00010000
00000000
00010000
,
01000000
00010000
00403000
00000000
,
04300000
03040000
00031000
00002100
,
00000100
00000000
00003100
00000010
00001000
00000000
00120000
00100000
,
00130000
00000000
00000000
00010000
00100000
00000000
00000000
00000000
02000000
00000000
00000000
00000000
10000000
00000000
10000000
00000000
,
00200000
00300000
03010000
00001000
,
00000010
00000001
00000012
00000103
,
00000000
00000000
00000000
00000000
00000000
00000001
00000100
00001000
,
00010000
00100000
01000000
00100000
10000000
00000000
00000000
00000000
10100000
00000000
00100000
00000000
10000000
00010000
00100000
00000000
,
00001000
00010000
00001000
00000000
00010000
00000010
00001000
00000000
00000001
00001000
00000100
00000000
00000010
00000100
00000001
00000000
,
00000201
00001300
00002100
00003010
,
00000100
00000000
00000010
00000100
00001000
00000000
00010000
00000000
00001000
00000000
00010000
01000000
00100000
00000000
00010000
00000000
,
10000000
00000000
00100000
01000000
10000000
00000000
10000000
01000000
00010000
10000000
00010000
00000000
00100000
00001000
00010000
00000000
,
00001000
00010000
00000010
00000000
00000100
00000000
00001000
00000100
00000010
00001000
00000001
00000000
00000010
00000000
00000100
00010000
,
00001000
00000000
00100000
00000000
01000000
00100000
10000000
00000000
10200000
00000000
00000000
00000000
00310000
00000000
00000000
00000000
,
01010000
00000000
01000000
00100000
00010000
00000000
00001000
00000000
00010000
00000000
00001000
00000010
00000100
00000000
00001000
00000000
,
00000001
00000000
00000100
00000010
00000001
00000000
00000001
00000010
00001000
00000001
00001000
00000000
00000100
00000010
00001000
00000000
,
00010000
01000000
00100000
00000000
00010000
00000000
10000000
00100000
01000000
00001000
00010000
00000000
00000010
00001000
00000001
00000000
,
00000020
00000000
00001030
00000000
00001020
00000000
00000031
00001000
,
00000001
00000100
00000010
00000100
00001000
00010000
00100000
01000000
,
00100000
00000000
10000000
00000000
00010000
00000000
10000000
01000000
10000000
00010000
10000000
00100000
01000000
00001000
00010000
00000010
,
00000100
00000001
00001000
00000001
00000010
00000100
00000010
00000001
00000000
00000000
00000000
00000000
00000000
00000000
00000000
00000000
,
00000000
00100000
02000000
00000000
03000000
00000000
00000000
00000000
;
