#TITLE:Buffalo Stance;
#SUBTITLE:;
#ARTIST:Neneh Cherry;
#TITLETRANSLIT:;
#SUBTITLETRANSLIT:;
#ARTISTTRANSLIT:;
#GENRE:;
#CREDIT:;
#MUSIC:Buffalo Stance.ogg;
#BANNER:;
#BACKGROUND:;
#CDTITLE:;
#SAMPLESTART:38.652;
#SAMPLELENGTH:11.197;
#SELECTABLE:YES;
#OFFSET:-0.582;
#BPMS:0.000=107.170
,88.750=136.170
,89.000=107.170
,152.000=107.100
;
#STOPS:;
#DISPLAYBPM:107.000;
#BGCHANGES:;
#FGCHANGES:;

//--------------- dance-single - eataninja ----------------
#NOTES:
     dance-single:
     eataninja:
     Beginner:
     2:
     0,0,0,0,0:
0000
0000
0000
0000
,
0000
0000
0000
0000
,
0000
0000
0000
0000
,
0000
0000
0000
0000
,
0000
0000
0000
0000
,
1001
0000
0001
0000
,
0100
0000
0010
0000
,
0100
0000
0001
0000
,
1000
0000
0100
0000
,
0010
0000
0001
0000
,
0001
0000
0100
0000
,
0010
0000
1000
0000
,
0001
0001
0001
0000
,
0010
0000
0000
0000
,
0110
0000
0000
0000
,
0100
0000
0000
0000
,
0110
0000
0000
0000
,
2000
0000
3000
0001
,
0200
0000
0300
0000
,
0002
0000
0003
1000
,
0200
0000
0300
0000
,
1001
0000
1001
0000
,
0002
0000
0003
1000
,
0020
0000
0030
0000
,
2000
0000
3000
0001
,
0020
0000
0030
0000
,
0100
0100
0100
0000
,
1000
1000
1000
0000
,
0001
0001
0001
0000
,
0100
0100
0100
0000
,
1001
0000
0001
0000
,
0010
0000
0100
0000
,
2000
0000
3000
0000
,
0010
0000
0100
0000
,
0002
0000
0003
0000
,
1000
0000
0001
0000
,
0020
0000
0030
0000
,
0100
0000
1000
0000
,
0002
0000
0003
0000
,
1000
1000
0000
0001
,
0020
0000
0030
0000
,
0001
0001
0001
0000
,
0100
0000
0000
0000
,
0001
0001
0000
1000
,
0200
0000
0300
0000
,
1000
1000
1000
0000
,
0010
0000
0000
0000
,
0100
0100
0000
0001
,
2000
0000
3000
0000
,
1001
0000
0000
0000
;

//--------------- dance-single - eataninja ----------------
#NOTES:
     dance-single:
     eataninja:
     Easy:
     6:
     0,0,0,0,0:
0000
0000
0000
0000
,
0000
0000
0000
0000
,
0000
0000
0000
0000
,
0000
0000
0000
0000
,
0000
0000
0000
0000
,
1001
0000
1000
0000
0010
0100
0010
0000
,
1000
0000
0001
0000
0010
0010
0100
0000
,
1000
0001
1000
0000
0001
0100
0001
0000
,
1000
0001
0010
0000
0100
0000
0100
0000
,
1000
0000
0001
0000
0100
0010
1000
0000
,
0001
0010
0100
0000
1000
0000
1000
0000
,
0001
0100
0001
0000
1000
1000
0001
0000
,
0010
0000
0100
0000
0001
0100
1000
0000
,
0001
0101
0000
1000
,
0001
0010
0100
0000
0000
0000
0000
0000
,
1000
1010
0000
0001
,
1000
0001
0001
0000
0010
0010
0010
0000
,
0210
0001
1300
1010
,
0210
0000
1000
0000
0001
0001
0301
0000
,
0120
0001
1030
1100
,
0120
0000
1000
0000
0001
0001
0031
0000
,
0100
1000
0010
0001
,
1000
0100
1000
0000
0001
0000
0100
0000
,
0110
0000
1001
0000
0010
0100
1000
0000
,
0001
0101
1100
0010
,
0100
0100
0100
0000
0001
0000
1000
0000
,
0100
0010
0001
0000
1000
1000
1000
0000
,
0010
0100
0010
0000
1000
0001
1000
0000
,
0100
0001
0100
0000
0010
0010
0001
0000
,
1000
0010
1000
0000
0001
0001
0100
0000
,
1001
0000
0000
0001
0010
0010
0100
0000
,
2000
0000
3002
0000
,
0203
0000
0000
0000
0000
0010
0310
0000
,
2000
0000
3002
0000
,
0023
0000
0000
0000
0000
0100
0130
0000
,
2000
3002
0203
0000
,
0320
0000
0000
0000
0000
0100
0130
0000
,
0002
2003
3200
0000
,
0310
1000
0100
0001
,
0010
0100
1000
0000
0001
0000
0101
0000
,
1000
0010
1000
0000
0001
0000
0011
0000
,
1000
0100
0010
1001
,
0001
0001
0100
0000
1000
0100
0001
0000
,
0100
0010
1000
0000
0001
0000
0011
0000
,
1000
0100
1000
0000
0001
0000
0101
0000
,
1000
0010
0100
1001
,
0001
0001
0010
0000
1000
0010
0001
0000
,
1000
0100
1000
0000
0001
0000
0101
0000
,
0010
1000
0010
0000
0100
0000
1001
0000
,
0020
0000
0000
0000
,
0030
0000
0000
0000
;

//--------------- dance-single - eataninja ----------------
#NOTES:
     dance-single:
     eataninja:
     Medium:
     9:
     0,0,0,0,0:
0000
0000
0000
0000
,
0000
0000
0000
0000
,
0000
0000
0000
0000
,
0000
0000
0000
0000
,
0000
0000
0000
0000
,
1000
0100
0001
0001
0100
0010
0001
1000
,
0010
0100
0001
0001
1000
1000
0100
0010
,
1000
0010
0001
1000
0010
0100
0001
0010
,
0100
0100
1001
0000
0001
0100
0010
0000
,
1000
1000
0001
0010
1000
1000
0010
0001
,
0100
0010
1000
1000
0001
0010
0100
1000
,
0001
0100
0001
1000
0010
0010
0100
0001
,
0010
1000
0010
0001
0100
0010
1001
0000
,
1000
0000
0100
0000
1100
0000
0000
0000
0100
0010
0000
0000
0001
0000
0000
0000
,
1000
0010
0001
0000
0010
0100
0001
0000
,
1000
0000
0010
0000
1010
0000
0000
0000
0010
0100
0000
0000
0001
0000
0000
0000
,
1000
0100
0100
0010
0010
0001
1000
0000
,
0001
0010
1000
1000
0010
0100
2000
0000
,
3001
0100
1000
0100
0010
0100
0001
0000
,
1000
0100
0001
0100
0010
0010
0001
0000
,
1000
0010
0100
0001
0010
0100
1000
0000
,
0001
0100
0001
0100
0010
1000
0001
0010
,
0100
0000
0000
0000
1100
0000
0000
1000
0000
0001
0100
0000
0010
0000
0000
0000
,
0100
0000
0000
0000
0101
0000
0000
0001
0000
1000
0100
0000
0010
0000
0000
0000
,
0011
0000
0000
0000
1100
0000
0000
1000
0000
0001
0100
0000
0010
0000
0000
0000
,
0110
0000
0000
0000
1001
0000
0000
0001
0000
0010
0100
0000
1000
0000
0000
0000
,
0001
0100
1000
0100
0001
0001
0010
0000
,
0001
0010
1000
0001
0100
0010
0001
0000
,
1000
0010
0001
0010
0100
0100
0100
0000
,
0001
0010
0100
1000
0010
0100
0001
1000
,
0100
0000
0000
0100
0010
1001
1001
0000
,
2000
0000
0000
0000
3020
0000
0000
0230
0000
0000
0000
0000
0000
0000
0301
0000
,
0020
0000
0000
0000
0000
0130
1000
0001
,
2000
0000
0000
0000
3200
0000
0000
0320
0000
0000
0000
0000
0000
0000
0031
0000
,
0200
0000
0000
0000
0000
0310
1000
0001
,
0020
0000
0000
0000
2030
0000
0000
3020
0000
0000
0000
0000
0000
0000
0130
0000
,
2000
0000
0000
0000
0000
3100
0010
0001
,
0200
0000
0000
0000
2300
0000
0000
3200
0000
0000
0000
0000
0000
0000
0301
0000
,
1000
0001
0010
0100
1000
0010
0100
0001
,
1000
0000
0100
0000
0001
0000
0100
0000
0010
0000
0000
0001
0000
0000
1000
0000
,
0010
0000
0100
0000
0010
0000
0000
0000
1000
0000
0000
0100
0000
0000
0010
0000
,
0001
0000
0100
0000
1000
0000
0100
0000
0010
0000
0000
1000
0000
0000
0001
0000
,
0010
0000
0100
0000
0010
0000
0000
0000
0001
0000
0000
0100
0000
0000
0010
0000
,
1000
0000
0001
0000
0010
0000
1000
0000
0010
0000
0000
0100
0000
0000
1000
0000
,
0001
0000
0100
0000
0010
0000
0000
0000
0001
0000
0000
0010
0000
0000
1000
0000
,
0001
0000
1000
0000
0100
0000
0001
0000
0100
0000
0000
0010
0000
0000
0001
0000
,
1000
0000
0010
0000
0100
0000
0000
0000
1000
0000
0000
0100
0000
0000
0001
0000
,
0100
0000
0010
0000
1000
0000
0001
0000
0010
0000
0000
1000
0000
0000
0010
0000
,
0100
0000
1000
0000
0001
0000
0100
0000
0010
0000
0000
0001
0000
0000
0010
0000
,
0200
0000
0000
0000
,
0300
0000
0000
0000
;

//--------------- dance-single - eataninja ----------------
#NOTES:
     dance-single:
     eataninja:
     Hard:
     13:
     0,0,0,0,0:
0000
0000
0000
0000
,
0000
0000
0000
0000
,
0000
0000
0000
0000
,
0000
0000
0000
0000
,
0000
0000
0001
0000
0000
0001
0000
0000
1000
0000
0000
1000
0000
0000
0010
0002
,
0000
0000
0013
0000
0100
0001
1000
0000
0100
0000
0010
0001
0000
0000
1000
0010
,
1000
0000
0001
0100
0010
0100
0001
1000
0100
0010
0001
0000
0100
0000
0010
1000
,
0001
0000
0010
2000
0000
0000
3010
0100
0010
0000
0001
1000
0000
0000
0010
0100
,
0001
0000
1000
0000
1100
0000
0000
0100
0001
0000
0100
0000
0010
0001
0010
0001
,
1000
0010
0000
0200
0000
0000
0301
0000
1000
0100
0000
0010
0000
0000
1000
0010
,
0001
0000
1000
0010
1000
0000
0001
0100
0010
0000
0100
1000
0000
0000
0100
0000
,
0010
1000
0000
1001
0000
0000
1000
0010
1000
0000
0100
0000
0001
0000
0100
0010
,
0001
0000
1000
0000
0010
0000
0100
0010
1000
0000
0001
0000
0010
0100
0000
0100
,
1000
0000
1000
0000
1001
0000
0000
0001
0000
0100
0010
0000
0010
1000
0000
0100
,
0010
0000
1001
0000
0001
0000
0000
1000
0000
0100
0000
0100
0000
1000
0010
1000
,
0001
0000
0001
0000
1001
0000
0000
1000
0000
0010
0100
0000
0100
0001
0000
0010
,
0100
0000
1000
0000
1000
0000
0001
0100
0001
0100
0010
1000
0010
1000
0001
0010
,
0100
1000
0001
1000
0010
0000
0100
1000
0000
0100
0001
0000
0010
0000
0100
0000
,
1000
0001
1000
0001
0010
0000
0100
0000
1000
0000
0010
0001
0010
0100
0001
1000
,
0000
0100
0010
0000
0001
0000
0010
1000
0000
0010
0100
0000
1000
0000
0001
0000
,
0100
0010
1000
0001
0010
0000
0100
0000
0001
0000
0100
1000
0001
1000
0010
0000
,
0100
0010
1000
0001
0000
0010
0100
0001
0000
0100
0010
0001
0000
0100
1000
0001
,
0010
0000
0100
0000
0001
0000
1000
0010
0000
1000
0001
0000
0010
0000
0100
0000
,
0001
0000
0100
0000
1000
0000
0001
0100
0000
0001
0100
0000
0010
1000
0001
0000
,
0010
0000
0100
0000
1000
0000
0001
0100
0000
0010
0100
0000
0001
0000
1000
0000
,
0100
0000
0001
0000
0100
0000
0010
0001
0000
0010
0001
0000
1000
0000
0010
0100
,
0001
1000
0001
0010
0100
0000
1000
0001
1000
0001
0100
0000
2000
0000
3000
0000
,
0100
0010
1000
0100
0010
0000
0001
1000
0010
0000
0001
0020
0000
0030
0000
0000
,
1000
0001
0010
0001
0100
0000
1000
0100
0001
0000
0100
0000
0110
0000
0000
0000
,
0010
1000
0100
0001
0100
0000
0010
0001
0000
1000
0010
0000
0010
0100
0001
0000
,
0010
0100
1000
0001
0000
0100
0010
0001
0000
0010
0100
0001
0000
0010
1000
0001
,
0100
0000
0000
0000
2000
0000
0000
3002
0000
0000
0100
0000
0003
0000
0000
0001
,
1000
1000
0100
0010
0000
0100
1001
0001
,
0100
0000
0000
0000
0001
0000
0000
2000
0000
0000
0100
0000
3000
0000
0000
1000
,
0001
0001
0100
0010
0000
1001
1001
0000
,
0001
0000
0010
0000
0100
1000
0000
0010
0000
0000
0100
0000
0001
0000
1000
0000
,
0100
0000
0100
0000
0010
0001
0000
1000
0000
0000
0010
0000
0100
0000
0001
0000
,
1000
0000
0010
0000
0100
0001
0000
0010
0000
0000
0100
0000
1000
0000
0001
0000
,
0100
0010
1000
0001
0000
0010
0100
0001
0000
0100
0010
0001
0000
0100
1000
0001
,
0010
0000
0100
0000
0001
0000
0100
0000
0010
0000
1000
0001
0000
0001
0010
0000
,
0100
0000
1000
0000
0001
0000
1000
0000
0010
0000
0100
0001
0000
1000
0100
0010
,
0001
0000
1000
0000
0100
0000
1000
0000
0001
0000
0100
0010
0000
0010
1000
0000
,
0001
0000
0010
0000
0001
0000
1000
0000
0010
0100
0010
0000
1000
0001
0010
0100
,
1000
0000
0010
0000
0001
0000
0010
0000
0100
0001
0100
0001
0000
1000
0010
0000
,
1000
0000
0100
0000
0001
0000
0100
0000
0010
0001
0010
0001
0000
1000
0001
0000
,
0100
0000
0010
0000
0001
0000
0010
0000
0100
0001
0100
0001
0000
1000
0001
0000
,
0010
0000
1000
0000
0010
0000
0100
0000
1000
0001
1000
0001
0000
0100
0010
0100
,
0001
0000
1000
0000
0100
0000
0010
0000
1000
0000
0010
0100
0000
1000
0001
0000
,
0100
0000
0010
0000
1000
0000
0100
0000
0001
0000
0100
0010
0000
0100
1000
0000
,
0002
0000
0000
0000
,
0003
0000
0000
0000
;
