#TITLE:Bubble;
#SUBTITLE:(TeddyLoid Remix);
#ARTIST:Eve feat. Uta;
#TITLETRANSLIT:;
#SUBTITLETRANSLIT:;
#ARTISTTRANSLIT:;
#GENRE:;
#CREDIT:;
#BANNER:Bubble (TeddyLoid Remix).png;
#BACKGROUND:Bubble (TeddyLoid Remix)-bg.png;
#LYRICSPATH:Bubble (TeddyLoid Remix).lrc;
#CDTITLE:;
#MUSIC:Bubble (TeddyLoid Remix).ogg;
#OFFSET:-0.507000;
#SAMPLESTART:42.101707;
#SAMPLELENGTH:16.400007;
#SELECTABLE:YES;
#BPMS:0.000000=146.000000
;
#STOPS:
;
#BGCHANGES:0.000=Bubble (TeddyLoid Remix).avi=1.000=0=0=0=StretchNoLoop====,
99999=-nosongbg-=1.000=0=0=0 // don't automatically add -songbackground-
;
#KEYSOUNDS:;
#ATTACKS:;

//---------------dance-single - ----------------
#NOTES:
     dance-single:
     :
     Challenge:
     13:
     0.693795,0.776925,0.167757,0.360678,0.528435,579.000000,559.000000,20.000000,43.000000,0.000000,0.000000,0.693795,0.776925,0.167757,0.360678,0.528435,579.000000,559.000000,20.000000,43.000000,0.000000,0.000000:
// measure 0
0000
0000
0000
0000
,  // measure 1
0000
0000
0000
0000
,  // measure 2
0000
0000
0000
0000
,  // measure 3
0000
0000
0000
0000
,  // measure 4
2002
0000
0000
0000
3003
0000
0001
0100
0010
0000
0000
0010
0000
0000
1000
0000
,  // measure 5
0100
0000
0000
0100
0000
0000
0010
0000
0001
0000
0000
1000
0000
0000
0001
0100
,  // measure 6
0001
0000
0000
0000
1000
0000
0000
0000
0100
0000
0000
0100
0000
0000
0010
0000
,  // measure 7
0001
0000
0000
0001
0000
0000
1000
0000
0010
0000
0001
0000
0010
0000
1000
0000
,  // measure 8
0001
0000
0000
0000
0000
0000
1000
0010
0100
0000
0000
0100
0000
0000
0001
0000
,  // measure 9
0010
0000
0000
0010
0000
0000
0100
0000
1000
0000
0000
0010
0000
0000
1000
0100
,  // measure 10
1000
0000
0001
0000
2001
0000
3010
0100
,  // measure 11
0001
1000
0100
0010
0001
0100
1000
0100
,  // measure 12
0001
0000
1000
0000
0020
0000
0000
0000
0130
0000
0100
0001
1000
0000
0100
0000
,  // measure 13
0000
1100
0000
1010
0000
0101
0000
1001
,  // measure 14
0002
0000
0000
0000
0103
0000
0010
0000
0010
0000
0000
1000
0100
0000
0000
0010
,  // measure 15
0002
0000
2003
0000
3001
0100
1000
0100
,  // measure 16
0002
0000
0000
2003
0000
0000
0000
3200
,  // measure 17
0000
0310
0010
0002
0000
0203
3000
0310
,  // measure 18
1001
0000
0000
0001
0100
0000
0010
0000
1000
0000
0000
1000
0100
0000
0010
0000
,  // measure 19
0001
0000
0000
0100
0001
0000
0100
0000
0010
0000
0000
0010
1000
0000
0001
0000
,  // measure 20
1000
0000
0010
0100
0010
0000
1000
0000
0001
0000
1000
0100
1000
0000
0001
0000
,  // measure 21
0100
0000
0010
1000
0010
0000
0100
0000
0001
0000
1000
0001
0100
0000
0100
0000
,  // measure 22
0001
0010
0100
0000
0010
0100
1000
0000
0001
0100
0001
0000
1000
0010
1000
0000
,  // measure 23
0100
0010
0001
0000
0010
0001
1000
0000
0001
0100
0001
0000
1000
0010
1000
0000
,  // measure 24
0001
0010
1000
0010
0001
0100
1000
0100
,  // measure 25
0010
0000
0000
0000
0000
0000
0000
0000
0000
0000
0000
1000
0001
0000
0100
0000
,  // measure 26
0101
0000
0100
0000
0010
0000
1000
0001
1000
0001
0100
0000
0001
0010
0000
0100
,  // measure 27
1000
0000
0001
0000
0100
0000
0010
1000
0010
0000
0100
0000
0001
0000
1000
0000
,  // measure 28
2100
0000
0000
3100
0010
0000
1000
0000
0010
0000
0001
0000
1000
0001
0020
0000
,  // measure 29
0000
0000
0230
0000
0000
0000
1330
0000
0010
1000
0001
0000
0100
0000
0001
1000
,  // measure 30
0001
0000
0000
0001
0200
0000
0000
0000
0310
1000
0001
0000
1000
0000
0010
0000
,  // measure 31
0100
0000
0010
0000
1000
0000
0001
0010
0100
0010
0001
0000
1000
0000
0010
0000
,  // measure 32
2010
0000
0000
0000
3001
0000
0010
0000
0100
0000
1000
0000
0010
0100
0001
0000
,  // measure 33
0000
0000
0101
0000
0000
0000
1010
0000
0000
0000
0001
0000
1000
0100
0010
0001
,  // measure 34
1000
0000
0001
0000
0100
0000
0010
1000
0010
1000
0001
0000
0010
0000
0100
0000
,  // measure 35
1000
0000
0001
0000
0100
0000
0010
0100
0001
0000
0001
0000
1000
0000
1000
0000
,  // measure 36
0100
0000
0000
0100
0320
0000
0000
0000
0031
0000
0100
0000
1000
0000
0100
0000
,  // measure 37
0002
0000
0000
2003
0003
0000
3100
0000
0010
0000
0001
0000
0100
0000
0001
1000
,  // measure 38
0001
0000
1000
0100
0000
0100
0010
0000
0001
0000
1000
0000
3001
0000
0102
0000
,  // measure 39
0000
0103
0010
2010
0000
3001
0010
0100
,  // measure 40
1000
0000
0001
0000
0100
0000
0010
0000
0010
0000
1000
0000
0001
0010
0100
1000
,  // measure 41
0010
1000
0010
0100
0010
0001
0010
1000
,  // measure 42
0001
0100
0010
0000
0100
0010
1000
0000
0001
0010
0001
0000
1000
0100
1000
0000
,  // measure 43
0100
0000
0100
0000
0010
0000
0010
0000
0001
1000
0001
0100
0000
0000
0000
0000
,  // measure 44
0201
0000
0000
0000
0310
0000
1000
0000
0301
0000
1000
0100
0010
0000
0001
1000
,  // measure 45
0002
0000
1003
0000
0200
0000
1330
0000
0020
0000
0130
0001
1000
0000
0001
0000
,  // measure 46
0100
0000
0010
0000
1000
0100
0010
0000
0000
0000
0001
1000
0001
0000
0200
0000
,  // measure 47
0000
0000
0310
0000
0010
0000
2000
0000
0000
0000
3001
0000
0010
0000
0001
1000
,  // measure 48
0301
0000
1000
0100
0000
1000
0001
0000
1000
0010
0000
0010
0100
0000
0001
0000
,  // measure 49
0000
1000
0100
1000
0000
0001
0100
0000
0000
0010
0000
0010
0000
1000
0100
0010
,  // measure 50
0002
0000
0000
0000
2003
0000
0000
0000
3001
0100
0001
0000
1000
0001
1000
0001
,  // measure 51
1000
0100
0010
0000
0001
0010
0100
0000
1000
0010
0100
0000
0001
0100
0010
0000
,  // measure 52
1000
0001
1000
0000
0001
1000
0001
0000
0100
0000
0000
0310
0000
0000
1030
0000
,  // measure 53
1010
0000
0010
0000
0100
0000
0001
1000
0001
1000
0010
0000
1000
0100
0000
0010
,  // measure 54
0001
0000
1000
0000
0010
0000
0100
0001
1000
0000
0100
0000
0010
0000
0001
0000
,  // measure 55
0012
0000
0000
0013
0100
0000
0001
0000
0100
0000
1000
0000
0001
1000
0200
0000
,  // measure 56
0000
0000
0320
0000
0000
0000
0331
0000
0100
0001
1000
0000
0010
0000
1000
0001
,  // measure 57
1000
0000
0000
1000
0020
0000
0000
0000
0130
0001
1000
0000
0100
0000
0010
0000
,  // measure 58
0002
0000
0000
0000
1003
0000
0010
0100
0000
0010
0100
0000
0001
0000
1000
0000
,  // measure 59
0200
0000
0000
0000
0313
0000
0020
0000
0000
0000
0031
0000
1000
0000
0001
0010
,  // measure 60
0100
0000
0010
0100
1000
0000
0001
1000
0001
0000
1000
0000
0001
0100
0010
1000
,  // measure 61
0001
0000
1000
0000
0010
0000
0100
0001
0100
0001
1000
0000
0010
0000
2010
0000
,  // measure 62
0000
0000
3031
0000
0010
0000
0001
1000
0100
0000
0100
0000
0010
0000
0010
0000
,  // measure 63
0001
0000
0000
0001
2303
0000
0000
0000
3031
0000
0100
0000
1000
0000
0100
0000
,  // measure 64
0010
0000
1000
0031
0003
1000
3001
0000
0010
0000
0100
0000
1000
0000
0001
1000
,  // measure 65
0001
0000
1000
0010
0000
0010
0100
0000
0001
0000
1000
0000
0001
0000
0012
0000
,  // measure 66
0000
1003
0010
2010
0000
3010
0100
0001
,  // measure 67
1000
0000
0100
0000
0010
0000
0001
0000
1000
0000
0010
0000
1000
0100
0010
0001
,  // measure 68
0100
0001
0100
0010
0100
1000
0100
0001
,  // measure 69
1000
0010
0100
0000
0010
0100
0001
0000
1000
0100
1000
0000
0001
0010
0001
0000
,  // measure 70
0010
0000
0010
0000
0100
0000
0100
0000
1000
0001
1000
0010
0200
0000
0002
0000
,  // measure 71
0000
0303
0000
0000
;

//---------------dance-single - ----------------
#NOTES:
     dance-single:
     :
     Hard:
     11:
     0.571572,0.597635,0.192921,0.469720,0.230666,477.000000,454.000000,23.000000,56.000000,0.000000,0.000000,0.571572,0.597635,0.192921,0.469720,0.230666,477.000000,454.000000,23.000000,56.000000,0.000000,0.000000:
0000
0000
0000
0000
,
0000
0000
0000
0000
,
0000
0000
0000
0000
,
0000
0000
0000
0000
,
2002
0000
0000
0000
3003
0000
0001
0000
0100
0000
0000
0100
0000
0000
0010
0000
,
1000
0000
0000
1000
0000
0000
0001
0000
0010
0000
0000
0010
0000
0000
0100
0000
,
1000
0000
0000
0000
0001
0000
0000
0000
1000
0000
0000
0100
0000
0000
0010
0000
,
0001
0000
0000
1000
0000
0000
0001
0000
0100
0000
1000
0000
0100
0000
0001
0000
,
1000
0000
0000
0000
0001
0000
1000
0000
0010
0000
0000
0010
0000
0000
0100
0000
,
0001
0000
0000
0001
0000
0000
1000
0000
0100
0000
0000
0100
0000
0000
0010
0000
,
0001
0000
2000
0000
3020
0000
0130
0001
,
1000
0001
0100
0010
1000
0100
0010
0001
,
1000
0000
2100
0000
3001
0010
0001
0020
,
0000
2030
0000
3020
0000
0032
0000
1003
,
0020
0000
0000
0000
0130
0000
0001
0000
1000
0000
0000
1000
0100
0000
0000
0000
,
2100
0000
3002
0000
0103
0010
1000
0001
,
2000
0000
0000
3002
0000
0000
0000
0203
,
0000
0010
0320
0000
0000
0130
0000
0000
,
1001
0000
0000
1000
0100
0000
0000
0000
1000
0000
0000
0001
0100
0000
0000
0000
,
0001
0000
0000
1000
0010
0000
0000
0000
1000
0000
0000
0001
0010
0000
0000
0000
,
0001
0000
0000
1000
0010
0000
1000
0000
0010
0000
0000
0100
0001
0000
0100
0000
,
0001
0000
0000
1000
0100
0000
1000
0000
0100
0000
0010
0000
0001
0000
0000
0000
,
1000
0100
0001
0100
1000
0100
0001
0100
,
1000
0010
0001
0010
1000
0010
0001
0010
,
1000
1000
0001
0001
0100
0010
1000
0001
,
1000
0000
0000
0100
,
1001
0000
0001
0000
0100
0000
0010
0000
1000
0000
0001
0000
1000
0100
0000
0000
,
1000
0010
0100
0001
1000
1000
0001
0001
,
0010
0000
0000
0010
0100
0000
1000
0000
0010
0000
0100
0000
0001
0000
1000
0000
,
0000
0000
2010
0000
0000
0000
3001
0100
0000
0001
1000
0000
0001
0000
0010
0000
,
0100
0000
1002
0000
1003
0100
0001
0100
,
2000
0000
3001
0100
0010
1000
0001
1000
,
0200
0000
0310
0010
0001
1000
0010
1010
,
0000
0101
0000
0011
0000
1100
1000
0001
,
1000
0010
0100
0001
0010
0100
1000
1002
,
0000
0103
0010
0100
0001
0010
0100
1000
,
0010
0000
0000
0010
0200
0000
0000
0000
0301
0000
1000
0000
0001
0000
0010
0000
,
0100
0000
0000
0100
0000
0000
1000
0000
0020
0000
0000
0000
0130
0000
0001
1000
,
0001
0000
1000
0010
1000
0001
0010
0012
,
0000
1003
0100
2100
0000
3001
0010
0100
,
1000
0000
0001
0000
0100
0000
0010
0000
1000
0000
0001
0000
1000
0001
1000
0001
,
2000
3200
0320
0032
,
1003
0010
0001
0010
1000
0010
0001
0010
,
1000
0000
0100
0000
0010
0000
0001
0000
1000
0001
1000
0001
0000
0000
0000
0000
,
0102
0000
0000
0000
1003
0000
0010
0000
0100
0000
0001
0100
0001
0000
2000
0000
,
0000
0000
3200
0000
0000
0000
0320
0000
0000
0000
0031
1000
0001
0000
1000
0000
,
0010
0000
0100
0000
0010
1000
0010
0000
0000
0000
1000
0001
1000
0000
0020
0000
,
0000
0000
0130
0000
0001
0000
2300
0000
0000
0003
3001
0000
0020
0000
0000
0000
,
0130
0000
0000
1000
0000
0000
0001
0000
0000
1000
0000
0000
0010
0000
0100
0000
,
0000
0001
0000
1000
0000
0000
0100
0000
0000
1000
0000
0001
0000
0000
0100
0000
,
0020
0000
0000
0000
2030
0000
0000
0000
3301
0000
0010
0000
0001
1000
0001
1000
,
0001
0010
1000
0010
0001
0010
1000
0010
,
0001
0000
0100
0000
1000
0000
0100
0000
0001
0000
0000
1000
0000
0000
0100
0000
,
2100
0000
0000
0000
3001
0000
0100
0000
0010
0000
0100
0000
0001
1000
0000
0000
,
0001
0100
0010
1000
0001
0001
1000
1000
,
0100
0000
0000
0100
0010
0000
0001
0000
0100
0000
0010
0000
1000
0001
1000
0000
,
0000
0000
0102
0000
0000
0000
1003
0100
0000
1000
0100
0000
0010
0000
0001
0000
,
1000
0000
2001
0000
3001
0010
1000
0010
,
0002
0000
1003
0010
0100
0100
0001
0001
,
2000
0000
3130
0010
0001
1000
0001
0201
,
0000
0000
0310
0000
0000
0000
1020
0000
0000
0000
0130
0000
0001
1000
0001
1000
,
0001
0100
0010
1000
0100
0010
0001
1001
,
1000
0010
0100
0001
0100
0010
1000
0001
,
0010
0100
0010
0100
1000
0010
0100
0001
,
1000
0000
0000
3100
0000
0000
0100
0000
0020
0000
0000
0000
0031
0000
1000
0001
,
2000
0000
0000
3230
0000
0000
0310
0000
0001
0000
1000
0000
0001
0000
0201
0000
,
0000
0310
1000
2010
0000
3001
0010
0100
,
1000
0000
0001
0000
0100
0000
0010
0000
0100
0000
0001
0000
1000
0100
1000
0100
,
2000
3020
0230
0302
,
1003
0100
0001
0100
1000
0010
0001
0010
,
1000
0000
0001
0000
0010
0000
0100
0000
1000
0010
1000
0010
2000
0000
0002
0000
,
0000
3003
0000
0000
;

//---------------dance-single - ----------------
#NOTES:
     dance-single:
     :
     Medium:
     8:
     0.400220,0.448226,0.176145,0.452944,0.000000,334.000000,313.000000,21.000000,54.000000,0.000000,0.000000,0.400220,0.448226,0.176145,0.452944,0.000000,334.000000,313.000000,21.000000,54.000000,0.000000,0.000000:
0000
0000
0000
0000
,
0000
0000
0000
0000
,
0000
0000
0000
0000
,
0000
0000
0000
0000
,
2002
0000
3003
0000
1000
0000
0010
1000
,
0010
0000
0100
0001
0100
0000
0001
0000
,
1000
0000
0000
0000
0001
0000
1000
0100
,
1000
0000
0001
0000
1000
0100
0010
0001
,
1000
0000
0000
0000
0101
0000
0100
0001
,
0100
0000
0010
1000
0010
0000
0100
0000
,
0001
0000
0000
0000
1001
0000
1000
0100
,
1000
0000
0001
0000
1000
0100
0010
0001
,
1000
0000
0010
0000
0100
0001
0100
0002
,
0000
0023
0000
0230
0000
2300
0000
3002
,
0000
0000
1003
0000
1000
0100
0010
0000
,
0001
1000
0001
0000
1000
0010
0100
0000
,
0001
0000
0000
0100
0000
0000
0000
0010
,
0000
0010
0010
0000
0000
0000
0000
0000
,
1002
0100
0100
0103
,
0001
0010
0100
0000
0010
0100
1000
0000
,
0020
1000
1000
1030
,
0010
1000
0100
0000
0010
0001
0100
0000
,
0001
1000
0001
0000
1000
0100
1000
0000
,
0001
0100
0001
0000
1000
0010
1000
0000
,
0002
0023
0230
2300
,
3001
0000
0000
0000
,
1001
0000
1100
0000
0001
1000
0100
0000
,
1001
0000
0101
0000
1000
0001
0100
0000
,
0002
0000
0023
0000
0230
0000
1300
0001
,
1000
0010
0100
0000
,
0001
0000
2020
0000
3030
0000
0001
0100
,
0001
0000
1000
0000
0100
0010
0001
0000
,
1000
0000
1000
0000
0001
0000
1000
0100
,
0000
0100
0000
0010
0000
0010
0000
0000
,
1001
0000
0001
0000
1000
0010
0100
0000
,
1010
0000
0010
0000
0100
0001
1000
0000
,
0002
2003
3200
0320
,
0031
0000
1000
0100
2000
0000
3000
0000
,
0001
0000
1000
0000
0010
0000
0100
0001
,
0000
1000
0100
1000
0000
0000
0001
0000
,
1000
0010
0100
0000
0001
0000
1000
0000
,
0020
0000
0100
0130
,
0001
0100
0010
0000
1000
0100
0010
0000
,
0001
1000
0001
1000
0010
0100
0001
0000
,
2002
0000
3003
0000
0001
0100
0010
0200
,
0000
0320
0000
2030
0000
3002
0000
0000
,
1003
0000
1000
0000
0100
0000
1000
0020
,
0000
0130
0001
0200
0000
0000
0301
0000
,
1000
0100
1000
0000
0001
0000
0100
0200
,
0000
0300
0010
0020
0000
0030
1000
0000
,
0002
1000
1000
1003
,
0001
0010
0100
0000
1000
0100
0010
0000
,
0001
1000
0001
1000
0010
0000
0100
0000
,
1001
0000
0011
0000
1000
0001
0010
0000
,
1001
0000
1010
0000
0001
1000
0010
0000
,
2000
0000
3200
0000
0320
0000
0031
1000
,
0001
0000
0100
0000
0010
1000
0001
0000
,
1000
0000
0202
0000
0303
0000
1000
0010
,
1000
0000
0001
0000
0010
0100
1000
0000
,
0001
0000
0001
0000
1000
0000
0001
0010
,
0000
0010
0000
0100
0000
0110
0000
0000
,
1002
0000
1003
0000
0001
0100
0010
0000
,
1020
0000
1030
0000
0010
1000
0001
0000
,
2000
3002
0023
0230
,
1300
0000
0001
0010
0200
0000
1303
0000
,
2001
0000
3001
0000
0100
0000
0010
1000
,
0000
0001
0010
0002
0000
0000
1003
0000
,
0001
1000
0020
0000
0230
0000
0301
0000
,
2000
0001
0001
3001
,
1000
0100
0010
0000
0001
0010
0100
0000
,
1000
0010
1000
0010
0100
0001
2000
0002
,
0000
3003
0000
0000
;

//---------------dance-single - ----------------
#NOTES:
     dance-single:
     :
     Easy:
     5:
     0.263618,0.268936,0.075491,0.159369,0.000000,220.000000,211.000000,9.000000,19.000000,0.000000,0.000000,0.263618,0.268936,0.075491,0.159369,0.000000,220.000000,211.000000,9.000000,19.000000,0.000000,0.000000:
0000
0000
0000
0000
,
0000
0000
0000
0000
,
0000
0000
0000
0000
,
0000
0000
0000
0000
,
2002
3003
1000
0000
,
0001
0100
0010
0010
,
1000
0000
0001
0000
,
1000
0100
0010
0010
,
0001
0000
1000
0000
,
0001
0100
0001
0001
,
1000
0000
0001
0000
,
1000
0100
1000
1000
,
0020
0030
0010
0000
,
1000
0100
0010
0001
,
0200
0300
0100
0000
,
0001
1000
0001
1000
,
0200
0000
0300
0000
,
0020
0000
0030
0000
,
0001
0001
0010
0010
,
0100
0100
2000
3000
,
1000
1000
0010
0010
,
0100
0100
0002
0003
,
1000
0001
1000
0001
,
0100
0010
0100
0010
,
1000
0100
0010
0001
,
0100
0000
0000
0000
,
1001
0001
0100
0000
,
0001
0001
1000
0000
,
0001
0010
0100
0000
,
1000
0010
0100
0000
,
0001
2002
0000
3003
,
1000
1000
0001
0001
,
0010
0100
1000
0010
,
0100
0100
0010
0000
,
1001
1000
0010
0000
,
1000
1000
0100
0000
,
1000
0100
0010
0001
,
0100
0100
0020
0030
,
1000
1000
0001
0000
,
0001
0001
0010
0000
,
0001
0010
0100
1000
,
0020
0030
0010
0000
,
0100
0100
0010
0010
,
1000
0001
1000
0000
,
2002
3003
1000
0100
,
0100
0010
0001
1000
,
0010
0010
0100
0100
,
0010
1000
0001
0000
,
0001
0100
0001
0100
,
0010
0010
1000
0000
,
1000
0100
1000
0100
,
0010
0010
0010
0010
,
0001
1000
0001
0000
,
1001
0001
0100
0010
,
1000
1000
0001
0000
,
1000
1000
0010
0000
,
0100
0100
0001
0000
,
0100
2002
0000
3003
,
0001
0001
1000
0000
,
0001
1000
0100
0000
,
0100
0100
0010
0000
,
1001
1000
0010
0000
,
1000
1000
0001
0000
,
1000
0010
1000
0001
,
0100
0100
0010
0000
,
1000
0100
0010
0000
,
0001
1000
0010
0000
,
0100
0100
0010
0010
,
2000
3000
1000
0000
,
0001
0100
0010
1000
,
0100
0100
0010
2032
,
0000
3003
0000
0000
;

//---------------dance-single - ----------------
#NOTES:
     dance-single:
     :
     Beginner:
     2:
     0.121025,0.178032,0.025164,0.000000,0.000000,101.000000,98.000000,3.000000,0.000000,0.000000,0.000000,0.121025,0.178032,0.025164,0.000000,0.000000,101.000000,98.000000,3.000000,0.000000,0.000000,0.000000:
0000
0000
0000
0000
,
0000
0000
0000
0000
,
0000
0000
0000
0000
,
0000
0000
0000
0000
,
1000
0000
0000
0000
,
0001
0000
0001
0000
,
0001
0000
0000
0000
,
0100
0000
0000
0000
,
0010
0000
0000
0000
,
1000
0000
1000
0000
,
1000
0000
0000
0000
,
0100
0000
0000
0000
,
0010
0000
0010
0000
,
0010
0000
0000
0000
,
0001
0000
0000
0000
,
1000
0000
0000
0000
,
0010
0000
0000
0000
,
0000
0000
0000
0000
,
1000
0000
1000
0000
,
1000
0000
0000
0000
,
0001
0000
0001
0000
,
0001
0000
0000
0000
,
0100
0100
0000
0000
,
0100
0100
0000
0000
,
0010
0000
0010
0000
,
0010
0000
0000
0000
,
1001
0000
0000
0000
,
1000
0000
0000
0000
,
0010
0000
0010
0000
,
0010
0000
0000
0000
,
0100
0100
0000
0000
,
0100
0000
0000
0000
,
0001
0000
0001
0000
,
0001
0000
0000
0000
,
1000
0000
1000
0000
,
1000
0000
0000
0000
,
0010
0000
0010
0000
,
0010
0000
0000
0000
,
0100
0000
0100
0000
,
0100
0000
0100
0000
,
0100
0000
0000
0000
,
0001
0000
0000
0000
,
1000
1000
0000
0000
,
1000
0000
0000
0000
,
1001
0000
0000
0000
,
0001
0001
0000
0000
,
0100
0100
0000
0000
,
0100
0000
0000
0000
,
0010
0010
0000
0000
,
0010
0010
0000
0000
,
1000
0000
1000
0000
,
1000
0000
0000
0000
,
0001
0000
0000
0000
,
1001
0000
0000
0000
,
0001
0000
0000
0000
,
0100
0000
0100
0000
,
0100
0000
0000
0000
,
0010
0010
0000
0000
,
0010
0000
0000
0000
,
1000
0000
1000
0000
,
1000
0000
0000
0000
,
0001
0000
0001
0000
,
0001
0000
0000
0000
,
0100
0000
0100
0000
,
0100
0000
0000
0000
,
0010
0000
0010
0000
,
0010
0000
0010
0000
,
0010
0000
0000
0000
,
1000
0000
0000
0000
,
0001
0001
0000
0000
,
1000
1000
1000
1000
;

//---------------dance-double - ----------------
#NOTES:
     dance-double:
     :
     Challenge:
     13:
     0.690201,0.776925,0.184533,0.402617,0.511659,576.000000,554.000000,22.000000,48.000000,0.000000,0.000000,0.690201,0.776925,0.184533,0.402617,0.511659,576.000000,554.000000,22.000000,48.000000,0.000000,0.000000:
00000000
00000000
00000000
00000000
,
00000000
00000000
00000000
00000000
,
00000000
00000000
00000000
00000000
,
00000000
00000000
00000000
00000000
,
20020000
00000000
00000000
00000000
30030000
00000000
10000000
00100000
01000000
00000000
00000000
01000000
00000000
00000000
00010000
00000000
,
00100000
00000000
00000000
00100000
00000000
00000000
00001000
00000000
00010000
00000000
00000000
00000100
00000000
00000000
00001000
00000001
,
00001000
00000000
00000000
00000000
00000010
00000000
00001000
00000010
00000100
00000000
00000000
00000100
00000000
00000000
00000001
00000000
,
00001000
00000000
00000000
00001000
00000000
00000000
00000001
00000000
00000010
00000000
00001000
00000000
00010000
00000000
01000000
00000000
,
10000000
00000000
00000000
00000000
00010000
00000000
01000000
00001000
01000000
00000000
00000000
00001000
00000000
00000000
00010000
00000000
,
00000100
00000000
00000000
00000100
00000000
00000000
00000010
00000000
00000001
00000000
00000000
00001000
00000000
00000000
00000001
00000100
,
00000001
00000000
00002010
00000000
00003230
00000000
00010300
00001000
,
00100000
00010000
10000000
00100000
10000000
01000000
00010000
00001000
,
00000010
00000000
00000010
00000000
00000002
00000000
00000000
00000000
00000103
00000000
00000001
00001000
00000001
00000000
00001000
00000000
,
00000000
00001100
00000000
00010100
00000000
00011000
00000000
00001000
,
02000000
00000000
00000000
00000000
03100000
00000000
10000000
00000000
00010000
00000000
00000000
10000000
01000000
00000000
00000000
00010000
,
00002000
00000000
00003200
00000000
00000310
00001000
00000001
00001000
,
00000200
00000000
00000000
00020300
00000000
00000000
00000000
00032000
,
00000000
00103000
00100000
02000000
00000000
13300000
00010000
00000000
,
10010000
00000000
00000000
10000000
01000000
00000000
00010000
00000000
00001000
00000000
00000000
00010000
00001000
00000000
00010000
00000000
,
00100000
00000000
00000000
00010000
00001000
00000000
00000010
00000000
00000001
00000000
00000000
00001000
00000001
00000000
00001000
00000000
,
00000010
00000000
00000100
00000001
00000100
00000000
00000010
00000000
00001000
00000000
00000100
00010000
00000100
00000000
00001000
00000000
,
00000010
00000000
00010000
00001000
00100000
00000000
00010000
00000000
01000000
00000000
00100000
10000000
00010000
00000000
00000000
00000000
,
10000000
01000000
00100000
00000000
01000000
00100000
00010000
00000000
00100000
00001000
00100000
00000000
00001000
00010000
00001000
00000000
,
00010000
00000010
00001000
00000000
00000010
00001000
00000001
00000000
00001000
00000001
00001000
00000000
00000001
00000100
00000001
00000000
,
00001000
00000100
00000001
00000100
00010000
00001000
00100000
00010000
,
01000000
00000000
00000000
00000000
00000000
00000000
00000000
00000000
00000000
00000000
00000000
00010000
10000000
00000000
00000000
00000000
,
01010000
00000000
01000000
00000000
00100000
00000000
10000000
01000000
10000000
01000000
00100000
00000000
00010000
00100000
00000000
00001000
,
00010000
00000000
00000100
00000000
00001000
00000000
00000001
00000100
00000001
00000000
00001000
00000000
00000010
00000000
00010000
00000000
,
00021000
00000000
00000000
00031000
00000100
00000000
00001000
00000000
00010000
00000000
00100000
00000000
10000000
00000000
10200000
00000000
,
00000000
00000000
02300000
00000000
00000000
00000000
03010000
00000000
10000000
01000000
00100000
00000000
00010000
00000000
01000000
00010000
,
01000000
00000000
00000000
00001000
00020000
00000000
00000000
00000000
00030100
00000000
00000010
00000000
00000100
00000000
00000010
00000000
,
00000001
00000000
00001000
00000000
00000010
00000000
00001000
00000001
00000100
00000001
00001000
00000000
00000010
00000000
00000100
00000000
,
00000201
00000000
00000000
00000000
00000301
00000000
00000010
00000000
00000100
00000000
00001000
00000000
00000100
00010000
00001000
00000000
,
00000000
00000000
00011000
00000000
00000000
00000000
00201000
00000000
00000000
00000000
00310000
00000000
10000000
01000000
00100000
00010000
,
10000000
00000000
00100000
00000000
01000000
00000000
00001000
00010000
00001000
00010000
00001000
00000000
00010000
00000000
00000100
00000000
,
00000010
00000000
00000001
00000000
00000100
00000000
00000010
00001000
00000001
00000000
00000001
00000000
00001000
00000000
00001000
00000000
,
00020000
00000000
20030000
00000000
31000000
00100000
10000000
00100000
,
00010000
00000000
01000000
00100000
00000000
01000000
00100000
00000000
10000000
00000000
01000000
00000000
30100000
00000000
00001000
00010000
,
00001000
00000000
00010000
00000010
00000000
00000010
00000100
00000000
00000001
00000000
00001000
00000000
00000100
00000000
00002100
00000000
,
00000000
00003001
00000100
00000102
00000000
00001003
00000010
00001000
,
00000100
00000000
00010000
00000000
00001000
00000000
00002000
00000000
00000000
00000000
00103000
00000000
00001000
00010000
00001000
00010000
,
00000100
00001000
00000100
00000010
00000100
00000001
00000100
00001000
,
00000001
00000100
00000010
00000000
00000100
00000010
00001000
00000000
00000100
00010000
00000100
00000000
00010000
00001000
00010000
00000000
,
00001000
00000000
00001000
00000000
00100000
00000000
00100000
00000000
00010000
01000000
00010000
10000000
00000000
00000000
00000000
00000000
,
10200000
00000000
00000000
00000000
01300000
00000000
00010000
00000000
10000000
00000000
00010000
00100000
00001000
00000000
00010000
00001000
,
00020000
00000000
00030100
00000000
00002000
00000000
00003100
00000000
00000020
00000000
00000130
00001000
00000001
00000000
00000100
00000000
,
00000010
00000000
00001000
00000000
00000100
00010000
00001000
00000000
00000000
00000000
00100000
00001000
00100000
00000000
00020000
00000000
,
00000000
00000000
01030000
00000000
00100000
00000000
20000000
00000000
00000000
00000000
30010000
00000000
01000000
00000000
00010000
10000000
,
00010000
00000000
10000000
01000000
00000000
10000000
00010000
00000000
10000000
00100000
00000000
00100000
01000000
00000000
00010000
00000000
,
00100000
00001000
00010000
00001000
00000000
00010000
00000100
00000000
00000000
00000100
00000000
00000010
00000000
00000001
00001000
00000001
,
00000200
00000000
00000000
00000000
00000320
00000000
00000000
00000000
00001030
00000100
00001000
00000000
00000001
00001000
00000001
00001000
,
00000001
00000010
00000100
00000000
00000010
00000100
00001000
00000000
00000100
00010000
00000100
00000000
00010000
00001000
00010000
00000000
,
00001000
00100000
00001000
00000000
00010000
00000100
00010000
00000000
00000200
00000000
00000000
00000320
00000000
00000000
00000031
00000000
,
00000011
00000000
00000001
00000000
00001000
00000000
00000001
00000100
00000001
00000100
00000010
00000000
00001000
00000010
00000000
00010000
,
00001000
00000000
00100000
00000000
00010000
00000000
10000000
00100000
01000000
00000000
00001000
00000000
00100000
00000000
00001000
00000000
,
00012000
00000000
00000000
00013000
00100000
00000000
00010000
00000000
00001000
00000000
00000100
00000000
00000001
00000010
00000200
00000000
,
00000000
00000000
00000320
00000000
00000000
00000000
00000031
00000000
00001000
00000010
00000100
00000000
00000001
00000000
00001000
00000100
,
00010000
00000000
00000000
00000000
00102000
00000000
00000000
00000000
00103000
00010000
01000000
00000000
00100000
00000000
10000000
00000000
,
00020000
00000000
00000000
00000000
10030000
00000000
01000000
00100000
00000000
01000000
00100000
00000000
00010000
00000000
10000000
00000000
,
10200000
00000000
00000000
00000000
01300000
00000000
02000000
00000000
00000000
00000000
03001000
00000000
00010000
00000000
00001000
00100000
,
00001000
00000000
00010000
00001000
00010000
00000000
00000010
00001000
00000010
00000000
00000100
00000000
00000001
00000010
00000100
00001000
,
00000001
00000000
00000100
00000000
00000010
00000000
00010000
00001000
00000000
00001000
00100000
00000000
00010000
00000000
20010000
00000000
,
00000000
33100000
01000000
00010000
10000000
10000000
00010000
00010000
,
00002000
00000000
00003002
00000000
00000013
00000100
00000001
00000100
,
00001000
00000000
00000010
00000100
00000000
00000010
00000100
00000000
00000001
00000000
00000010
00000000
00000103
00000000
00010000
00001000
,
00010000
00000000
00001000
01000000
00000000
01000000
00100000
00000000
10000000
00000000
00010000
00000000
00100000
00000000
00120000
00000000
,
00000000
10030000
00100000
20100000
00000000
30100000
01000000
00010000
,
00100000
00000000
00100000
00000000
00001000
00000000
00020000
00000000
00000000
00000000
00031000
00000000
00010000
00001000
00010000
00001000
,
00100000
00010000
00100000
01000000
00100000
10000000
00100000
00010000
,
10000000
00100000
01000000
00000000
00100000
01000000
00010000
00000000
00100000
00001000
00100000
00000000
00001000
00010000
00001000
00000000
,
00010000
00000000
00010000
00000000
00000100
00000000
00000100
00000000
00001000
00000010
00001000
00000001
00000200
00000000
00000020
00000000
,
00000000
00000330
00000000
00000000
;

//---------------dance-double - ----------------
#NOTES:
     dance-double:
     :
     Hard:
     11:
     0.555995,0.567753,0.167757,0.511659,0.188727,464.000000,444.000000,20.000000,61.000000,0.000000,0.000000,0.555995,0.567753,0.167757,0.511659,0.188727,464.000000,444.000000,20.000000,61.000000,0.000000,0.000000:
00000000
00000000
00000000
00000000
,
00000000
00000000
00000000
00000000
,
00000000
00000000
00000000
00000000
,
00000000
00000000
00000000
00000000
,
00002002
00000000
00000000
00000000
00003003
00000000
00000001
00000000
00000100
00000000
00000000
00000100
00000000
00000000
00000010
00000000
,
00001000
00000000
00000000
00001000
00000000
00000000
00000100
00000000
00010000
00000000
00000000
00010000
00000000
00000000
00001000
00000000
,
00200000
00000000
00000000
00000000
00310000
00000000
10000000
00000000
00100000
00000000
00000000
00100000
00000000
00000000
01000000
00000000
,
00010000
00000000
00000000
00010000
00000000
00000000
00100000
00000000
00001000
00000000
00010000
00000000
00001000
00000000
00010000
00000000
,
00000200
00000000
00000000
00000000
00001300
00000000
00000010
00000000
00000100
00000000
00000000
00000100
00000000
00000000
00000001
00000000
,
00001000
00000000
00000000
00001000
00000000
00000000
00000100
00000000
00010000
00000000
00000000
00010000
00000000
00000000
00001000
00000000
,
00200000
00000000
00320000
00000000
20030000
00000000
30100000
01000000
,
00010000
10000000
00010000
10000000
01000000
00010000
00001000
00000010
,
00000002
00000000
00002003
00000000
00003010
00000100
00000010
00020000
,
00000000
00032000
00000000
00203000
00000000
01300000
10000000
00010000
,
20000000
00000000
00000000
00000000
30100000
00000000
01000000
00000000
00010000
00000000
00000000
00010000
00200000
00000000
00000000
00000000
,
00302000
00000000
00003020
00000000
00000031
00001000
00000001
00000100
,
00000020
00000000
00000000
00020030
00000000
00000000
00000000
00032000
,
00000000
00000000
00100000
00000000
00103000
00003000
00000000
00000000
00000000
00000000
00000000
00000000
00000000
00000000
00000000
00000000
,
00011000
00000000
00000000
00001000
00100000
00000000
00000000
00000000
00010000
00000000
00000000
00100000
01000000
00000000
00000000
00000000
,
10000000
00000000
00000000
00010000
01000000
00000000
00000000
00000000
00001000
00000000
00000000
00010000
00000100
00000000
00000000
00000000
,
00001000
00000000
00000000
00000001
00000100
00000000
00000001
00000000
00000100
00000000
00000000
00000010
00010000
00000000
00000010
00000000
,
00010000
00000000
00000000
00001000
00100000
00000000
00001000
00000000
00100000
00000000
00010000
00000000
02000000
00000000
00000000
00000000
,
03001000
00010000
00001000
01000000
00001000
00010000
00001000
00010000
,
00010000
00000100
00010000
00001000
00010000
00000100
00010000
00001000
,
00100000
00010000
00100000
10000000
00100000
00010000
01000000
00100000
,
10000000
00000000
00000000
00100000
,
01010000
00000000
00000000
00000000
01000000
00000000
00100000
00000000
10000000
00000000
01000000
00000000
00100000
00010000
00000000
00000000
,
01000000
00001000
01000000
00001000
00010000
00010000
00000100
00000100
,
00000010
00000000
00000000
00000010
00000001
00000000
00000100
00000000
00001000
00000000
00000100
00000000
00000001
00000000
00000020
00000000
,
00000000
00002330
00000000
00013000
00000100
00010000
00001000
00100000
,
00010000
00000000
00102000
00000000
00013000
00100000
10000000
00010000
,
20000000
00000000
31000000
00100000
00010000
01000000
00100000
10000000
,
00200000
00000000
00000000
00000000
01300000
00000000
01000000
00000000
00010000
00000000
00100000
00000000
00001000
00010000
00001000
00000000
,
00000000
00011000
00000000
00010100
00000000
00000110
00000000
00000001
,
00001000
00000100
00001000
00000001
00000100
00000010
00001000
00001200
,
00000000
00010300
00001000
00100000
00010000
00010000
10000000
10000000
,
00100000
00000000
00000000
00100000
02000000
00000000
00000000
00000000
03010000
00000000
10000000
00000000
00010000
00000000
10000000
00000000
,
01000000
00000000
00000000
00010000
00000000
00000000
00001000
00000000
00000020
00000000
00000000
00000000
00000031
00000000
00001000
00000001
,
00002000
00000000
00003001
00000100
00000010
00001000
00000100
00020100
,
00000000
00031000
00100000
00102000
00000000
00103000
00010000
10000000
,
00100000
00000000
01000000
00000000
00100000
00000000
01000000
00000000
00010000
00000000
00100000
00000000
00010000
10000000
00010000
10000000
,
00200000
00320000
00032000
00003200
,
00000301
00000010
00001000
00000010
00000001
00000010
00001000
00000010
,
00000001
00000100
00001000
00010000
00100000
10000000
00010000
00000000
,
20010000
00000000
00000000
00000000
30100000
00000000
01000000
00000000
00010000
00000000
00100000
00001000
00100000
00000000
00002000
00000000
,
00000000
00000000
00003020
00000000
00000000
00000000
00000032
00000000
00000000
00000000
00000103
00000010
00000100
00000000
00000310
00000000
,
00001000
00000000
00000100
00000000
00010000
00001000
00023000
00000000
00000000
00000000
00031000
00000000
01000000
00000000
00200000
00000000
,
00000000
10300000
00010000
20000000
00000000
31000000
00200000
00000000
,
00310000
00000000
00000000
01000000
00000000
00000000
00001000
00000000
00000000
00010000
00000000
00000000
00000100
00000000
00000010
00000000
,
00000000
00000001
00000000
00001000
00000000
00000000
00000010
00000000
00000000
00001000
00000000
00000001
00000000
00000000
00000001
00000000
,
00000200
00000000
00000000
00000000
00000320
00000000
00000000
00000000
00001030
00000000
00000100
00000000
00010000
00001000
00010000
00001000
,
00010030
00001000
00010000
00000010
00010000
00001000
00010000
00000100
,
00001000
00000000
00000100
00000000
00000010
00000000
00000001
00000000
00000100
00000000
00000000
00000010
00000000
00000000
00001000
00000000
,
00002010
00000000
00000000
00000000
00003010
00000000
00000100
00000000
00000001
00000000
00000010
00000000
00000100
00001000
00000000
00000000
,
00000010
00010000
00000010
00010000
00001000
00001000
00100000
00100000
,
01000000
00000000
00000000
01000000
10000000
00000000
00100000
00000000
00010000
00000000
00100000
00000000
10000000
00000000
02000000
00000000
,
00000000
03320000
00000000
00031000
00100000
00001000
00010000
00000100
,
00001000
00000000
00020100
00000000
00031000
00000100
00000001
00001000
,
00000002
00000000
00000013
00000100
00001000
00000010
00000100
00000001
,
00000200
00000000
00000000
00000000
00000310
00000000
00000010
00000000
00001000
00000000
00000100
00000000
00010000
00001000
00010000
00000000
,
00000000
00011000
00000000
00101000
00000000
01100000
00000000
10000000
,
00010000
00100000
00010000
10000000
00100000
01000000
00010000
00100000
,
00100000
00001000
00010000
00000100
00000010
00000001
00001000
00000010
,
00000110
00000000
00001002
00000000
00000103
00001000
00010000
00100000
,
01000000
00000000
00000000
01000000
00010000
00000000
00100000
00000000
02000000
00000000
00000000
00000000
13000000
00000000
00010000
10000000
,
00010000
00000000
00000000
01000000
00000000
00000000
00100000
00000000
10000000
00000000
00010000
00000000
00100000
00000000
00102000
00000000
,
00000000
00013000
00000100
00020100
00000000
00030100
00001000
00000001
,
00000100
00000000
00000010
00000000
00000100
00000000
00000010
00000000
00001000
00000000
00000100
00000000
00001000
00000001
00001000
00000001
,
00000200
00002300
00023000
00230000
,
10300000
01000000
00010000
01000000
10000000
01000000
00010000
01000000
,
10000000
00100000
00010000
00001000
00000100
00000001
00002000
00000200
,
00000000
00003300
00000000
00000000
;

//---------------dance-double - ----------------
#NOTES:
     dance-double:
     :
     Medium:
     8:
     0.419393,0.448226,0.209696,0.545211,0.000000,350.000000,325.000000,25.000000,65.000000,0.000000,0.000000,0.419393,0.448226,0.209696,0.545211,0.000000,350.000000,325.000000,25.000000,65.000000,0.000000,0.000000:
00000000
00000000
00000000
00000000
,
00000000
00000000
00000000
00000000
,
00000000
00000000
00000000
00000000
,
00000000
00000000
00000000
00000000
,
00022000
00000000
00033000
00000000
00002000
00000000
00103000
00010000
,
01000000
00000000
00010000
01000000
00100000
00000000
10000000
00000000
,
02000000
00000000
03000000
00000000
10000000
00000000
00010000
00100000
,
00020000
00000000
02030000
00000000
03001000
00010000
00001000
00010000
,
00000200
00000000
00000300
00000000
00002000
00000000
00003001
00000100
,
00000001
00000000
00001000
00000010
00001000
00000000
00000001
00000000
,
00000010
00000000
00000100
00000000
00000100
00000000
00001000
00000100
,
00020000
00000000
00032000
00000000
00103000
01000000
00100000
01000000
,
10000000
00000000
00000000
00000000
00010000
01000000
00010000
00200000
,
00000000
00302000
00000000
00023000
00000000
00030200
00000000
00000310
,
00000001
00000000
00001000
00000000
00000001
00000100
00000010
00000000
,
00001000
00000100
00001000
00000000
00000100
00010000
00001000
00000000
,
00020000
00000000
00000000
00032000
00000000
00000000
00000000
00203000
,
00000000
01000000
01300000
00300000
00000000
00000000
00000000
00000000
,
20010000
31000000
00200000
00310000
,
02000000
03001000
00020000
00030100
,
00001000
00000000
00000001
00000100
00000020
00000000
00001030
00000100
,
00020000
00000000
00031000
00100000
00020000
00000000
10030000
00000000
,
00010000
01000000
00010000
00000000
10000000
01000000
10000000
00000000
,
00010000
00100000
00001000
00000000
00010000
00000010
00001000
00000000
,
00000001
00000100
00000001
00000100
00000010
00001000
00000010
00001000
,
00000100
00000300
00000000
00000000
,
00001001
00000000
00000101
00000000
00000100
00000001
00001000
00000000
,
00001001
00000000
00001100
00000000
00000100
00001000
00000010
00000000
,
00020000
00000000
00032000
00000000
00203000
00000000
00310000
10000000
,
00010000
00000000
10000000
00000000
00010000
01000000
00100000
10000000
,
01000000
20020000
30030000
10000000
,
01000000
00100000
01000000
00000000
00100000
00010000
01000000
00000000
,
00001000
00000000
00001000
00000000
00010000
00000000
00010000
00000100
,
00000000
00000010
00000000
00000001
00000000
00001000
00000000
00000000
,
00000101
00000000
00001001
00000000
00001000
00000010
00010000
00000000
,
00011000
00000000
00101000
00000000
00100000
00010000
01000000
00000000
,
00020000
20030000
30200000
02300000
,
03002000
00000000
00013000
00000100
00000020
00000000
00000030
00000000
,
00000002
00000000
00001003
00000000
00000001
00000000
00000100
00000020
,
00000000
00001030
00000100
00020000
00000000
00000000
00031000
00000000
,
00100000
00010000
00100000
00000000
00001000
00000000
00010000
00000010
,
00000200
00000000
00000010
00000310
,
00000100
00000001
00000100
00000000
00000010
00001000
00000010
00000000
,
00001000
00000100
00001000
00000100
00010000
00001000
00010000
00000000
,
00202000
00000000
00303000
00000000
00100000
00000000
00010000
20000000
,
00000000
30200000
00000000
00320000
00000000
00031000
00100000
00000000
,
00001000
00000000
00001000
00000000
00010000
00000100
00010000
00000200
,
00000000
00000310
00000001
00002000
00000000
00000000
00003001
00000000
,
00001000
00000100
00001000
00000001
00000100
00000001
00001000
00000200
,
00000000
00010300
00001000
00200000
00000000
00000000
00310000
00000000
,
10010000
10010000
11000000
11000000
,
00010000
01000000
00100000
00000000
10000000
00100000
01000000
00000000
,
00010000
10000000
00010000
10000000
00100000
00000000
01000000
00000000
,
10010000
00000000
10100000
00000000
00100000
10000000
00010000
00000000
,
10010000
00000000
00110000
00000000
00100000
00010000
01000000
00000000
,
00002000
00000000
00023000
00000000
00030200
00000000
00001300
00000001
,
00001000
00000000
00000001
00000000
00001000
00000010
00000100
00000001
,
00000010
00002002
00003003
00000001
,
00000010
00000100
00000010
00000000
00000100
00001000
00000010
00000000
,
00010000
00000000
00010000
00000000
00001000
00000000
00001000
00100000
,
00000000
01000000
00000000
10000000
00000000
00010000
00000000
00000000
,
10100000
00000000
10010000
00000000
00010000
01000000
00001000
00000000
,
00011000
00000000
00010100
00000000
00000100
00001000
00000010
00000000
,
00002000
00003002
00000203
00000320
,
00020030
00000000
00031000
00100000
02000000
00000000
03000000
00000000
,
20000000
00000000
30010000
00000000
10000000
00000000
00100000
02000000
,
00000000
03010000
00100000
00002000
00000000
00000000
00013000
00000000
,
00000100
00001000
00000100
00000000
00010000
00000000
00001000
01000000
,
00200000
00000000
01000000
01300000
,
00100000
10000000
01000000
00000000
00100000
00010000
01000000
00000000
,
00001000
00010000
00001000
00010000
00001000
00010000
00000200
00000020
,
00000000
00000330
00000000
00000000
;

//---------------dance-double - ----------------
#NOTES:
     dance-double:
     :
     Easy:
     5:
     0.258825,0.268936,0.058715,0.243248,0.000000,216.000000,209.000000,7.000000,29.000000,0.000000,0.000000,0.258825,0.268936,0.058715,0.243248,0.000000,216.000000,209.000000,7.000000,29.000000,0.000000,0.000000:
00000000
00000000
00000000
00000000
,
00000000
00000000
00000000
00000000
,
00000000
00000000
00000000
00000000
,
00000000
00000000
00000000
00000000
,
20020000
30030000
10000000
00000000
,
00010000
01000000
00001000
00001000
,
00020000
00030000
00000100
00000000
,
00000100
00000010
00000001
00000000
,
00002000
00003000
00000001
00000000
,
00000001
00000100
00000010
00000010
,
00002000
00003000
00000100
00000000
,
00010000
00010000
00001000
00000000
,
00100000
00100000
00010000
00000000
,
10000000
10000000
00100000
00000000
,
02000000
03000000
00010000
00000000
,
00100000
00001000
00010000
00000100
,
00000010
00000000
00000010
00000000
,
00000100
00000000
00000100
00000000
,
00001000
00000001
00001000
00000001
,
00000100
00000100
00000010
00000000
,
00010000
00001000
00010000
00001000
,
00100000
00100000
00010000
00000000
,
10000000
01000000
00010000
00001000
,
00000010
00000001
00000100
00001000
,
00010000
00010000
00001000
00001000
,
00010000
00000000
00000000
00000000
,
00022000
00033000
00000100
00001000
,
00000020
00000030
00000100
00000001
,
00001000
00001000
00000100
00000100
,
00020000
00030000
00001000
00100000
,
01000000
20020000
30030000
10000000
,
00200000
00300000
01000000
01000000
,
00010000
00100000
00010000
01000000
,
00001000
00001000
00010000
00000000
,
00000100
00000100
00010000
00000100
,
00000010
00000010
00000001
00000000
,
00001000
00001000
00000001
00000001
,
00000100
00000010
00020000
00030000
,
00001000
00100000
00001000
00100000
,
00010000
01000000
00100000
00000000
,
10000000
00010000
10000000
00000000
,
00200000
00000000
00300000
00000000
,
10000000
10000000
00010000
00010000
,
00100000
00100000
00001000
00000000
,
00022000
00033000
00000000
00000100
,
00000010
00000010
00000010
00000000
,
00000001
00001000
00000010
00000000
,
00001000
00000100
00010000
00000000
,
00001000
00001000
00001000
00100000
,
00010000
00010000
00010000
00000000
,
10000000
00100000
01000000
00010000
,
00100000
00100000
00001000
00001000
,
00020000
00000000
00030000
00000000
,
00022000
00033000
00100000
00010000
,
02000000
03000000
00100000
10000000
,
00010000
00010000
00100000
00100000
,
00002000
00003000
00010000
00000100
,
00000010
00002002
00003003
00000001
,
00000200
00000300
00000010
00000010
,
00001000
00000100
00001000
00000010
,
00010000
00010000
00001000
00000000
,
00100000
00100000
00001000
00100000
,
01000000
01000000
10000000
00000000
,
00010000
00010000
10000000
10000000
,
00100000
01000000
00002000
00003000
,
00010000
00000100
00010000
00000100
,
00001000
00000010
00000100
00000000
,
00000001
00001000
00000001
00000000
,
00000200
00000000
00000300
00000000
,
00000001
00000100
00001000
00010000
,
00100000
00100000
10000000
20020000
,
00000000
30030000
00000000
00000000
;
