#VERSION:0.83;
#TITLE:Brother, Brother;
#SUBTITLE:ZiV SC 2022 Restep;
#ARTIST:SEGA;
#TITLETRANSLIT:;
#SUBTITLETRANSLIT:;
#ARTISTTRANSLIT:;
#GENRE:;
#CREDIT:;
#MUSIC:Brother, Brother.ogg;
#BANNER:Brother, Brother.png;
#BACKGROUND:Brother, Brother-bg.png;
#CDTITLE:;
#SAMPLESTART:9.938;
#SAMPLELENGTH:26.182;
#SELECTABLE:YES;
#OFFSET:-1.211;
#BPMS:0.000=110.000;
#STOPS:;
#JACKET:Brother, Brother-jacket.png;
#BGCHANGES:;
#FGCHANGES:;

//--------------- dance-single - DDDAAA ----------------
#NOTEDATA:;
#STEPSTYPE:dance-single;
#DESCRIPTION:DDDAAA;
#DIFFICULTY:Hard;
#METER:14;
#RADARVALUES:0,0,0,0,0;
#NOTES:
0000
0000
0000
0000
,
0000
0000
0000
0000
,
0000
0000
0000
0000
,
0000
0000
0000
0000
0000
0000
0000
0000
1000
0001
0000
0010
0001
0100
0010
0000
,
1001
1000
0100
0010
0000
0010
0000
0001
1000
0010
0100
0001
0000
0001
0000
1000
,
0010
0100
0001
0010
0000
0010
0000
0001
0010
1000
0010
0100
0000
1000
0000
1000
,
1001
0001
0100
0010
0000
0010
0000
1000
0001
0010
0100
1000
0000
1000
0000
0010
,
1000
0100
0000
0010
0000
0001
0100
0010
0000
2000
0000
3001
0010
0001
0100
0000
,
0101
0000
0001
0000
1000
0100
0000
0001
0100
0000
1000
0100
0000
0001
0100
0000
,
1000
0000
0010
0000
0001
0010
0000
1000
0010
0000
0010
0001
0010
1000
0010
0100
,
0001
0000
0110
0000
1000
0010
0000
0001
0010
0000
1000
0010
0000
0001
0010
0000
,
1000
0000
0100
0000
0001
0100
0000
1000
0100
0000
0001
0100
0000
1000
0010
0000
,
1010
0000
1000
0000
0001
0100
0000
1000
0100
0000
0001
0100
0000
1000
0100
0000
,
0001
0000
0010
0000
1000
0010
0000
0001
0010
0000
0010
1000
0010
0001
0010
0100
,
1000
0000
0110
0000
0001
0010
0000
1000
0010
0000
0001
0010
0000
1000
0010
0000
,
0001
0100
0010
1000
0000
1001
0000
0011
0000
1001
0000
1000
0100
0010
0001
0000
,
1100
0000
1000
0000
1001
0000
0001
0000
0011
0000
0010
0000
0110
0000
0100
1000
,
0001
0100
0000
0010
1000
0000
0001
0010
0000
0100
1000
0000
0001
1000
0001
0100
,
0101
0000
0001
0000
1001
0000
1000
0000
1100
0000
0001
1000
0100
0010
0001
1000
,
0001
0100
0000
0010
1000
0000
0001
0010
0000
0100
1000
0000
0001
1000
0001
0010
,
0011
0000
0001
0000
1001
0000
1000
0000
1010
0000
0010
1000
0100
0000
0010
0001
,
0100
0000
0000
0010
0000
0000
1000
0000
0000
0001
0000
0000
0000
0000
0000
0010
0000
0000
0000
0000
0000
0100
0000
0000
1000
0000
0000
0001
0000
0000
0100
0000
0000
0010
0000
0000
1000
0000
0010
0000
0100
0000
0001
0000
0100
0000
0010
0000
,
1000
0000
0000
0000
0000
0000
1100
0000
0000
1000
0000
0000
1001
0000
0000
0001
0100
0001
2000
0000
0000
0000
0000
0000
,
3000
0000
0001
0000
0001
0000
1000
0000
1000
0000
0010
0000
0010
0000
0100
0001
,
0010
0010
0000
0100
0100
0000
0010
0010
0000
0100
0100
1000
0001
0100
0000
0010
,
1000
0000
0001
0010
0100
0000
1000
0001
0100
0000
0010
1000
0100
0000
0010
0001
,
1000
0000
0010
0100
0001
0000
1000
0100
0010
0000
0100
0010
1000
0000
0010
0001
,
0100
0000
0010
1000
0001
0000
0010
0001
1000
0000
0010
1000
0100
0000
0010
0001
,
0100
0000
1000
0000
0100
0000
0001
0000
0100
0000
1000
0000
0100
0001
0000
0100
,
0001
0000
1000
0010
0100
0000
0001
1000
0100
0000
0010
0001
0100
0000
0010
1000
,
0001
0000
0010
0100
1000
0000
0001
0100
0010
0000
0100
0010
0001
0000
0010
1000
,
0100
0000
0010
0001
1000
0000
0010
1000
0001
0000
0010
0001
0100
0000
0010
1000
,
0100
0000
0001
0000
0100
0000
1000
0000
0100
0000
0001
0000
0100
1000
0000
0100
,
1000
0000
1000
0100
1000
0000
0001
0100
0001
0000
1000
0010
1000
0000
0001
0010
,
0001
0000
0000
0100
0000
0000
0000
0000
0000
0001
0000
0000
0010
0000
0000
0000
0000
0000
0001
0000
0000
0100
0000
0000
0000
0000
0000
0001
0000
0000
0100
0000
0000
0010
0000
0000
1000
0000
0010
0000
0100
0000
0001
0000
0100
0000
0001
0000
,
0010
0000
0100
1000
0100
1000
0010
0000
0100
0001
0100
0001
0100
0001
0010
0000
,
0010
0000
0100
1000
0100
1000
0010
0000
0100
0001
0100
0001
0100
0001
0010
0000
,
0100
0000
0000
0000
0000
0000
0010
0000
0000
0001
0000
0000
0010
0000
0000
0001
0000
0000
0100
0000
0000
0000
0000
0000
0010
0000
0000
1000
0000
0000
0010
0000
0000
1000
0000
0000
0010
0000
1000
0000
0001
0000
0010
0000
0100
0000
1000
0000
,
0001
0010
0000
0100
1000
0100
0000
0100
0001
0100
0000
0010
0100
0010
0000
0000
,
1010
0000
0010
1000
0010
1000
0100
0000
0010
0001
0010
0001
0010
0001
0100
0000
,
0100
0000
0010
1000
0010
1000
0100
0000
0010
0001
0010
0001
0010
0001
0010
0001
,
0100
0000
0010
1000
0010
1000
0010
1000
0100
0010
0100
1000
0010
0100
0001
0010
,
0100
0000
1000
0010
0000
1000
0100
0000
0000
1000
0000
0001
0100
0010
1000
0000
,
0100
0000
1000
0010
0000
1000
0100
0000
0000
1000
0000
0001
0100
1000
0100
0000
,
0110
0000
0000
0000
0000
0000
0001
0000
0000
0010
0000
0000
0000
0000
0000
0001
0000
0000
0100
0000
0000
0000
0000
0000
0001
0000
1000
0000
0010
0000
0100
0000
0001
0000
1000
0000
0100
0000
0000
1000
0000
0000
0100
0000
0000
0000
0000
0000
,
1100
0000
0000
0000
0000
1001
0000
0000
0000
0000
0102
0000
0000
0000
0000
0000
0000
0000
0000
0000
0000
0000
0000
0000
,
0010
0000
0000
0000
0000
0000
0000
0000
1003
0010
0100
0010
0000
0200
0000
0000
,
0302
0000
1003
0100
0010
0200
0000
1300
1001
0001
0100
0010
0000
0010
0000
1000
,
0001
0010
0100
1000
0000
1000
0000
0001
0010
0100
1000
0010
0000
0010
0000
1000
,
0010
0001
0010
0100
0000
0001
0000
0001
0100
0010
0100
0010
0000
1000
0000
0001
,
1000
0010
0100
0001
0000
0001
0000
0010
0001
0100
0000
0010
0000
1000
0100
0010
,
0000
0001
1001
0000
0000
1010
0000
0000
0202
0000
0000
0000
0303
0000
0000
0000
;

//--------------- dance-single - unmarked FS are optional ----------------
#NOTEDATA:;
#STEPSTYPE:dance-single;
#DESCRIPTION:unmarked FS are optional;
#DIFFICULTY:Challenge;
#METER:16;
#RADARVALUES:0,0,0,0,0;
#CREDIT:DDDAAA;
#NOTES:
0000
0000
0000
0000
,
0000
0000
0000
0000
,
0000
0000
0000
0000
,
0000
0000
0000
0000
0000
0000
0000
0000
1000
0001
0000
0010
0001
0100
0010
0000
,
1001
1000
0010
0100
0001
0100
00M0
0100
1000
0001
0010
0001
0100
0001
0000
1000
,
0001
0010
0100
1000
0010
0100
M000
0100
0010
0100
0001
0100
0010
0001
0000
0001
,
0100
0010
1000
0100
0010
0100
M000
0100
0001
1000
0100
1000
0010
0100
0000
0100
,
1100
0000
1001
0000
0000
0000
0101
0000
0000
0000
0001
0000
1000
0000
0100
0000
0000
0000
0001
0000
0000
0000
0100
1000
0100
0000
0010
0000
0100
0000
0000
0000
,
0110
0000
0001
0000
1000
0100
0000
0001
0100
0000
1000
0100
0000
0001
0100
0000
,
1000
0000
0010
0000
0001
0010
0000
1000
0010
0000
0010
0001
0010
1000
0010
0100
,
0001
0000
0110
0000
1000
0010
0000
0001
0010
0000
1000
0010
0000
0001
0010
0000
,
1000
0000
0100
0000
0001
0100
0000
1000
0100
0000
0001
0100
0000
1000
0010
0000
,
1010
0000
1000
0000
0001
0100
0000
1000
0100
0000
0001
0100
0000
1000
0100
0000
,
0001
0000
0000
0000
0010
0000
0001
1000
0001
0000
0010
0000
0000
0000
0001
0000
0010
0000
0000
0000
0010
0000
1000
0000
0010
0000
0001
0000
0010
0000
0100
0000
,
1000
0000
0110
0000
0001
0010
0000
1000
0010
0000
0001
0010
0000
1000
0010
0000
,
0001
1000
0001
0000
0010
0000
0001
0000
0100
0000
0010
0000
0000
0000
1001
0000
0000
0000
1100
0000
0000
0000
0001
0100
0001
0000
1000
0000
0100
0000
0000
0000
,
1100
0000
1000
0000
1001
0000
0001
0000
0011
0000
0010
0000
0110
0000
0100
1000
,
0010
0100
0001
1000
0010
0100
0010
0001
0010
0100
0001
1000
0100
0010
0001
0100
,
0101
0000
0001
0000
1001
0000
1000
0000
1100
0000
0001
1000
0100
0010
0001
0010
,
0001
0100
0010
1000
0001
0100
0001
0010
0100
1000
0001
0100
0010
1000
0001
0010
,
0011
0000
0001
0000
1001
0000
1000
0000
1010
0000
0010
1000
0100
0000
0010
0001
,
0100
0000
0000
0010
0000
0000
1000
0000
0000
0100
0000
0000
0000
0000
0000
0010
0000
0000
0000
0000
0000
0100
0000
0000
1000
0000
0000
0001
0000
0000
0100
0000
0000
0010
0000
0000
1000
0000
0010
0000
1000
0000
0001
0000
0010
0000
0001
0000
,
0100
0000
0000
0000
0000
0000
0101
0000
0000
0001
0000
0000
1001
0000
0000
1000
0100
1000
0020
0000
0000
0000
0000
0000
,
0030
0000
1000
0000
1000
0000
0001
0000
0001
0000
0010
0000
0010
0000
0100
1000
,
0010
0010
0000
0100
0100
0000
0010
0010
0000
0100
0100
0001
1000
0100
00M0
0100
,
0001
0000
1000
0010
0100
0001
1000
0001
0010
0100
1000
0010
0100
0001
0100
0010
,
1000
0001
0100
0001
0010
0100
1000
0001
0100
0010
0100
0010
0001
0010
0100
0001
,
0100
0001
1000
0100
0010
0001
1000
0001
0100
0010
1000
0100
0010
0001
0010
0100
,
1000
0010
0100
0001
0010
0100
1000
0010
0100
0001
0010
0100
1000
0100
0000
0100
,
1000
0000
0001
0010
0100
1000
0001
1000
0010
0100
0001
0010
0100
1000
0100
0010
,
0001
1000
0100
1000
0010
0100
0001
1000
0100
0010
0100
0010
1000
0010
0100
1000
,
0100
1000
0001
0100
0010
1000
0001
1000
0100
0010
0001
0100
0010
1000
0010
0100
,
0001
0010
0100
1000
0010
0100
0001
0010
0100
1000
0010
0100
0001
0010
0M00
0010
,
1000
0000
0001
0100
0001
0000
1000
0100
1000
0000
0001
0010
0001
0000
1000
0010
,
1000
0000
0000
0100
0000
0000
0000
0000
0000
1000
0000
0000
0010
0000
0000
0000
0000
0000
1000
0000
0000
0100
0000
0000
0000
0000
0000
1000
0000
0000
0100
0000
0000
0010
0000
0000
0001
0000
0010
0000
0100
0000
1000
0000
0100
0000
1000
0000
,
0010
0000
0100
0001
0100
0001
0010
0000
0100
1000
0100
1000
0100
1000
0010
0000
,
0010
0000
0100
0001
0100
0001
0010
0000
0100
1000
0100
1000
0100
1000
0010
0000
,
0100
0000
0000
0000
0000
0000
0010
0000
0000
1000
0000
0000
0010
0000
0000
1000
0000
0000
0100
0000
0000
0000
0000
0000
0010
0000
0000
0001
0000
0000
0010
0000
0000
0001
0000
0000
0010
0000
0001
0000
1000
0000
0010
0000
0100
0000
0001
0000
,
1000
0010
0000
0100
0001
0100
0000
0100
1000
0100
0000
0010
0100
0010
0000
0000
,
0011
0000
0010
0001
0010
0001
0100
0000
0010
1000
0010
1000
0010
1000
0100
0000
,
0100
0000
0010
0001
0010
0001
0100
0000
0010
1000
0010
1000
0010
1000
0010
1000
,
0100
0000
0000
0000
0010
0000
0001
0000
0010
0000
0001
0000
0010
0000
0001
1000
0001
0000
0100
0000
0010
0000
1000
0000
0100
0000
0010
0000
0001
0000
0100
0000
,
0101
0000
0001
1001
0000
1000
1200
0000
0000
1300
0000
0001
0010
0100
1000
0000
,
1100
0000
1000
1001
0000
0001
0201
0000
0000
0301
0000
1000
0010
0001
0010
0000
,
0110
0000
0000
0000
0000
0000
1000
0000
0000
1010
0000
0000
0000
0000
0000
0010
0000
0000
0110
0000
0000
0000
0000
0000
1000
0000
0001
0000
0100
0000
0010
0000
1000
0000
0001
0000
0010
0000
0000
0001
0000
0000
0010
0000
0000
0000
0000
0000
,
0011
0000
0000
0000
0000
1001
0000
0000
0000
0000
2010
0000
0000
0000
0000
0000
0000
0000
0000
0000
0000
0000
0000
0000
,
0100
0000
0000
0000
0000
0000
0000
0000
3001
0100
0010
0100
0000
0020
0000
0000
,
2030
0000
0000
0000
3001
0000
1000
0100
1000
0000
0020
0000
0000
0000
1030
0000
1001
0000
0001
0000
0010
0000
0100
0000
1000
0000
0100
0000
00M0
0000
0100
0000
,
0001
1000
0010
1000
0100
1000
0000
0001
1000
0010
0100
0001
0010
0100
000M
0100
,
0010
0100
1000
0100
0010
1000
0000
1000
0100
0010
0001
0100
0010
0100
000M
0100
,
1000
0001
0100
0001
0010
0100
0000
0100
0101
1001
0000
1100
0000
1000
0001
0100
,
0010
1000
1100
0000
0001
0101
0000
0000
2002
0000
0000
0000
3003
0000
0000
0000
;
