#TITLE:빵;
#SUBTITLE:(첫차맨 Remix);
#ARTIST:노라조;
#TITLETRANSLIT:Bread;
#SUBTITLETRANSLIT:(CCMan Remix);
#ARTISTTRANSLIT:Norazo;
#GENRE:Eurobread;
#CREDIT:tikal.;
#MUSIC:Ppang (CCMan Remix).ogg;
#BANNER:Ppang (CCMan Remix).png;
#BACKGROUND:Ppang (CCMan Remix)-bg.png;
#CDTITLE:cdtitle.png;
#SAMPLESTART:62.934;
#SAMPLELENGTH:23.415;
#SELECTABLE:YES;
#OFFSET:-0.007;
#BPMS:0.000=164.000;
#STOPS:;
#BGCHANGES:;
#FGCHANGES:;

//--------------- dance-single - tikal. ----------------
#NOTES:
     dance-single:
     tikal.:
     Medium:
     12:
     0,0,0,0,0:
0000
0000
0000
0000
,
0000
0000
0000
0000
,
0000
0000
0000
0000
,
0000
0000
0000
0000
,
1000
1000
0001
0001
,
0100
0010
0100
0000
0110
0000
0000
0000
,
0001
0001
1000
1000
,
0200
0000
0000
0000
0000
0310
0110
0000
,
0001
0010
0100
0000
1000
0010
0100
0000
,
0001
0100
1000
0001
0010
0100
0101
0000
,
1000
0010
0100
0000
0001
0010
0100
0000
,
1000
0100
0001
1000
0010
0100
1100
0000
,
0001
0010
1000
0000
1000
0010
0001
0000
,
1000
0010
0100
0001
0100
0010
1010
0000
,
1000
0010
0001
0010
1000
1000
0001
0001
,
0010
0000
0000
0110
0000
0000
1000
0000
0000
1001
0000
0000
0001
0000
1000
0000
,
0020
0000
0000
0030
,
2002
0000
0000
3003
1000
1000
0001
0001
,
0020
0000
0230
0000
0302
0000
0103
1000
,
0010
0010
0220
0330
,
0020
0000
0230
0000
2300
0000
3100
0001
,
0010
0010
0220
0330
,
2000
0000
3200
0000
0301
0100
0010
0100
,
2000
0000
0000
3000
2002
0000
3003
0000
,
0002
0000
0203
0000
1300
0100
0010
0100
,
0001
0001
2002
3003
,
2000
3200
0320
0032
,
0203
0000
0000
2300
0000
0000
3200
0000
,
0302
0000
0023
0000
,
2030
0000
3200
0000
,
0301
0001
1000
1000
,
0100
0100
0010
0010
,
0001
1000
0001
0100
0010
1000
0000
2002
,
0000
0000
0000
3003
,
0200
0000
0000
0000
0000
0010
0310
0000
,
1001
0000
1000
0010
1010
0000
1001
0000
,
1000
0100
0010
0001
0202
0000
0303
0000
,
1001
0000
0001
0010
0011
0000
1001
0000
,
0001
0100
0010
1000
2200
0000
3300
0000
,
0002
0000
0000
0010
0023
0000
0000
0100
,
0230
0302
0203
2300
,
3010
0001
0010
0100
0010
1000
0000
2002
,
0000
0000
3003
0000
0001
0001
1000
1000
,
1001
0000
0001
0100
0010
0010
1000
1000
,
0001
0010
0100
1000
0020
0000
0030
0000
,
1001
0000
1000
0100
0010
0010
0001
0001
,
1000
0010
0100
0001
2002
0000
3003
0000
,
2000
0000
0000
0010
3020
0000
0000
0100
,
0230
2300
3200
0302
,
0013
1000
0010
0100
0010
0001
0000
2002
,
0000
0000
3003
0000
1000
1000
0001
0001
,
0101
0101
0101
1100
,
0101
0011
0202
0303
,
1100
1100
1100
0101
,
1100
1010
2200
3300
,
0011
0011
0011
1010
,
1000
0001
1000
0000
2002
0000
3003
0000
,
0001
0010
0100
1000
0001
0100
0010
1000
,
0001
0010
1000
0010
0002
0000
0000
0000
,
1003
0010
0100
0001
1000
0100
0010
0100
,
1000
0001
0010
0100
0010
0001
0100
0010
,
1000
0100
0001
0100
1000
0010
0001
0010
,
0100
0001
0010
0100
1100
0000
0101
0000
,
1000
1000
0100
0001
0001
0100
0010
0010
,
0001
0100
0100
0010
1000
0100
0010
0001
,
1000
0010
1000
0001
0010
0100
1000
0001
,
0100
0000
0010
1000
0001
0000
0010
0001
1000
0000
0000
0000
1001
0000
0000
0000
,
0220
0000
0000
0330
,
2002
0000
0000
3003
,
1000
0000
0000
0010
0000
0000
0101
0000
0000
0101
0000
0000
0001
0000
1000
0000
,
0100
0000
0000
0010
0000
0000
0011
0000
0000
0011
0000
0000
1001
0000
0000
0000
,
0001
0000
0000
0100
0000
0000
1010
0000
0000
1010
0000
0000
1000
0000
0001
0000
,
0010
0000
0000
0100
0000
0000
1100
0000
0000
1100
0000
0000
1001
0000
0000
0000
,
0002
0000
1003
0010
0020
0000
1030
0100
,
0200
0302
0203
2300
,
3001
0010
0001
0100
0001
0010
0000
0012
,
0000
0000
0000
1000
0000
0000
0100
0000
0000
0103
0000
0000
0110
0000
0000
0000
,
0001
0000
0000
0010
0000
0000
1100
0000
0000
1100
0000
0000
1000
0000
0001
0000
,
0100
0000
0000
0010
0000
0000
1010
0000
0000
1010
0000
0000
1001
0000
0000
0000
,
1000
0000
0000
0100
0000
0000
0011
0000
0000
0011
0000
0000
0001
0000
1000
0000
,
0010
0000
0000
0100
0000
0000
0110
0000
1001
0000
0000
0000
1000
0000
0001
0000
,
2000
0000
3001
0010
0020
0000
0031
0100
,
0200
2300
3200
0302
,
1003
0010
1000
0100
1000
0010
0000
2010
,
0000
0000
0000
0010
0000
0000
0001
0000
3100
0000
0100
0000
0010
0000
0010
0000
,
0011
0011
0011
1010
,
0011
0101
0012
1003
,
1010
1010
1010
0011
,
1010
1100
2010
3001
,
0101
0101
0101
1100
,
1000
0001
1000
0000
0220
0000
0330
0000
,
0001
0010
0001
0000
1000
0010
1000
0000
0001
0100
0001
0000
1000
0100
1000
0000
,
0010
0110
2002
3003
;

//--------------- dance-single - tikal. ----------------
#NOTES:
     dance-single:
     tikal.:
     Hard:
     15:
     0,0,0,0,0:
0000
0000
0000
0000
,
0000
0000
0000
0000
,
0000
0000
0000
0000
,
0000
0000
0000
0000
,
1000
1000
0001
0001
,
1001
0001
1000
0000
0110
0000
0000
0000
,
0001
0001
1000
1000
,
0200
0000
0000
0000
0000
0310
0110
0000
,
0001
0000
0010
0001
0000
0010
0001
0000
1000
0000
0010
0000
0100
0000
0001
0000
,
1000
0010
0000
1000
0010
0000
0100
0000
0001
0000
0010
0100
0010
0000
0001
0000
,
1000
0000
0100
1000
0000
0100
1000
0000
0001
0000
0100
0000
0010
0000
1000
0000
,
0001
0000
0100
0001
0010
0000
0100
1000
0010
0000
0100
0010
0100
0000
0001
0000
,
1000
0000
0010
1000
0001
0000
0001
0010
0000
0010
0100
0000
1000
0000
0001
0000
,
1000
0000
0010
0100
0001
0000
0010
0100
1000
0000
0100
0010
0001
1000
0001
0000
,
1000
0010
0100
0000
0001
0000
0010
0100
1000
0000
0010
0000
0001
0000
0010
0000
,
0110
0000
0000
0101
0000
0000
1001
0000
0000
1100
0000
0000
0110
0000
1001
0000
,
2000
0000
0001
0000
,
3010
0100
0001
1000
0100
0100
0010
0010
,
0002
0000
0000
0000
0203
0000
0000
0310
2000
0000
0000
0000
3010
0000
0100
0000
,
0101
0101
2002
3003
,
2000
0000
0000
0000
3200
0000
0000
0310
0002
0000
0000
0000
0013
0000
0100
0000
,
1100
1100
2002
3003
,
0002
0000
0000
0000
0023
0000
0000
0031
1000
0000
0010
0000
0001
0000
0010
0000
,
2000
0000
0000
3000
1010
0000
0000
0000
,
2000
0000
0000
0000
3020
0000
0000
1030
0001
0000
0010
0000
1000
0000
0010
0000
,
0011
0011
2002
3003
,
2000
3020
0032
0023
,
0130
0002
0000
0023
0000
1030
0010
0100
,
1000
0000
0000
0010
0000
0000
0100
0000
0001
0000
0000
0010
0000
0000
0100
0000
,
1000
0000
0000
0100
0000
0000
0010
0000
0001
0000
0000
0100
0000
0000
0010
0000
,
2000
3200
0302
0203
,
0310
0002
0000
0203
0000
1300
0100
0010
,
1000
0001
1000
0100
0010
0001
0000
2002
,
0000
0000
3003
0000
1000
1000
0001
0001
,
0200
0000
0000
0000
0000
0010
0010
0310
,
1010
0000
0010
1000
1100
0000
1010
0000
,
0001
0100
0010
1010
1001
0000
1000
0001
,
0101
0000
0100
0001
0011
0000
0101
0000
,
1000
0010
0100
0101
1001
0000
0001
1000
,
0200
0000
1300
0010
0020
0000
0130
0001
,
0002
0023
2030
3020
,
0031
0100
0001
0010
0001
0100
0000
0102
,
0000
0000
0000
1000
0000
0000
0010
0000
0000
0010
0000
0003
0001
0010
0100
0000
,
1100
0000
0100
1000
0010
0010
0100
0100
,
0001
0010
0100
1000
0020
0000
0130
0001
,
0101
0000
0100
0001
0010
0010
0100
0100
,
1000
0010
0100
0110
1001
0000
1000
0001
,
0200
0000
0301
0010
0020
0000
0130
1000
,
2000
3020
0032
0023
,
1030
0100
1000
0010
1000
0100
0000
2100
,
0000
0000
0000
0001
0000
0000
3010
1000
0001
0000
0001
0000
1000
0000
1000
0000
,
1100
1100
1100
0101
,
1100
1010
2200
3300
,
0101
0101
0101
1100
,
0101
0011
0202
0303
,
1010
1010
1010
0011
,
0001
0001
1000
0000
2002
0000
3003
0000
,
1000
0010
1000
0000
0001
0010
0001
0000
1000
0100
1000
0000
0001
0100
0001
0000
,
1000
0010
0100
0000
0001
0010
0100
0000
0110
0000
0000
0000
0000
0000
0000
0000
,
1000
0000
0010
0100
0010
0000
0001
0000
1000
0000
0100
0010
0100
0000
0001
0000
,
1000
0001
1000
0000
0100
0000
0010
0000
0001
1000
0001
0000
0100
0000
0010
0000
,
1000
0100
1000
0000
0100
0010
0100
0000
0010
0001
0010
0000
0001
1000
0001
0100
,
0000
0010
1000
0000
0001
0000
1000
0000
1100
0000
0000
0000
0101
0000
0000
0000
,
1000
0000
0010
1000
0000
0010
0100
0000
0001
0100
0000
0001
1000
0000
0100
1000
,
0000
0100
0010
0000
0001
0010
0000
0001
1000
0000
0010
0100
0000
0001
1000
0000
,
0001
0010
0100
1000
0010
0100
0001
1000
,
0100
1000
0100
1000
0001
0100
0001
0100
0010
1000
0000
0000
1001
0000
0000
0000
,
0220
0000
0000
0330
,
2002
0000
0000
3003
,
1010
0000
0000
0101
0000
0000
1010
0000
0000
1010
0000
0000
1000
0010
1000
0000
,
1100
0000
0000
0101
0000
0000
1100
0000
0000
1100
0000
0000
0100
0010
0001
0000
,
0101
0000
0000
1010
0000
0000
0101
0000
0000
0101
0000
0000
0001
0100
0001
0000
,
0011
0000
0000
1010
0000
0000
0011
0000
0000
0011
0000
0000
0010
0100
1000
0001
,
0020
0000
0030
0010
0001
0000
0100
0000
0200
0000
0300
0100
0010
0000
1000
0000
,
1000
0000
0000
1000
0100
0000
0000
0100
0001
0000
0000
0001
0100
0000
0000
0100
,
1000
0010
1000
0100
1000
0010
0000
1010
,
0001
0000
0001
0010
0000
0010
0100
0000
0100
1000
0000
1000
0001
0000
0001
0000
,
0011
0000
0000
1100
0000
0000
0011
0000
0000
0011
0000
0000
0001
0010
0001
0000
,
0101
0000
0000
1100
0000
0000
0101
0000
0000
0101
0000
0000
0100
0010
1000
0000
,
1100
0000
0000
0011
0000
0000
1100
0000
0000
1100
0000
0000
1000
0100
1000
0000
,
1010
0000
0000
0011
0000
0000
0110
0000
1001
0000
0000
0000
0001
0000
1000
0000
,
0020
0000
0030
0010
1000
0000
0100
0000
0200
0000
0300
0100
0010
0000
0001
0000
,
0001
0000
0000
0001
0100
0000
0000
0100
1000
0000
0000
1000
0100
0000
0000
0100
,
0001
0010
0001
0100
0001
0010
0000
0011
,
1000
0000
1000
0010
0000
0010
0100
0000
0100
0001
0000
0001
1000
0000
1000
0000
,
1010
1010
1010
0011
,
1010
1100
2010
3001
,
0011
0011
0011
1010
,
0011
0000
0000
0001
0100
0000
0010
1000
0001
0000
0010
0100
1000
0000
0000
0000
,
1100
1100
1100
0101
,
1001
1001
1001
0000
0220
0000
0330
0000
,
1000
0001
1000
0001
1000
0001
1000
0001
1000
0001
1000
0001
1000
0001
1000
0001
,
1000
0110
2002
3003
;

//--------------- dance-single - tikal. ----------------
#NOTES:
     dance-single:
     tikal.:
     Challenge:
     17:
     0,0,0,0,0:
0000
0000
0000
0000
,
0000
0000
0000
0000
,
0000
0000
0000
0000
,
0000
0000
0000
0000
,
1000
0000
0000
0010
1000
0000
0001
0000
1000
0000
0000
0010
0100
0000
0001
0000
,
1001
1000
0110
0000
1001
0000
0000
0000
,
0001
0000
0000
0010
0001
0000
1000
0000
0001
0000
0000
0010
0100
0000
1000
0000
,
0020
0000
0000
0000
0000
0130
1001
0000
,
0001
0000
0100
0001
0000
0010
0100
1000
0001
0100
0010
1000
0010
0000
0100
0000
,
0001
0100
0000
1000
0100
0000
0010
1000
0001
0000
0010
0100
1000
0001
0100
0001
,
1000
0000
0010
1000
0000
0001
0100
0001
0010
0000
0100
0010
0001
0000
1000
0000
,
0001
0100
0010
1000
0001
0010
0100
1000
0010
0100
0010
1000
0100
0010
0001
1000
,
0001
0000
0100
0001
0010
0000
0010
0100
0000
1000
0100
1000
0001
0100
0010
0000
,
0100
0010
0100
0001
0010
0100
1000
0010
0100
0010
1000
0100
0010
0001
1000
0001
,
0100
0010
1000
0001
0010
0100
1000
0001
1000
0000
0100
0000
0001
0000
0100
0000
,
0010
0001
0000
1000
0010
0000
0100
0001
0000
1000
0100
0000
0001
0000
0100
0000
,
2000
0000
0001
0000
,
3010
0100
0001
1000
0100
0010
0001
1000
0010
0000
0010
0000
0100
0000
0100
0000
,
0002
0000
0000
0000
0203
0000
0000
0301
0020
0000
0000
0000
0130
0000
1000
0000
,
1100
0101
2002
3003
,
2000
0000
0000
0000
3200
0000
0000
1300
0020
0000
0000
0000
0130
0000
0001
0000
,
0101
1100
2002
3003
,
0002
0000
0000
0000
0023
0000
0000
0031
0100
0000
1000
0000
0100
0000
0001
0000
,
2002
0000
0000
3003
0110
0000
0000
0000
,
2000
0000
0000
0000
3020
0000
0000
1030
0100
0000
0001
0000
0100
0000
1000
0000
,
1010
0011
2002
3003
,
2000
3200
0302
0203
,
0310
0002
0000
0203
0000
1300
0100
0010
,
1000
0000
0000
0100
0000
0000
0001
0000
1000
0000
0000
0010
0000
0000
0001
0000
,
1000
0000
0000
0010
0000
0000
0100
0000
0001
0000
0000
0010
0000
0000
0100
0000
,
1000
1000
0001
0001
,
0010
0000
0100
1000
0010
0000
0000
0000
0010
0000
0100
0001
0010
0000
0100
0000
,
0001
0100
1000
0010
0001
0010
1000
0001
,
0010
0000
0010
0000
0100
0000
0100
0000
1000
0010
0100
0001
0010
0100
0010
0100
,
2000
0000
0000
0000
0000
0000
0000
0000
0000
0000
3001
1000
0001
1000
0001
1000
,
0002
0000
0013
0100
1000
0000
0100
0000
0011
0000
0000
0000
0101
0000
0000
0000
,
0001
0000
0100
0010
0100
0000
0001
00M0
0001
0010
0100
0000
0001
1000
0001
0000
,
2000
0000
3010
0100
0001
0000
0100
0000
1010
0000
0000
0000
1100
0000
0000
0000
,
0002
0000
0023
0000
0230
0000
1300
00M0
1000
0010
0100
0000
0001
0000
0100
0000
,
2000
0000
3000
1000
0010
0000
0100
0000
0002
0000
0003
0001
0010
0000
0100
0000
,
1000
0000
0000
1000
0010
0000
0001
0000
0010
0100
0000
0100
0001
1000
0001
1000
,
0002
0023
2030
3020
0032
0203
0000
0320
,
1030
0000
0001
0010
0000
0001
1000
0000
0001
0100
0000
0010
1000
0000
0001
0000
,
2000
0000
3010
0100
0010
0000
0001
0000
0010
0000
0010
0000
1000
0000
1000
0000
,
0002
0000
0023
0000
0230
0000
2300
0000
3010
0100
0010
0000
1000
0100
0010
0000
,
0002
0000
0013
0100
0010
0000
1000
0000
0010
0000
0010
0000
0001
0000
0001
0000
,
2000
3020
0130
0110
1001
0000
0002
2003
,
3002
0000
0003
0001
0010
0000
0100
0000
2000
0000
3000
1000
0010
0000
0100
0000
,
0001
0000
0000
0001
0010
0000
1000
0000
0010
0100
0000
0100
1000
0001
1000
0001
,
2000
3020
0032
0023
2030
3200
0000
0320
,
0031
0000
1000
0010
1000
0001
1000
0000
0100
0010
0001
0100
0010
0000
1000
0000
,
1100
1100
1100
0101
,
1100
1010
1200
1300
,
0101
0101
0101
1100
,
0101
0000
0011
0000
0101
0100
0001
0000
,
1010
1010
1010
0011
,
1001
0000
1001
0000
1001
0000
0000
0000
0110
0000
1000
0001
1000
0000
1000
0000
,
0001
0010
0100
1000
0010
0100
0001
0010
0100
1000
0010
0100
0001
0010
0100
1000
,
0010
0100
0010
0100
0001
1000
0001
1000
0200
0000
0000
0000
0000
0000
0000
0000
,
0310
0001
0000
0100
0001
0000
1000
0100
0010
0100
0000
1000
0100
0000
1000
0001
,
0100
0010
0000
1000
0000
0001
0010
0100
0001
0100
0010
0001
1000
0010
0100
0001
,
0000
1000
0010
0100
0000
0001
0010
0100
1000
0100
0010
0000
0001
0100
0010
2000
,
0000
3010
1000
0001
0010
0100
0010
0000
1000
0010
0100
0000
1000
0010
0100
0000
,
0001
0100
0010
0001
0010
0100
0001
0010
0100
0001
0100
0010
0001
1000
0010
0100
,
1000
0100
0010
1000
0100
0010
1000
0010
0100
1000
0001
0100
0010
1000
0001
0010
,
0100
0010
0001
1000
0100
0010
0001
1000
0010
0100
0010
1000
0001
0100
0010
1000
,
0001
0010
0100
1000
0010
0100
0001
0010
0100
0010
0000
0000
0110
0000
0000
0000
,
2001
0000
0100
3000
,
0120
0000
0000
0000
0001
0001
0031
0000
,
2000
0000
3010
0100
0010
0000
0001
0000
1000
0100
0010
0000
1000
0100
0010
0000
,
0001
0000
0100
0010
0100
0000
1000
00M0
1000
0010
0100
0000
0001
0010
0100
1000
,
0002
0000
0013
0100
0010
0000
1000
0000
0001
0100
0010
0000
0001
0100
0010
0000
,
2000
0000
3020
0000
0230
0000
0301
00M0
0001
0010
0100
0000
0010
1000
0100
0010
,
0002
0000
0103
0010
0100
0000
2000
0000
3002
0000
0013
0100
0010
1000
0001
0000
,
0020
0000
0130
1000
0020
0000
0130
0000
0001
0010
0100
0000
1000
0010
0100
0001
,
2000
3200
0302
0203
2300
3020
0030
0110
,
0001
0000
1000
0100
0000
1000
0001
0000
1000
0010
0000
0100
0001
0010
0100
1000
,
0002
0000
0103
0010
0100
0000
1000
0000
0100
0010
0100
0000
0001
1000
0001
1000
,
0200
0000
0302
0000
2003
0000
3020
0000
0130
0010
0100
0000
1000
0010
0100
0001
,
2000
0000
3100
0010
0100
0000
0001
0000
0100
0010
0100
0000
1000
0001
1000
0001
,
0100
0010
1000
1001
0110
0000
2000
3002
,
2003
0000
3100
0010
0100
0000
0002
0000
2003
0000
3010
0100
0010
0001
1000
0000
,
0020
0000
0130
0001
0020
0000
0130
0000
1000
0010
0100
0000
0001
0010
0100
1000
,
0002
0203
2300
3200
0302
0023
0030
0110
,
1000
0000
0001
0100
0001
1000
0100
1000
0001
0100
0010
1000
0100
0000
0010
0000
,
0011
0011
0011
1010
,
0011
0101
0012
1003
,
1010
1010
1010
0011
,
1010
0000
0000
1000
0100
0000
0010
0001
1000
0010
0100
0001
0010
0001
0100
0000
,
0101
0101
0101
1100
,
1001
0000
1001
0000
1001
0000
0000
0000
0110
0000
1000
0001
1000
0000
1000
0000
,
0001
0100
0010
1000
0100
0010
0001
0100
0010
1000
0100
0010
0001
0100
0010
1000
,
0100
0110
2002
3003
;

//--------------- dance-single - tikal. ----------------
#NOTES:
     dance-single:
     tikal.:
     Edit:
     18:
     0,0,0,0,0:
0000
0000
0000
0000
,
0000
0000
0000
0000
,
0000
0000
0000
0000
,
0000
0000
0000
0000
,
1000
0000
0000
0010
1000
0000
0001
0000
1000
0000
0000
0010
0100
0000
0001
0000
,
1001
1000
0110
0000
1001
0000
0000
0000
,
0001
0000
0000
0010
0001
0000
1000
0000
0001
0000
0000
0010
0100
0000
1000
0000
,
0020
0000
0000
0000
0000
0130
1001
0000
,
0001
0000
0100
0001
0000
0010
0100
1000
0001
0100
0010
1000
0010
0000
0100
0000
,
0001
0100
0000
1000
0100
0000
0010
1000
0001
0000
0010
0100
1000
0001
0100
0001
,
1000
0000
0010
1000
0000
0001
0100
0001
0010
0000
0100
0010
0001
0000
1000
0000
,
0001
0100
0010
1000
0001
0010
0100
1000
0010
0100
0010
1000
0100
0010
0001
1000
,
0001
0000
0100
0001
0010
0000
0010
0100
0000
1000
0100
1000
0001
0100
0010
0000
,
0100
0010
0100
0001
0010
0100
1000
0010
0100
0010
1000
0100
0010
0001
1000
0001
,
0100
0010
1000
0001
0010
0100
1000
0001
1000
0000
0100
0000
0001
0000
0100
0000
,
0010
0001
0000
1000
0010
0000
0100
0001
0000
1000
0100
0000
0001
0000
0100
0000
,
2000
0000
0001
0000
,
3010
0100
0001
1000
0100
0010
0001
1000
0010
0000
0010
0000
0100
0000
0100
0000
,
0002
0000
0000
0000
0203
0000
0000
0301
0020
0000
0000
0000
0130
0000
1000
0000
,
1100
0101
2002
3003
,
2000
0000
0000
0000
3200
0000
0000
1300
0020
0000
0000
0000
0130
0000
0001
0000
,
0101
1100
2002
3003
,
0002
0000
0000
0000
0023
0000
0000
0031
0100
0000
1000
0000
0100
0000
0001
0000
,
2002
0000
0110
3003
,
2000
0000
0000
0000
3020
0000
0000
1030
0100
0000
0001
0000
0100
0000
1000
0000
,
1010
0011
2002
3003
,
2000
3200
0302
0203
,
0310
0002
0000
0203
0000
1300
0100
0010
,
1000
0000
0000
0100
0000
0000
0001
0000
1000
0000
0000
0010
0000
0000
0001
0000
,
1000
0000
0000
0010
0000
0000
0100
0000
0001
0000
0000
0010
0000
0000
0100
0000
,
1000
1000
0001
0001
,
0010
0000
0100
1000
0010
0000
0000
0000
0010
0000
0100
0001
0010
0000
0100
0000
,
0001
0100
1000
0010
0001
0010
1000
0001
,
0010
0000
0010
0000
0100
0000
0100
0000
1000
0010
0100
0001
0010
0100
0010
0100
,
2000
0000
0000
0000
0000
0000
0000
0000
0000
0000
3001
1000
0001
1000
0001
1000
,
0002
0000
0013
0100
1000
0000
0100
0000
0011
0000
0000
0000
0101
0000
0000
0000
,
0001
0000
0100
0010
0100
0000
0001
00M0
0001
0010
0100
0000
0001
1000
0001
0000
,
2000
0000
3010
0100
0001
0000
0100
0000
1010
0000
0000
0000
1100
0000
0000
0000
,
0002
0000
0023
0000
0230
0000
1300
00M0
1000
0010
0100
0000
0001
0000
0100
0000
,
2000
0000
3000
1000
0010
0000
0100
0000
0002
0000
0003
0001
0010
0000
0100
0000
,
1000
0000
0000
1000
0010
0000
0001
0000
0010
0100
0000
0100
0001
1000
0001
1000
,
0002
0023
2030
3020
0032
0203
0000
0320
,
1030
0000
0001
0010
0000
0001
1000
0000
0001
0100
0000
0010
1000
0000
0001
0000
,
2000
0000
3010
0100
0010
0000
0001
0000
0010
0000
0010
0000
1000
0000
1000
0000
,
0002
0000
0023
0000
0230
0000
2300
0000
3010
0100
0010
0000
1000
0100
0010
0000
,
0002
0000
0013
0100
0010
0000
1000
0000
0010
0000
0010
0000
0001
0000
0001
0000
,
2000
3020
0130
0110
1001
0000
0002
2003
,
3002
0000
0003
0001
0010
0000
0100
0000
2000
0000
3000
1000
0010
0000
0100
0000
,
0001
0000
0000
0001
0010
0000
1000
0000
0010
0100
0000
0100
1000
0001
1000
0001
,
2000
3020
0032
0023
2030
3200
0000
0320
,
0031
0000
1000
0010
1000
0001
1000
0000
0100
0010
0001
0100
0010
0000
1000
0000
,
1100
MMMM
1100
MMMM
1100
MMMM
0101
MMMM
,
1100
MMMM
1010
MMMM
1200
0000
1300
0000
,
0101
MMMM
0101
MMMM
0101
MMMM
1100
MMMM
,
0101
MMMM
0011
MMMM
0101
0100
0001
0000
,
1010
MMMM
1010
MMMM
1010
MMMM
0011
MMMM
,
1001
0000
1001
0000
1001
0000
0000
0000
0110
0000
1000
0001
1000
0000
1000
0000
,
0001
0010
0100
1000
0010
0100
0001
0010
0100
1000
0010
0100
0001
0010
0100
1000
,
0010
0100
0010
0100
0001
1000
0001
1000
0200
0000
0000
0000
0000
0000
0000
0000
,
0310
0001
0100
0010
0100
0001
0010
0100
1000
0010
0100
0010
1000
0100
0010
0100
,
0001
0100
0010
0001
1000
0010
0100
0001
1000
0010
0100
1000
0100
0010
0100
0001
,
1000
0010
1000
0100
0010
0001
0100
0001
1000
0100
0001
0100
1000
0100
0010
0002
,
0000
1003
0010
1000
0001
0010
0100
0010
0001
0100
0010
1000
0001
0010
0100
1000
,
0001
0100
0010
0001
0010
0100
0001
0010
0100
0001
0100
0010
0001
1000
0010
0100
,
1000
0100
0010
1000
0100
0010
1000
0010
0100
1000
0001
0100
0010
1000
0001
0010
,
0100
0010
0001
1000
0100
0010
0001
1000
0010
0100
0010
1000
0001
0100
0010
1000
,
0001
0010
0100
1000
0010
0100
0001
0010
0100
1000
0010
0000
0110
0000
0000
0000
,
2001
0000
0100
3000
,
0120
0000
0000
0000
0001
0001
0031
0000
,
2000
0000
3010
0100
0010
0000
0001
0000
1000
0100
0010
0000
1000
0100
0010
0000
,
0001
0000
0100
0010
0100
0000
1000
00M0
1000
0010
0100
0000
0001
0010
0100
1000
,
0002
0000
0013
0100
0010
0000
1000
0000
0001
0100
0010
0000
0001
0100
0010
0000
,
2000
0000
3020
0000
0230
0000
0301
00M0
0001
0010
0100
0000
0010
1000
0100
0010
,
0002
0000
0103
0010
0100
0000
2000
0000
3002
0000
0013
0100
0010
1000
0001
0000
,
0020
0000
0130
1000
0020
0000
0130
0000
0001
0010
0100
0000
1000
0010
0100
0001
,
2000
3200
0302
0203
2300
3020
0030
0110
,
0001
0000
1000
0100
0000
1000
0001
0000
1000
0010
0000
0100
0001
0010
0100
1000
,
0002
0000
0103
0010
0100
0000
1000
0000
0100
0010
0100
0000
0001
1000
0001
1000
,
0200
0000
0302
0000
2003
0000
3020
0000
0130
0010
0100
0000
1000
0010
0100
0001
,
2000
0000
3100
0010
0100
0000
0001
0000
0100
0010
0100
0000
1000
0001
1000
0001
,
0100
0010
1000
1001
0110
0000
2000
3002
,
2003
0000
3100
0010
0100
0000
0002
0000
2003
0000
3010
0100
0010
0001
1000
0000
,
0020
0000
0130
0001
0020
0000
0130
0000
1000
0010
0100
0000
0001
0010
0100
1000
,
0002
0203
2300
3200
0302
0023
0030
0110
,
1000
0000
0001
0100
0001
1000
0100
1000
0001
0100
0010
1000
0100
0000
0010
0000
,
0011
MMMM
0011
MMMM
0011
MMMM
1010
MMMM
,
0011
MMMM
0101
MMMM
0012
0000
1003
0000
,
1010
MMMM
1010
MMMM
1010
MMMM
0011
MMMM
,
1010
0000
0000
1000
0100
0000
0010
0001
1000
0010
0100
0001
0010
0001
0100
0000
,
0101
MMMM
0101
MMMM
0101
MMMM
1100
MMMM
,
1001
0000
1001
0000
1001
0000
0000
0000
0110
0000
1000
0001
1000
0000
1000
0000
,
0001
0100
0010
1000
0100
0010
0001
0100
0010
1000
0100
0010
0001
0100
0010
1000
,
0100
0110
2002
3003
;
