#VERSION:0.83;
#TITLE:Body;
#SUBTITLE:;
#ARTIST:Megan Thee Stallion;
#TITLETRANSLIT:;
#SUBTITLETRANSLIT:;
#ARTISTTRANSLIT:;
#GENRE:;
#CREDIT:;
#MUSIC:Body.ogg;
#BANNER:Body.png;
#BACKGROUND:Body background.png;
#PREVIEWVID:;
#JACKET:Body jacket.png;
#CDTITLE:;
#SAMPLESTART:51.064;
#SAMPLELENGTH:20.426;
#SELECTABLE:YES;
#OFFSET:0.000;
#BPMS:0.000=94.000;
#STOPS:;
#BGCHANGES:;
#FGCHANGES:;

//--------------- dance-single - ----------------
#NOTEDATA:;
#STEPSTYPE:dance-single;
#DESCRIPTION:;
#DIFFICULTY:Hard;
#METER:13;
#RADARVALUES:0,0,0,0,0;
#NOTES:
0000
0000
0000
0000
,
0000
0000
0000
0000
,
0000
0000
0000
0000
,
0000
0000
0000
0000
,
1000
0100
0001
0100
1000
0100
0001
0100
1000
0100
0001
0100
1000
0100
0001
0100
,
1000
0010
0001
0010
1000
0010
0001
0010
1000
0010
0001
0010
1000
0010
0002
0003
,
1000
0100
0001
0100
1000
0100
0001
0100
1000
0100
0001
0100
1000
0100
0001
0100
,
1000
0010
0001
0010
1000
0010
0001
0010
1000
0010
0001
0010
1000
0010
1010
0000
,
1000
0100
M100
0001
1000
0010
1000
0100
0010
0001
0100
010M
1000
0100
1100
0000
,
1000
0010
M010
0001
0010
0100
0010
0001
1000
0001
0100
M100
1000
0001
1001
0000
,
1000
0100
0001
0100
1000
0010
0001
0010
1000
0100
0001
0100
1000
0010
0001
0010
,
1000
0100
0001
0100
1000
0010
0001
0010
1000
0100
0001
0100
1000
0010
0001
0010
,
1000
0100
0010
0000
0001
0100
0100
0010
0100
0001
0100
0000
0001
0100
0020
0000
,
1030
0100
1000
0100
0010
0001
1000
0001
0100
0010
0010
0000
0100
0001
1000
1000
,
0100
0010
0100
1000
0010
1000
0100
1000
0001
0100
0100
0000
0010
1000
0001
1000
,
0001
0010
0001
1000
0001
1000
0100
1000
0010
1000
0001
0000
0100
0100
0100
0100
,
0001
1000
0010
0000
1000
0100
0001
1000
0001
0010
1000
0000
0001
0100
0010
1000
,
0100
1000
0100
0010
0001
0100
0010
0100
0001
0010
0001
1000
0010
0100
0001
0100
,
0110
0000
1001
0000
0001
0010
0100
1000
1100
0000
0101
0000
0001
0010
0100
0010
,
0100
0010
0001
0100
0010
0100
0010
1000
0010
1000
1010
0000
0002
0000
0003
0000
,
1000
0100
0001
0100
0001
0100
1000
0010
0001
0010
0001
0010
1000
0100
0001
0100
,
0001
0100
1000
0010
0001
0010
0001
0010
1000
0100
0001
0100
0001
0100
2000
3000
,
0001
0100
1000
0100
1000
0100
0001
0010
1000
0010
1000
0010
0001
0100
1000
0100
,
1000
0100
0001
0010
1000
0010
1000
0010
0001
0100
1000
0100
1000
0100
0101
0000
,
0001
0100
010M
1000
0010
1000
0100
1000
0100
0010
001M
1000
0010
0100
0110
0000
,
0010
0100
010M
1000
0001
0010
0001
1000
0100
1000
0010
M010
0001
0010
0011
0000
,
1000
0100
0001
0100
0001
0100
0010
0001
1000
0010
0001
0010
0001
0100
0010
1000
,
0100
0001
0100
0001
0100
0010
0001
1000
0010
0001
0010
0001
0100
0010
1000
0001
,
0100
0000
0001
0010
0010
0000
0100
1000
0001
0010
0001
1000
0020
0000
1030
0100
,
1000
0001
0100
0100
0100
0010
0010
0010
1000
0100
0010
0100
0010
0000
0100
1000
,
0001
0100
0010
0000
0100
0010
0100
0001
1000
0001
1000
0000
0010
0100
0001
0100
,
0010
1000
0100
0100
0010
0001
1000
0001
0010
0010
0001
0000
0100
0000
0100
0000
,
0001
0000
0100
0000
0001
0000
0010
0000
0001
0000
0000
0000
0100
0000
0001
0000
0100
0000
0000
0010
0000
0000
0010
0000
0000
0000
0000
0000
1000
0000
0000
0000
,
0200
0000
0000
0000
1300
0000
0100
0000
0010
0000
0000
0000
0100
0000
1000
0000
0001
0000
0000
0100
0000
0000
0100
0000
0000
0000
0000
0000
0020
0000
0000
0000
,
1030
0010
1000
0000
0010
0100
0001
0010
0001
0000
0010
0010
0000
0001
1000
0100
,
0100
1000
0001
0010
0001
0001
1000
0010
1000
0000
0100
0100
0000
0000
0110
0000
,
1000
0100
0001
1000
0010
0001
1000
0100
0001
1000
0010
0001
1000
0100
0001
1000
,
0010
0001
1000
0100
0001
1000
0010
0001
1000
0100
0001
1000
0010
0001
2000
3000
,
0001
0100
1000
0001
0010
1000
0001
0100
1000
0001
0010
1000
0001
0100
1000
0001
,
0010
1000
0001
0100
1000
0001
0010
1000
0001
0100
1000
0001
0010
1000
1010
0000
,
1000
0100
M100
0001
0010
001M
1000
0010
0100
0001
1000
0100
1000
0010
1010
0000
,
1000
0010
M010
0001
0100
010M
1000
0001
0010
0001
0100
0001
0100
0010
0110
0000
,
1000
0100
0001
1000
0001
0100
1000
0010
0001
1000
0001
0010
1000
0100
0001
1000
,
0001
0100
1000
0010
0001
1000
0001
0010
1000
0100
0001
1000
0001
0100
1000
0000
,
0010
0000
0000
0000
;
