#VERSION:0.83;
#TITLE:ブルータワー;
#SUBTITLE:;
#ARTIST:kk2 feat. 歌愛ユキ;
#TITLETRANSLIT:Blue Tower;
#SUBTITLETRANSLIT:;
#ARTISTTRANSLIT:kk2 feat. Kaai Yuki;
#GENRE:;
#ORIGIN:;
#CREDIT:;
#BANNER:Blue Tower-bn.png;
#BACKGROUND:Blue Tower-bg.png;
#PREVIEWVID:;
#JACKET:Blue Tower-jacket.png;
#CDIMAGE:;
#DISCIMAGE:;
#LYRICSPATH:;
#CDTITLE:;
#MUSIC:Blue Tower.ogg;
#OFFSET:1.922000;
#SAMPLESTART:45.763000;
#SAMPLELENGTH:15.000000;
#SELECTABLE:YES;
#BPMS:0.000=210.020;
#STOPS:;
#DELAYS:;
#WARPS:;
#TIMESIGNATURES:0.000=4=4;
#TICKCOUNTS:0.000=4;
#COMBOS:0.000=1;
#SPEEDS:0.000=1.000=0.000=0;
#SCROLLS:0.000=1.000;
#FAKES:;
#LABELS:0.000=Song Start,
237.500=Halfway Marker;
#BGCHANGES:0.000=Blue Tower-bg.png=1.000=0=0=1=====,
6.500=Blue Tower.mp4=1.000=0=0=1=====,
450.000=Blue Tower-bg.png=1.000=1=0=1===CrossFade==,
99999=-nosongbg-=1.000=0=0=0 // don't automatically add -songbackground-
;
#KEYSOUNDS:;
#ATTACKS:
;

//---------------dance-single - ----------------
#NOTEDATA:;
#CHARTNAME:;
#STEPSTYPE:dance-single;
#DESCRIPTION:;
#CHARTSTYLE:;
#DIFFICULTY:Hard;
#METER:14;
#RADARVALUES:0.611675,0.729911,0.569841,0.261177,0.083102,541.000000,469.000000,72.000000,33.000000,0.000000,0.000000,0.000000,0.000000,0.000000,0.611675,0.729911,0.569841,0.261177,0.083102,541.000000,469.000000,72.000000,33.000000,0.000000,0.000000,0.000000,0.000000,0.000000;
#CREDIT:;
#DISPLAYBPM:211.000000;
#NOTES:
// measure 0
0000
0000
0000
0000
,  // measure 1
0000
0000
0000
0000
,  // measure 2
0000
0000
0000
0000
,  // measure 3
0000
0000
0000
0000
,  // measure 4
0000
0000
0000
0000
,  // measure 5
0000
0000
0000
0000
,  // measure 6
0000
0000
0000
0000
,  // measure 7
0000
0000
0000
0000
,  // measure 8
0000
0000
0000
0000
,  // measure 9
0000
0000
0000
0000
0000
0000
0000
1000
,  // measure 10
0001
0100
0001
0000
1000
0000
0001
0000
,  // measure 11
1000
0100
1000
0001
0100
0000
0001
0000
,  // measure 12
1000
0010
1000
0000
0100
0000
0010
0000
,  // measure 13
0001
0000
0100
0001
1000
0100
1000
0000
,  // measure 14
0000
0001
0000
0010
0100
0000
1000
0010
,  // measure 15
0000
0000
0010
0100
0000
0100
0010
0000
,  // measure 16
0001
0000
1000
0000
0001
0000
0100
0000
0010
0000
0100
0000
,  // measure 17
0010
0000
0000
0000
1000
0000
0010
0000
0000
0000
1000
0000
0000
0000
0100
0000
0000
0000
0000
0000
0000
1001
0000
0000
,  // measure 18
1000
0001
0010
0000
0000
1000
0100
0010
,  // measure 19
0001
0000
0000
0100
0001
0000
1000
0000
,  // measure 20
0010
1000
0001
0100
0001
0000
1000
0000
,  // measure 21
0010
0000
1000
0000
0100
0000
0010
0001
,  // measure 22
1000
0000
0001
1000
0010
0000
1000
0001
,  // measure 23
0100
0000
0001
1000
0100
0010
0101
0000
,  // measure 24
0010
0000
1000
0100
0010
0100
0001
0000
,  // measure 25
1100
0010
0000
0100
0000
1000
0110
0000
,  // measure 26
1000
0010
0100
0000
0001
0000
1000
0100
,  // measure 27
0001
1000
0100
0000
0001
0000
0200
0000
,  // measure 28
1000
0000
0301
0100
0010
0000
1000
0000
,  // measure 29
0001
0010
0100
0010
0001
0000
1000
0000
,  // measure 30
0001
0100
1000
0000
0001
0100
2000
0000
,  // measure 31
0100
0001
3100
0010
,  // measure 32
1000
0100
0001
0000
1000
0100
0001
0000
,  // measure 33
0010
0100
1000
0000
,  // measure 34
0010
1000
0010
0001
0100
1000
0010
0001
,  // measure 35
0010
1000
0200
0000
0300
0000
0000
0000
,  // measure 36
0010
0001
0010
1000
0100
0001
0100
1000
,  // measure 37
0001
0010
0001
0000
1000
0000
1001
0000
,  // measure 38
0011
0100
0010
0000
1000
0000
0001
0000
,  // measure 39
0100
0010
1000
1001
,  // measure 40
0110
0000
1000
0000
0001
0000
0000
0000
0010
0000
0000
0000
0100
0000
0010
0100
,  // measure 41
0010
1010
0000
0001
,  // measure 42
0200
0001
0301
0000
0020
0100
0130
1000
,  // measure 43
0001
1000
0110
0001
,  // measure 44
2000
0100
3100
0000
0020
0100
0130
0000
,  // measure 45
1000
0000
0010
0000
1001
0000
0000
0110
,  // measure 46
0000
0000
0010
0000
1000
0100
0010
0001
,  // measure 47
1000
0010
1000
0000
0001
0000
1001
0000
,  // measure 48
1100
0110
0011
1001
,  // measure 49
0110
0000
2002
0000
3003
0010
0000
2000
,  // measure 50
0001
3001
0000
0020
0100
0130
0000
1000
,  // measure 51
0000
0000
0001
0010
0100
1000
0000
0002
,  // measure 52
0010
0013
0000
0200
0010
0310
0000
0100
,  // measure 53
0000
1000
0001
0010
1000
0010
0001
1001
,  // measure 54
0000
0000
0010
0000
0100
0001
1000
0001
,  // measure 55
0100
0010
0001
0110
,  // measure 56
1001
1010
0110
0101
,  // measure 57
1001
0000
0000
0000
0220
0000
0000
0000
0330
0000
0000
0000
0000
0000
1000
0001
,  // measure 58
1000
1002
1000
0010
,  // measure 59
0100
0010
1000
0203
,  // measure 60
0010
1000
0010
0001
,  // measure 61
0010
1000
0010
0301
,  // measure 62
1001
1001
0000
1000
,  // measure 63
0010
0000
1000
0001
0100
0001
0010
1000
,  // measure 64
0100
0000
0001
0100
0000
1000
0010
0000
,  // measure 65
0110
0000
0110
0000
0001
0000
2000
0010
,  // measure 66
3010
0000
0200
0001
0301
0000
1000
0000
,  // measure 67
1001
1010
1100
0001
,  // measure 68
0020
0100
0130
0000
1000
0000
0001
0000
,  // measure 69
0010
0100
1000
0100
0001
0100
1000
0000
,  // measure 70
0001
0100
0000
0010
,  // measure 71
0100
0000
0001
1001
,  // measure 72
0110
1100
0011
1001
,  // measure 73
0220
0000
0330
0000
0100
0000
0020
1000
,  // measure 74
1030
0000
0002
0010
0013
0000
0000
0000
,  // measure 75
0110
1010
1100
0001
,  // measure 76
2000
0100
3100
0000
0001
0000
0100
0010
,  // measure 77
1000
0000
0001
0010
0100
1000
0002
0000
,  // measure 78
0000
0000
0103
0000
0010
0000
0100
0010
,  // measure 79
0001
0010
1000
0010
0001
0000
1001
0000
,  // measure 80
1010
0101
1001
0110
,  // measure 81
2002
0000
0000
0000
3003
0000
0000
0000
0000
0000
1000
0100
1000
0000
0000
0000
,  // measure 82
1001
0002
0100
0013
,  // measure 83
2000
0100
3001
0100
,  // measure 84
1000
0001
1000
0000
0010
1000
0001
0000
,  // measure 85
0010
0100
1000
0000
0001
0000
0100
0000
,  // measure 86
0000
0010
1000
0001
,  // measure 87
0100
0010
1000
0010
,  // measure 88
0011
1000
1010
1001
,  // measure 89
0002
0000
0000
0000
0000
0000
0003
0000
0100
0010
0100
0000
0110
0000
0000
0000
,  // measure 90
1000
0000
0001
0000
0100
1000
0010
1000
,  // measure 91
0100
0001
1000
0100
,  // measure 92
1000
0000
0000
0001
0000
0000
0010
0100
0000
1000
0100
0000
,  // measure 93
1000
0001
0000
0100
0001
0000
0011
0000
0000
0000
0000
0000
,  // measure 94
1000
0000
0100
0000
0010
0000
0001
0000
0010
0000
0100
0000
,  // measure 95
1000
0000
0000
0000
0010
0000
0000
0000
0100
0000
0000
0000
0001
0000
0000
0000
0000
0000
0000
0000
0000
1001
0000
0000
,  // measure 96
0000
0000
0000
0000
1100
0000
0000
1002
,  // measure 97
0000
0100
0103
0010
0000
0000
0011
0000
,  // measure 98
0100
0000
0000
1010
0000
0000
0010
0000
,  // measure 99
0101
0000
1000
1000
1000
0000
0011
0000
,  // measure 100
1001
0000
0100
0100
0100
0000
0110
0000
,  // measure 101
1001
0110
0000
0001
,  // measure 102
0000
1000
0001
0000
0100
0110
0000
1000
,  // measure 103
0001
0100
0001
0000
1000
0011
0000
0000
,  // measure 104
0001
0000
1000
0001
0010
1001
0000
1001
,  // measure 105
0000
1001
0100
0002
0000
0000
0000
0000
,  // measure 106
0000
0000
0000
0000
,  // measure 107
0000
0000
0000
0000
,  // measure 108
0000
0000
0003
0000
;
