#VERSION:0.83;
#TITLE:Blooming Colors;
#SUBTITLE:;
#ARTIST:Feris ft. Azia;
#TITLETRANSLIT:;
#SUBTITLETRANSLIT:;
#ARTISTTRANSLIT:;
#GENRE:AYUMU FANSONG;
#ORIGIN:;
#CREDIT:;
#BANNER:Blooming Colors.png;
#BACKGROUND:Blooming Colors-bg.png;
#PREVIEWVID:;
#JACKET:Blooming Colors-jacket.png;
#CDIMAGE:;
#DISCIMAGE:;
#LYRICSPATH:;
#CDTITLE:;
#MUSIC:Blooming Colors.ogg;
#OFFSET:0.750513;
#SAMPLESTART:42.022064;
#SAMPLELENGTH:15.620000;
#SELECTABLE:YES;
#BPMS:0.000=189.980;
#STOPS:;
#DELAYS:;
#WARPS:;
#TIMESIGNATURES:0.000=4=4;
#TICKCOUNTS:0.000=4;
#COMBOS:0.000=1;
#SPEEDS:0.000=1.000=0.000=0;
#SCROLLS:0.000=1.000;
#FAKES:;
#LABELS:0.000=Song Start;
#BGCHANGES:2.500=Blooming Colors.mp4=1.000=1=0=1===CrossFade==,
99999=-nosongbg-=1.000=0=0=0 // don't automatically add -songbackground-
;
#KEYSOUNDS:;
#ATTACKS:
;

//---------------dance-single - ----------------
#NOTEDATA:;
#CHARTNAME:;
#STEPSTYPE:dance-single;
#DESCRIPTION:;
#CHARTSTYLE:;
#DIFFICULTY:Hard;
#METER:14;
#RADARVALUES:0.784821,0.902949,0.541498,0.462735,0.147681,558.000000,503.000000,55.000000,47.000000,0.000000,0.000000,0.000000,0.000000,0.000000,0.784821,0.902949,0.541498,0.462735,0.147681,558.000000,503.000000,55.000000,47.000000,0.000000,0.000000,0.000000,0.000000,0.000000;
#CREDIT:BlindedVanguard573;
#NOTES:
0000
0000
0000
0000
,
0000
0000
0000
0000
,
0201
0000
1300
0100
0001
0001
1000
0000
,
1200
0000
0301
0100
1000
1000
0001
0000
,
1010
0000
0101
0000
1010
0000
1000
0100
,
0001
0100
1000
0002
0000
0103
0010
0100
,
0102
0013
2100
3010
,
1001
0000
0110
0000
1002
0000
0103
0010
,
2000
0000
0000
0000
3100
0000
0001
0000
0100
0000
1000
0000
0001
0000
1000
0001
,
1000
0000
0000
0210
0000
0001
0301
0000
,
1000
0001
0010
0001
0000
0001
1000
0001
,
0000
1000
0010
1000
0000
1000
0001
1000
,
0000
0001
0100
0001
0000
0001
1000
0001
,
0000
1000
0100
1000
0000
1000
0001
1000
,
0000
0001
0010
0001
0000
0010
1000
0010
,
0000
1000
0100
1000
0000
0100
0001
0100
,
0002
0000
0023
0000
0230
0000
1000
1300
,
0001
0100
1000
0200
0000
0010
0310
0000
,
1000
0010
0100
0001
0100
0100
0010
0000
,
1000
0100
0010
0001
0010
0010
0100
0000
,
1000
0001
0100
0001
0010
0010
0100
0000
,
1000
0200
0320
0032
0000
0103
0010
1000
,
2001
0000
0000
3100
0200
0000
0000
0301
,
0002
2003
3020
0032
,
2003
0000
0000
0010
0010
0000
0100
3100
,
1000
0000
0010
0000
0100
0000
0001
1000
0001
0000
0010
0000
0100
0000
1000
0000
,
0001
0000
0000
0100
0101
0000
0000
1000
,
0100
0001
0100
0000
1001
0000
0000
0000
,
1000
0000
0000
0001
0011
0001
0100
0010
,
1010
0000
0000
0000
0101
0000
0000
0000
1000
0000
0001
1000
0001
0000
1000
0000
,
0012
0000
0000
0100
0100
0000
0000
1000
,
1003
0010
0001
0020
0000
0130
0001
1000
,
2100
0000
3010
1000
0012
0000
0103
0101
,
0000
0000
1010
0000
0000
0000
0011
0000
0000
0000
1100
0000
1000
0001
1000
0001
,
1000
0001
0100
0010
0000
0001
0100
0010
,
0000
0001
0100
0010
1000
0010
0100
0001
,
0000
1000
0100
0010
0000
1000
0100
0010
,
0000
1000
0100
0010
0001
0010
0100
1000
,
0000
0001
0100
1000
0000
0001
0100
1000
,
0000
0001
0100
1000
0100
0001
0010
0100
,
0000
1000
0010
0001
0010
1000
0100
0001
,
0100
0000
0010
0000
0001
0000
1000
0010
1000
0000
0001
0010
0001
0010
0100
1000
,
0100
1000
0001
2000
0000
0010
3100
0000
,
0100
1000
0001
0200
0000
0310
0110
0000
,
0100
0001
0010
2000
0000
3010
1000
0000
,
0010
0001
0100
0020
0000
0130
0110
0000
,
0010
0010
1000
0100
0010
0010
0001
0100
,
1000
1000
0001
0010
0100
0100
0001
1000
,
0011
0001
0101
0000
1010
1000
1100
0000
,
1000
0000
0010
0000
0001
0000
0010
0000
1000
0001
1000
0001
1000
0001
1000
0001
,
1000
0001
0100
1000
0000
0001
0100
0010
,
0000
0001
0100
1000
0001
0010
0100
0001
,
0000
1000
0100
0001
0000
1000
0100
0010
,
0000
1000
0100
0001
1000
0010
0100
1000
,
0000
0001
0100
0010
0000
0001
1000
0100
,
0000
0010
1000
0100
0001
1000
0010
0100
,
0000
1000
0010
0001
0010
1000
0100
0001
,
0100
0000
1000
0000
0001
0100
0001
0100
0010
1000
0010
0000
1000
0001
1000
0001
,
1000
0001
0100
0020
0000
0100
0031
0000
,
0010
1000
0100
0002
0000
0103
1100
0000
,
1000
0010
1010
0000
0001
0100
0101
0000
,
1000
0000
0100
0000
1100
0000
0100
1000
0001
0000
1000
0000
0001
0000
0100
0000
,
0102
1000
0010
0103
,
2100
0001
0010
3100
,
1000
0100
0011
0000
0001
0100
1010
0000
,
0001
0100
0100
1000
1000
0001
0010
1000
,
1001
0000
0000
0000
0000
0000
0000
1020
,
0000
0000
0031
0000
1000
0000
0100
0000
0010
0000
1000
0001
1000
0001
1000
0001
,
2000
0000
3001
0100
0010
0100
1000
0200
,
0000
0000
0310
0000
1000
0000
0001
0000
0010
0100
0010
0100
0010
0100
0010
0100
,
2000
0000
3010
0001
1000
0100
0001
0000
,
1200
0000
0301
1000
0010
0001
1000
0000
,
1010
0000
0101
0000
0021
0000
0100
0130
,
1000
0010
0001
0020
0000
0130
0001
1000
,
2010
3100
0012
0103
,
0101
0000
1010
0000
2001
0000
3100
0010
,
0012
0000
0000
0000
1003
0000
0010
0000
0100
0000
0010
0000
0001
0010
0001
0010
,
0100
0001
0001
1000
0100
0100
0010
0000
,
0011
0011
0000
1100
0000
0101
0000
2010
,
0000
0000
0000
0000
3001
0010
0001
0010
0200
0000
0000
0000
0300
0000
0000
0000
;

//---------------dance-single - ----------------
#NOTEDATA:;
#CHARTNAME:;
#STEPSTYPE:dance-single;
#DESCRIPTION:;
#CHARTSTYLE:;
#DIFFICULTY:Beginner;
#METER:4;
#RADARVALUES:0.282704,0.313085,0.059073,0.000000,0.000000,201.000000,195.000000,6.000000,0.000000,0.000000,0.000000,0.000000,0.000000,0.000000,0.282704,0.313085,0.059073,0.000000,0.000000,201.000000,195.000000,6.000000,0.000000,0.000000,0.000000,0.000000,0.000000,0.000000;
#CREDIT:BlindedVanguard573;
#NOTES:
0000
0000
0000
0000
,
0000
0000
0000
0000
,
1000
0000
0001
0001
,
0001
0000
0100
0100
,
0100
0000
0010
0000
,
1000
1000
1000
0000
,
0001
0000
0010
0000
,
0100
0100
0100
0000
,
1000
1000
1000
0000
,
0001
0001
0001
0000
,
0100
0000
0010
0000
,
1000
0000
0001
0000
,
0010
0000
0100
0000
,
1000
0000
0001
0000
,
1000
0000
0010
0000
,
0001
0000
0010
0000
,
0100
0100
0100
0000
,
0001
0001
0001
0000
,
1000
0000
0100
0000
,
0001
0000
0100
0000
,
1000
0000
0010
0000
,
0100
0000
0001
0000
,
1000
0000
0001
0000
,
0010
0010
0010
0010
,
0010
0000
0001
0000
,
1000
0000
0100
0000
,
1000
0000
0010
0000
,
0100
0100
0100
0000
,
0001
0000
1000
0000
,
0010
0010
0010
0010
,
0010
0000
0100
0000
,
0001
0000
1000
0000
,
0100
0100
0100
0000
,
0010
0010
0010
0010
,
0010
0000
0100
0000
,
1000
0000
0001
0000
,
0100
0100
0100
0000
,
0010
0010
0010
0000
,
0100
0000
0001
0000
,
1000
0000
0100
0000
,
0010
0010
0010
0000
,
0100
0100
0100
0000
,
1000
0000
0001
0000
,
0100
0100
0100
0000
,
0001
0000
1000
0000
,
0010
0010
0010
0000
,
1000
1000
1000
0000
,
0001
0001
0001
0000
,
0010
0010
0010
0000
,
0100
0100
0100
0100
,
0100
0000
1000
0000
,
0001
0000
0100
0000
,
0010
0010
0010
0000
,
0001
0001
0001
0000
,
1000
0000
0010
0000
,
0100
0000
0001
0000
,
1000
1000
1000
0000
,
0100
0100
0100
0000
,
0010
0000
0001
0000
,
1000
1000
1000
0000
,
0010
0000
0100
0000
,
0001
0001
0001
0000
,
0010
0010
0010
0000
,
0100
0100
0100
0000
,
1000
1000
1000
0000
,
0001
0001
0001
0000
,
1001
0000
0000
0000
,
1001
0000
0110
0000
,
1001
0000
0000
0000
,
1001
0000
0000
0000
,
1000
0000
0010
0010
,
0010
0000
0100
0100
,
0100
0000
0001
0000
,
1000
0000
0100
0000
,
0010
0010
0010
0000
,
0100
0100
0100
0000
,
1000
0000
0001
0000
,
0100
0000
0010
0000
,
0100
0000
0010
0010
,
0010
0000
1001
0000
;

//---------------dance-single - ----------------
#NOTEDATA:;
#CHARTNAME:;
#STEPSTYPE:dance-single;
#DESCRIPTION:;
#CHARTSTYLE:;
#DIFFICULTY:Easy;
#METER:7;
#RADARVALUES:0.419134,0.471104,0.137836,0.029536,0.000000,298.000000,284.000000,14.000000,3.000000,0.000000,0.000000,0.000000,0.000000,0.000000,0.419134,0.471104,0.137836,0.029536,0.000000,298.000000,284.000000,14.000000,3.000000,0.000000,0.000000,0.000000,0.000000,0.000000;
#CREDIT:BlindedVanguard573;
#NOTES:
0000
0000
0000
0000
,
0000
0000
0000
0000
,
1000
0000
1000
0001
,
0100
0000
0100
0010
,
1000
0100
1000
0100
,
0010
0001
1000
0001
,
0100
0000
0010
0000
,
1000
0001
1001
0000
,
1000
0100
0010
0001
,
1000
1000
0001
0000
,
0100
0100
0010
0010
,
1000
0000
0001
0000
,
0010
0010
0100
0100
,
1000
0000
0001
0000
,
1000
0010
1000
0010
,
0100
0001
1000
0000
,
0001
0010
1000
0010
,
0100
0100
1000
1000
,
0001
0100
1000
0100
,
0001
0000
1000
0000
,
0001
0010
1000
0010
,
0001
0000
1000
0000
,
1010
0000
0101
0000
,
1000
0100
0001
0100
,
1000
1000
0001
0001
,
0100
0100
0010
0010
,
1000
0010
1000
0010
,
0100
0001
0100
0001
,
1000
0100
0001
0100
,
0010
0010
0010
0010
,
0011
0000
1100
0000
,
1000
0010
0100
0001
,
1000
1000
0100
0100
,
0001
0100
1000
0001
,
1000
0010
1000
0010
,
0100
0001
0100
0001
,
1000
0100
1000
0100
,
0010
0001
0010
0001
,
1000
0010
1000
0010
,
0100
1000
0100
1000
,
0001
0010
0001
0010
,
0100
0001
0100
0001
,
1000
0001
0010
0010
,
0001
1000
0010
0010
,
1000
0001
0100
0100
,
0001
1000
0100
0100
,
1000
0010
0100
1000
,
0100
0010
1000
0001
,
0010
0010
0100
0100
,
1000
0001
1000
1001
,
1000
0010
0001
0010
,
0100
0001
1000
1000
,
0001
0010
1000
0010
,
0100
1000
0001
0001
,
0100
1000
0001
0010
,
0100
0001
1000
1000
,
0001
0010
1000
0001
,
0100
1000
0010
0010
,
1000
0100
0010
0010
,
0100
1000
0001
0001
,
0100
0100
0010
0010
,
1000
1000
0001
0001
,
0010
0100
0010
0100
,
1000
0001
1000
0001
,
1000
1000
0010
0010
,
0100
0100
0001
0001
,
1001
0000
0000
0000
,
1000
0100
0001
0010
,
1000
1000
0001
0001
,
0100
0010
0100
1001
,
0001
0010
0001
0001
,
1000
0010
1000
1000
,
0001
0100
1000
0100
,
0010
1000
0001
0010
,
1100
0000
0011
0000
,
1001
0110
1001
0000
,
1000
0010
0001
0010
,
0100
0100
0010
0010
,
1000
0000
0000
0001
0000
1000
0000
0002
,
0000
0003
2002
3003
;

//---------------dance-single - ----------------
#NOTEDATA:;
#CHARTNAME:;
#STEPSTYPE:dance-single;
#DESCRIPTION:;
#CHARTSTYLE:;
#DIFFICULTY:Medium;
#METER:10;
#RADARVALUES:0.659644,0.628138,0.699025,0.305208,0.000000,469.000000,398.000000,71.000000,31.000000,0.000000,0.000000,0.000000,0.000000,0.000000,0.659644,0.628138,0.699025,0.305208,0.000000,469.000000,398.000000,71.000000,31.000000,0.000000,0.000000,0.000000,0.000000,0.000000;
#CREDIT:BlindedVanguard573;
#NOTES:
0000
0000
0000
0000
,
0000
0000
0000
0000
,
1100
0000
0101
0000
0001
0100
1000
0000
,
0101
0000
1100
0000
1000
0100
0001
0000
,
0011
1100
0101
1010
,
0001
0010
0100
0000
0100
0010
0001
0000
,
2010
3001
0012
1003
,
1001
0000
0110
0000
1001
0000
0001
0100
,
1000
0000
1000
0100
0001
0000
0010
0000
,
0100
0100
0000
2002
0000
0000
3003
0000
,
2000
0010
0100
3001
,
0002
0010
0100
0010
,
2003
0010
0001
3100
,
2010
3100
0012
0103
,
1002
0010
0100
1003
,
2001
0010
0100
3001
,
1000
0100
0001
0010
,
1000
0010
0100
0002
0000
1000
1003
0000
,
0001
0101
1000
1100
,
0001
0011
1000
1010
,
0010
1001
0100
1001
,
0100
0011
0100
1010
,
2100
3010
0102
0013
,
0011
1100
0101
1010
,
0010
1000
0100
0000
0010
0001
0100
0000
,
0010
1000
0001
0100
0010
1000
0001
0000
,
1000
0100
0001
0100
,
1000
0010
0100
0001
,
1000
0000
0010
0000
0001
0010
1000
0001
,
1000
1001
0110
1001
,
0001
0100
0001
0000
0100
1000
0100
0000
,
1000
0010
1000
0000
0010
0001
0010
0000
,
0012
0000
0103
0000
2010
0000
3100
1000
,
0000
1010
0000
0101
0000
2010
0000
3001
,
1000
0100
0010
0000
0100
0010
0001
0000
,
0010
0001
1000
0000
0001
1000
0100
0000
,
1000
0010
0100
0000
0010
0100
0001
0000
,
0100
0001
1000
0000
0001
1000
0100
0000
,
1000
0010
0100
0000
1000
0100
0001
0000
,
1000
0001
1000
0000
0010
0100
0010
0000
,
1000
0100
1000
0100
0010
0100
0010
0100
,
0010
0001
0010
0001
1000
0001
1000
0000
,
0001
0000
0101
0000
1000
0001
1000
0000
,
0001
0000
0011
0000
1000
0001
1000
0000
,
0010
0000
0101
0000
1000
0001
1000
0000
,
0100
0000
0011
0000
1000
0001
1000
0000
,
0001
0100
1000
0000
0100
0010
1000
0000
,
0001
0010
1000
0000
0001
0100
1000
0000
,
1010
0101
0011
1100
,
0001
0100
0010
1000
0010
0100
0001
0000
,
1000
0010
0100
0000
0010
0100
0001
0000
,
0100
0001
1000
0000
0001
1000
0010
0000
,
1000
0100
0010
0000
0100
0010
0001
0000
,
0010
0001
1000
0000
0001
1000
0010
0000
,
1000
0100
0010
0000
1000
0010
0001
0000
,
1000
0001
1000
0000
0100
0010
0100
0000
,
1000
0010
1000
0010
0100
0010
0100
0010
,
0100
0001
0100
0001
1000
0001
1000
0000
,
0001
0000
0011
0000
1000
0001
1000
0000
,
0001
0000
0101
0000
1000
0001
1000
0000
,
1000
0010
0001
0000
1000
0100
0001
0000
,
0010
0100
0010
0100
1000
0001
1000
0000
,
0012
1000
0100
0013
,
2010
0001
0100
3010
,
1000
0010
0001
0000
0001
0010
1000
0000
,
0001
0010
0100
1000
0100
0010
0001
1000
,
0001
0000
0000
0000
0000
0000
0000
2010
,
0000
3200
0302
2003
,
3010
0100
0010
0000
0001
1000
0001
0000
,
1000
0010
0100
0001
0100
0010
1000
0000
,
1100
0000
0101
0000
0001
0100
1000
0000
,
0101
0000
1100
0000
1000
0100
0001
0000
,
0011
1100
0101
1010
,
0001
0010
0100
0000
0100
0010
0001
0000
,
2010
3001
0012
1003
,
1001
0000
0110
0000
1001
0000
0001
0100
,
1000
0000
1000
0100
0001
0000
0010
0000
,
0100
0100
0000
2002
0000
0000
3003
0000
,
1000
0001
0000
0011
0000
1100
0000
2002
,
0000
3003
0220
0330
;

//---------------dance-double - ----------------
#NOTEDATA:;
#CHARTNAME:;
#STEPSTYPE:dance-double;
#DESCRIPTION:;
#CHARTSTYLE:;
#DIFFICULTY:Hard;
#METER:14;
#RADARVALUES:0.763724,0.785173,0.423353,0.452890,0.103377,543.000000,500.000000,43.000000,46.000000,0.000000,0.000000,0.000000,0.000000,0.000000,0.763724,0.785173,0.423353,0.452890,0.103377,543.000000,500.000000,43.000000,46.000000,0.000000,0.000000,0.000000,0.000000,0.000000;
#CREDIT:BlindedVanguard573;
#NOTES:
00000000
00000000
00000000
00000000
,
00000000
00000000
00000000
00000000
,
00012000
00000000
00103000
00010000
01000000
00001000
00010000
00000000
,
00021000
00000000
00030010
00001000
00000100
00010000
00001000
00000000
,
00011000
00000000
10010000
00000000
12000000
00000000
03010000
01000000
,
10000000
00100000
00010000
00200000
00000000
01300000
00001000
00010000
,
00021000
00030100
00002100
00003001
,
00000101
00000000
00001010
00000000
00001002
00000000
00000103
00001000
,
00020000
00000000
00000000
00000000
00130000
00000000
01000000
00000000
00100000
00000000
01000000
00000000
00010000
00000000
10000000
00010000
,
20000000
00000000
00000000
01000000
00000000
00010000
30010000
00000000
,
10000000
00010000
01000000
00010000
00000000
10000000
00100000
10000000
,
00000000
00010000
00100000
00010000
00000000
10000000
01000000
10000000
,
00000000
00010000
01000000
00001000
00000000
00010000
00000100
00001000
,
00000000
00000010
00010000
00001000
00000000
00100000
00010000
01000000
,
00000000
00010000
01000000
10000000
00000000
00010000
00100000
01000000
,
00000000
00001000
00010000
00000100
00000000
00001000
00000010
00000100
,
00000002
00000000
00000023
00000000
00002030
00000000
00000010
00003010
,
00000001
00000100
00000010
00002000
00000000
00000001
00003001
00000000
,
00001000
00000100
00010000
00001000
00100000
00010000
10000000
00000000
,
00010000
01000000
10000000
01000000
00001000
00010000
00001000
00000000
,
00010000
00000100
00001000
00000010
00010000
00001000
00100000
00000000
,
00010000
01000000
10000000
02000000
00000000
03100000
10000000
00010000
,
01020000
00000000
00000000
01030000
00002000
00000000
00000000
00013000
,
00000200
00000320
00000032
00002003
,
00003002
00000000
00000000
00000010
00000010
00000000
00000100
00000103
,
00000001
00000000
00000100
00000000
00001000
00000000
00000100
00000010
00000100
00000000
00000010
00000000
00010000
00000000
00001000
00000000
,
01000000
00000000
00000000
01000000
00100000
00000000
00000000
00100000
,
10000000
01000000
00010000
00000000
00001000
00000000
00100000
00000000
,
01000000
00000000
00000000
10000000
00100000
01000000
00001000
00010000
,
00011000
00001001
00011000
10010000
,
10000000
00100000
10000000
01000000
00100000
00001000
00100000
00010000
,
01000000
00001000
01000000
00001000
00010000
00000100
00001000
00000010
,
00000200
00000000
00000310
00000010
00002000
00000000
00003001
00000010
,
00000000
00000000
00001100
00000000
00000000
00000000
00000101
00000000
00000000
00000000
00001001
00000000
00000001
00001000
00000001
00001000
,
00000001
00001000
00000100
00000010
00000000
00001000
00000100
00000010
,
00000000
00001000
00000100
00010000
00001000
00100000
00010000
01000000
,
00000000
00100000
10000000
01000000
00000000
00100000
10000000
01000000
,
00000000
00100000
10000000
01000000
00010000
00001000
00010000
01000000
,
00000000
10000000
00010000
01000000
00000000
10000000
00010000
01000000
,
00000000
10000000
00100000
01000000
00001000
00010000
00000100
00001000
,
00000000
00000001
00000100
00001000
00000100
00000010
00010000
00001000
,
00100000
00000000
00010000
00000000
01000000
00000000
00100000
00000000
10000000
00000000
00010000
00000000
10000000
00010000
10000000
00010000
,
10000000
01000000
00010000
02000000
00000000
00100000
03100000
00000000
,
00010000
01000000
10000000
02000000
00000000
00001000
03001000
00000000
,
00010000
00000100
00001000
00000002
00000000
00000100
00000103
00000000
,
00000001
00000100
00001000
00010000
00100000
10000000
00010000
00000000
,
10000000
10000000
01000000
10000000
00010000
00010000
01000000
00001000
,
00010000
00010000
00000100
00001000
00000010
00000010
00010000
00001000
,
00100000
00010000
01010000
00000000
00100000
10000000
11000000
00000000
,
10000000
00000000
01000000
00000000
00010000
00000000
00001000
00000000
00000010
00000000
00000001
00001000
00000001
00001000
00000001
00001000
,
00000001
00001000
00000100
00000001
00000000
00001000
00000100
00000001
,
00000000
00001000
00000100
00000010
00001000
00000001
00000100
00001000
,
00000000
00100000
01000000
00010000
00000000
00100000
01000000
00010000
,
00000000
10000000
00100000
00010000
10000000
00100000
01000000
10000000
,
00000000
01000000
00010000
00100000
00000000
01000000
10000000
00100000
,
00000000
10000000
00100000
00010000
00001000
00000010
00000001
00001000
,
00000000
00000001
00000100
00000010
00001000
00010000
01000000
00100000
,
10000000
00000000
01000000
00000000
00010000
00000000
01000000
00000000
10000000
00000000
00010000
00000000
10000000
00010000
10000000
00010000
,
10000000
00100000
01000000
00200000
00000000
10000000
00310000
00000000
,
00100000
10000000
01000000
00020000
00000000
00031000
00011000
00000000
,
00000010
00000001
00000101
00000000
00000010
00001000
00001100
00000000
,
00010000
00001000
00100000
00010000
01000000
01000000
00100000
10000000
,
10020000
00100000
01030000
00020000
,
20030000
30002000
00023000
00030002
,
00000013
00000001
00001001
00000000
00001000
00000100
00010000
00012000
,
00000000
00103000
00010000
01000000
00100000
00100000
01000000
01000000
,
10010000
00000000
00000000
00000000
00000000
00000000
00000000
00012000
,
00000000
00000000
00003010
00000000
00000001
00000000
00000100
00000000
00000010
00000000
00001000
00000001
00001000
00000001
00001000
00000001
,
00001000
00000100
00000001
00000100
00010000
00001000
00100000
00020000
,
00000000
00000000
01030000
00000000
00100000
00000000
10000000
00000000
00010000
10000000
00010000
10000000
00010000
10000000
00010000
10000000
,
00020000
00000000
01030000
10000000
01000000
00001000
00010000
00000000
,
00000200
00000000
00001300
00000001
00000100
00000010
00000110
00000000
,
00000101
00000000
00001010
00000000
00011000
00000000
00010000
00001000
,
00100000
00010000
01000000
00200000
00000000
01300000
00010000
10000000
,
21000000
30100000
01020000
00130000
,
10010000
00000000
00011000
00000000
00001002
00000000
00000103
00000010
,
00002010
00000000
00000000
00000000
00003100
00000000
00000001
00000000
00000100
00000000
00010000
00000000
00001000
00000000
00010000
00001000
,
00100000
00100000
01000000
10000000
00010000
01000000
00100000
00000000
,
10100000
10100000
00000000
01010000
00000000
00101000
00000000
00010200
,
00000000
00000000
00000000
00000000
00000310
00000001
00000010
00000001
00002000
00000000
00000000
00000000
00003000
00000000
00000000
00000000
;

//---------------dance-double - ----------------
#NOTEDATA:;
#CHARTNAME:;
#STEPSTYPE:dance-double;
#DESCRIPTION:;
#CHARTSTYLE:;
#DIFFICULTY:Easy;
#METER:7;
#RADARVALUES:0.424760,0.469627,0.167372,0.127991,0.000000,302.000000,285.000000,17.000000,13.000000,0.000000,0.000000,0.000000,0.000000,0.000000,0.424760,0.469627,0.167372,0.127991,0.000000,302.000000,285.000000,17.000000,13.000000,0.000000,0.000000,0.000000,0.000000,0.000000;
#CREDIT:BlindedVanguard573;
#NOTES:
00000000
00000000
00000000
00000000
,
00000000
00000000
00000000
00000000
,
00001000
00100000
00010000
00010000
,
01000000
00100000
10000000
10000000
,
00010000
01000000
10000000
01000000
,
00001000
00010000
00001000
00010000
,
00000100
00000100
00000010
00000010
,
00000001
00000001
00000001
00001000
,
00000010
00000100
00000010
00000100
,
00000002
00000003
00002000
00003000
,
00000001
00000010
00000100
00001000
,
00000002
00000000
00001003
00000000
,
00000001
00000100
00000010
00001000
,
00000002
00000003
00002000
00003000
,
00000001
00000100
00001000
00000100
,
00000010
00010000
00001000
00000000
,
00100000
00010000
01000000
00010000
,
10000000
10000000
00010000
00010000
,
10000000
00100000
01000000
00010000
,
20000000
00000000
30010000
00000000
,
10000000
01000000
00100000
00010000
,
10000000
01000000
00010000
01000000
,
00200000
00300000
02000000
03000000
,
10000000
00100000
01000000
00001000
,
00010000
00010000
00000100
00000100
,
00001000
00000010
00000100
00000001
,
00000000
00001000
00000100
00000001
,
00000100
00001000
00000001
00001000
,
00000000
00000001
00000100
00001000
,
00010000
00010000
00010000
00010000
,
00200000
00300000
02000000
03000000
,
00010000
10000000
01000000
00100000
,
00020000
00030000
20000000
30000000
,
00100000
00100000
00100000
10010000
,
10000000
00100000
10000000
00100000
,
01000000
00010000
01000000
00010000
,
00100000
00001000
00100000
00001000
,
00010000
00000100
00010000
00000100
,
00001000
00000010
00001000
00000010
,
00000100
00000001
00000100
00000001
,
00001000
00000100
00001000
00000100
,
00000010
00000001
00001000
00001001
,
00000001
00000100
00001000
00001000
,
00000001
00000010
00001000
00001000
,
00000100
00010000
00001000
00001000
,
00100000
00010000
01000000
01000000
,
00100000
00100000
10000000
10000000
,
00010000
00010000
01000000
01000000
,
00100000
00100000
00100000
00100000
,
01000000
01000000
01000000
10010000
,
10000000
01000000
10000000
01000000
,
00100000
00010000
00100000
00010000
,
01000000
00001000
01000000
00001000
,
00010000
00000010
00010000
00000010
,
00001000
00000100
00001000
00000100
,
00000010
00000001
00000010
00000001
,
00001000
00000010
00001000
00000010
,
00000100
00000001
00001000
00001001
,
00000001
00000010
00001000
00001000
,
00000001
00000100
00001000
00001000
,
00001000
00001100
00000000
00000101
,
00000000
00001001
00000001
00001000
,
00000001
00000010
00000100
00001000
,
00010000
00100000
01000000
10000000
,
00010000
01010000
00000000
11000000
,
10000000
00100000
00010000
00100000
,
10010000
00000000
00000000
00000000
,
10000000
01000000
00010000
00001000
,
00000100
00000100
00000010
00000010
,
00001000
00000001
00001000
00001001
,
00000001
00000010
00001000
00001000
,
00000001
00000100
00001000
00001000
,
00000010
00010000
00001000
00100000
,
00010000
01000000
00100000
10000000
,
10100000
00000000
01010000
00000000
,
10010000
10010000
10010000
00010000
,
10000000
01000000
00010000
00001000
,
00000100
00000010
00001000
00000001
,
00000010
00000000
00000000
00000100
00000000
00001000
00000000
00000002
,
00000000
00001003
00001001
00000000
;

//---------------dance-double - ----------------
#NOTEDATA:;
#CHARTNAME:;
#STEPSTYPE:dance-double;
#DESCRIPTION:;
#CHARTSTYLE:;
#DIFFICULTY:Medium;
#METER:11;
#RADARVALUES:0.617449,0.665305,0.659644,0.364281,0.000000,439.000000,372.000000,67.000000,37.000000,0.000000,0.000000,0.000000,0.000000,0.000000,0.617449,0.665305,0.659644,0.364281,0.000000,439.000000,372.000000,67.000000,37.000000,0.000000,0.000000,0.000000,0.000000,0.000000;
#CREDIT:BlindedVanguard573;
#NOTES:
00000000
00000000
00000000
00000000
,
00000000
00000000
00000000
00000000
,
00001000
00000000
00010000
00000000
00000100
00010000
00001000
00000000
,
00010000
00000000
00001000
00000000
01000000
00001000
00010000
00000000
,
00001000
00011000
10000000
10010000
,
10000000
00100000
01000000
00000000
01000000
00100000
10000000
00000000
,
11000000
00010000
01010000
00100000
,
10010000
00000000
00011000
00000000
00001001
00000000
00000001
00001000
,
00000002
00000103
00002000
00003100
,
00000020
00000000
00000000
00000100
00000200
00000000
00000330
00000000
,
00000002
00000010
00001000
00000013
,
00000001
00000100
00001000
00010000
,
02000000
00100000
00010000
13000000
,
21000000
30010000
01020000
10030000
,
20010000
00100000
01000000
30010000
,
10020000
00100000
01000000
10030000
,
20010000
32000000
03020000
00032000
,
00003100
00000010
00000100
00000010
00000000
00001000
00000001
00000000
,
00001000
00000100
00001000
00000000
00000001
00000000
00000101
00000000
,
00001000
00000010
00001000
00000000
00000001
00000000
00000011
00000000
,
00001000
00000100
00010000
00000000
00001000
00000000
00110000
00000000
,
00010000
01000000
10000000
01000000
00000000
01000000
00100000
00000000
,
20200000
30300000
02020000
03030000
,
11000000
00110000
01010000
10100000
,
21000000
30010000
02010000
03001000
,
00010000
00000100
00001000
00000020
00000000
00000100
00000130
00000000
,
00000001
00000100
00001000
00010000
,
00001000
00000100
00000010
00000010
,
00001000
00000000
00000100
00000000
00010000
00001000
00010000
00001000
,
00100000
00110000
11000000
10010000
,
20000000
30100000
00020000
00130000
,
01000000
10010000
01100000
10010000
,
20000000
00000000
31000000
00000000
00020000
00000000
00031000
00000100
,
00000000
00000110
00000000
00001001
00000000
00000210
00000000
00000301
,
00000000
00001000
00000100
00001000
00000000
00000001
00000100
00000001
,
00000000
00001000
00000001
00000000
00001000
00000000
00001001
00000000
,
00000000
00000001
00000010
00000001
00000000
00001000
00000010
00001000
,
00000000
00000001
00001000
00000000
00000001
00000000
00001001
00000000
,
00000000
00000001
00000100
00000010
00000000
00001000
00000100
00010000
,
00000000
00001000
00100000
00000000
00010000
00000000
10010000
00000000
,
00000000
10000000
01000000
00010000
00000000
00010000
01000000
10000000
,
00010000
01000000
00100000
10010000
,
10000000
00000000
00100000
00000000
00010000
00100000
00010000
00000000
,
00100000
00000000
01000000
00000000
00001000
00010000
00001000
00000000
,
00000010
00000000
00000001
00000000
00000100
00000010
00000100
00000000
,
00000010
00000000
00001000
00000000
00000001
00001000
00000001
00000000
,
00001000
00001100
00000001
00000101
,
00001000
00001010
00000001
00000101
,
00000001
00000100
00000001
00000100
00000010
00001000
00000010
00001000
,
00000100
00010000
00001000
00010000
00100000
01000000
00010000
10000000
,
00000000
00010000
00100000
00010000
00000000
10000000
00100000
10000000
,
00000000
00010000
10000000
00000000
00010000
00000000
10010000
00000000
,
00000000
10000000
01000000
10000000
00000000
00010000
01000000
00010000
,
00000000
10000000
00010000
00000000
10000000
00000000
10010000
00000000
,
00000000
10000000
00100000
01000000
00000000
00010000
00100000
00001000
,
00000000
00010000
00000100
00000000
00001000
00000000
00001001
00000000
,
00000000
00000001
00000010
00001000
00000000
00001000
00000010
00000001
,
00001000
00000010
00000100
00001001
,
00000001
00000000
00000100
00000000
00001000
00000100
00001000
00000000
,
00000100
00000000
00000010
00000000
00010000
00001000
00010000
00000000
,
00100000
10000000
01000000
00000000
00100000
00010000
01000000
00000000
,
00100000
10000000
00010000
00000000
01000000
00010000
10000000
00000000
,
00100000
01010000
00100000
11000000
,
00010000
10010000
00011000
00001001
,
00000001
00000100
00001000
00000000
00000001
00000010
00001000
00000000
,
00000001
00000010
00000100
00001000
00000100
00000010
00000001
00001000
,
00000001
00000000
00000000
00000000
00000000
00000000
00000000
00001002
,
00000000
00020003
00032000
00203000
,
00310000
01010000
10010000
00110000
,
00010000
01000000
00100000
10000000
00100000
01000000
00010000
10000000
,
00010000
00000000
11000000
00000000
10000000
01000000
00010000
00000000
,
00011000
00000000
00001100
00000000
00001000
00000100
00000010
00000000
,
00001000
00001100
00000001
00000101
,
00001000
00000100
00000001
00000000
00000001
00000100
00001000
00000000
,
00002010
00003100
00000012
00000103
,
00001001
00000000
00011000
00000000
10010000
00000000
10000000
00010000
,
20000000
30200000
02300000
03020000
,
10030000
01000000
00000000
00010000
00000000
01000000
10000000
00000000
,
00100000
00100000
00000000
10010000
00000000
00011000
00000000
00001002
,
00000000
00000103
00001001
00000000
;
