#VERSION:0.83;
#TITLE:Blah Dha;
#SUBTITLE:;
#ARTIST:saaa;
#TITLETRANSLIT:;
#SUBTITLETRANSLIT:;
#ARTISTTRANSLIT:;
#GENRE:Breaks;
#CREDIT:tikal.;
#MUSIC:blahdha.ogg;
#BANNER:Blah Dha.png;
#BACKGROUND:Blah Dha-bg.png;
#CDTITLE:cdtitle.png;
#SAMPLESTART:23.323;
#SAMPLELENGTH:28.657;
#SELECTABLE:YES;
#OFFSET:-0.039;
#BPMS:0.000=134.000;
#STOPS:;
#SCROLLS:0.000=1.000,
48.000=0.000,
49.625=1.000,
49.875=-1.000,
50.125=1.000,
50.375=-1.000,
50.625=1.000,
50.875=-1.000,
51.125=1.000
;
#BGCHANGES:;
#FGCHANGES:;

//--------------- dance-single - tikal. ----------------
#NOTEDATA:;
#STEPSTYPE:dance-single;
#DESCRIPTION:tikal.;
#DIFFICULTY:Hard;
#METER:13;
#RADARVALUES:0,0,0,0,0;
#NOTES:
0000
0000
0000
0000
,
0000
0000
0000
0000
,
0000
0000
0000
0000
,
0000
0000
0000
0000
,
1000
0100
1100
0000
0001
0001
0101
2000
,
3010
0002
0013
0000
0100
0100
0110
1000
,
0001
0010
0011
0000
1000
1000
1010
0002
,
0103
2000
3100
0000
0010
0010
0110
0001
,
1000
0000
0010
0000
0100
000M
0100
0000
1000
0000
0010
0000
0100
000M
0100
0000
,
0010
0000
0001
0000
0100
M000
0100
0000
0010
0000
0001
0000
0100
M000
0100
0000
,
1000
0000
0010
0000
0001
0M00
0001
0000
1000
0000
0100
0000
0001
00M0
0001
0000
,
0020
0000
0130
0010
0100
0010
0100
0000
0110
0000
1001
0000
,
0002
0000
0000
0000
0000
0000
0000
0000
0000
0000
0000
0000
0000
0000
0000
0000
0000
0000
0000
0000
0000
0000
0000
0000
0000
0000
0000
0003
0000
0000
0000
0000
,
1000
0010
0000
0020
1000
0000
0000
0130
0000
0100
0001
0000
0010
0100
0000
0010
,
0001
0000
0001
0100
0001
0000
0101
0000
1000
0000
1000
0100
1000
0000
1100
0000
,
0001
0010
0000
0020
0001
0000
0000
0130
1000
0000
0010
0100
0000
0001
0000
0001
,
1000
0000
1000
0100
1000
0000
2100
0000
3002
0000
0103
00M0
0100
0000
1000
0000
,
0001
0100
0000
0200
0001
0000
0000
0310
0000
0010
1000
0000
0100
0010
0000
0100
,
1000
0000
1000
0010
1000
0000
1010
0000
0001
0000
0001
0010
0001
0000
0011
0000
,
1000
0100
0000
0200
1000
0000
0000
0310
0001
0000
0100
0010
0000
1000
0000
1000
,
0200
0000
0310
0100
0010
0100
0010
0000
0110
0000
1001
0000
,
2000
0000
0000
0000
0000
0000
0000
0000
3010
000M
0010
0000
0100
0000
1000
0000
,
0010
000M
0010
0000
0001
0000
0100
0000
0010
000M
0010
0000
0100
0000
1000
0001
,
0100
M000
0100
0000
1000
0000
0010
0000
0100
M000
0100
0000
0010
0000
0001
0000
,
0100
M000
0100
0000
1000
0000
2010
0000
3001
0000
0010
0M00
0010
0000
1000
0000
,
0001
0M00
0010
0000
1000
0000
0001
0000
1000
0M00
0010
0000
0100
0000
1000
0000
,
0001
00M0
0100
0000
1000
0000
0001
0000
1000
00M0
0100
0000
0010
0000
1000
0000
,
0001
0100
0010
0000
1000
0000
0001
0000
1000
0100
0010
0000
0100
0000
1000
0000
,
0020
0000
0130
0010
0100
0010
0100
0000
0110
0000
1001
0000
,
2000
0000
0000
0000
3002
0000
0023
0000
0230
0000
2300
0000
3000
2000
0000
3000
,
0000
0000
0000
0000
0000
0000
0000
0000
0010
0000
0010
0000
0000
0200
0000
0000
,
0301
0000
0001
0000
2000
0000
3020
0000
0230
0000
0302
0000
0003
0002
0000
0003
,
1000
0000
1000
0000
0000
1000
0020
0000
1030
0000
0100
00M0
0100
0000
0001
0000
,
1000
0010
1010
0000
0001
0001
0011
2000
,
3100
0002
0103
0000
0010
0010
0110
1000
,
0001
0100
0101
0000
1000
1000
1100
0002
,
0013
2000
3010
0000
0100
0100
0110
0001
,
1000
0000
0100
0000
0010
000M
0010
0000
1000
0000
0100
0000
0010
000M
0010
0000
,
0100
0000
0001
0000
0010
M000
0010
0000
0100
0000
0001
0000
0010
M000
0010
0000
,
1000
0000
0100
0000
0001
00M0
0001
0000
1000
0000
0010
0000
0001
0M00
0001
0000
,
0001
0000
0100
0000
1000
00M0
1000
0000
0001
0000
0010
0000
1000
0M00
1000
0000
,
1000
0100
1000
0001
0100
0001
1000
0010
1000
0001
0010
0001
,
0200
0000
0310
0100
0010
0100
0010
0000
0110
0000
1001
0000
,
2000
0000
0000
3002
0000
0000
0003
0000
M100
0000
0000
010M
0000
0000
M100
0000
0000
010M
0000
0000
M100
0000
0000
010M
,
0000
0000
M100
0000
0000
010M
0000
0000
M100
0000
0000
010M
1000
0000
0000
0001
0000
0000
1001
0000
0000
0000
0000
0000
,
1000
0000
0000
0020
0000
0000
0100
0000
0000
0000
0000
0032
0000
0000
0000
0023
0000
0000
1030
0000
0000
0001
0000
0000
,
0010
0000
0000
0M00
0000
0000
0010
0000
0000
0000
0000
0000
1000
0000
0000
0000
0000
0000
0100
0000
0000
0000
0000
0000
0010
0000
0000
0000
0001
0000
0000
0000
0000
0000
0100
0000
0000
0000
0000
0000
0010
0000
0000
0000
0000
0000
1000
0000
,
0001
0001
0020
0000
0230
0302
0203
2300
,
3010
0100
0001
1001
0110
1000
0010
0100
,
0001
0000
0000
0020
0000
0000
0100
0000
0000
0000
0000
2030
0000
0000
0000
3020
0000
0000
0031
0000
0000
1000
0000
0000
,
0010
0000
0000
0000
0100
0000
0001
0000
0000
0000
0000
0000
0010
0000
0000
0000
0000
0000
0100
0000
0000
0000
1000
0000
0001
0000
0000
0000
0000
0000
0000
0000
0000
0000
0000
0000
0100
0000
0000
00M0
0000
0000
0100
0000
0000
0000
0000
0000
,
2000
3020
0032
0023
2030
3200
0320
0032
,
0203
0000
0310
0100
0010
0100
0010
0000
0110
0000
1001
0000
,
0002
0000
0000
0000
0000
0000
0000
0000
0013
M000
0010
0000
0210
0000
0301
0000
,
0010
0000
0000
M000
0000
0000
0010
0000
0000
0000
0000
0000
1000
0000
0000
0000
0000
0000
1200
0000
0000
0000
0000
0000
0310
0000
0000
M000
0000
0000
0010
0000
0000
0000
0000
0000
0110
0000
0000
0000
0000
0000
0001
0000
0000
0000
1000
0000
,
0100
000M
0100
0000
0001
0000
0011
0000
0100
000M
0100
0000
0110
0000
1000
0000
,
0100
000M
0100
0000
0001
0000
0012
0000
1003
0000
0010
0000
0100
0000
0001
0000
,
1000
0M00
0010
0000
0001
0000
0101
0000
0001
M000
0010
0000
1010
0000
0001
0000
,
1000
00M0
0100
0000
0001
0000
0011
0000
0001
M000
0100
0000
1100
0000
0001
0000
,
1000
0000
0100
0010
0000
0000
0001
0000
0000
1000
0000
0000
0001
0000
0100
0010
0000
0000
0100
0000
0000
0001
0000
0000
,
0020
0000
0130
0010
0100
0010
0100
0000
0110
0000
1001
0000
,
0002
0100
2003
0010
3002
0010
2003
0100
,
3001
0010
1000
0100
0001
1000
1001
0000
,
0110
0000
0000
0000
;

//--------------- dance-single - tikal. is no longer baby and wants power ----------------
#NOTEDATA:;
#STEPSTYPE:dance-single;
#DESCRIPTION:tikal. is no longer baby and wants power;
#DIFFICULTY:Challenge;
#METER:17;
#RADARVALUES:0,0,0,0,0;
#NOTES:
0000
0000
0000
0000
,
0000
0000
0000
0000
,
0000
0000
0000
0000
,
0000
0000
0000
0000
,
1001
0000
0001
1000
0010
0000
0000
0100
0001
0000
0001
0000
0010
0000
0100
0000
,
0012
0000
0103
0000
2010
0000
0000
3100
1000
0000
1000
0000
0001
0000
0100
0010
,
1000
0000
0001
0000
1100
0000
0000
1000
0010
0000
0010
0000
0101
0000
0001
1000
,
0010
0100
0010
1000
0001
0000
0000
1000
0100
0010
0100
0000
1000
0000
0001
1000
,
0000
0000
0010
1000
0100
0000
0100
0000
0010
0001
0010
0001
0100
0000
0100
0000
,
0001
0010
0001
0010
0100
0000
0100
0000
1000
0010
1000
0010
0100
0000
0100
0000
,
0001
0010
0001
1000
0001
0100
0010
1000
0001
1000
0100
0010
0001
1000
0001
0100
,
0040
0000
0000
0000
1030
0000
0100
00M0
0100
0000
0001
0000
0010
0000
0000
0000
0110
0000
0000
0000
1001
0000
0000
0000
,
2000
0000
0000
0000
0000
0000
0000
0000
0000
0000
0000
0000
0000
0000
0000
0000
0000
0000
0000
0000
0000
0000
0000
0000
0000
0000
0000
3000
0000
0000
0000
0000
,
0001
0100
00M0
0200
1000
0000
0000
0310
0001
0010
0100
0000
1000
0010
0100
0001
,
0020
0000
1000
0000
0100
0000
0031
0100
0020
0000
0001
0000
0130
0001
0010
0100
,
1000
0100
00M0
0200
0001
0000
0000
0310
1000
0000
0200
0010
0000
1300
0010
0100
,
0002
0000
1000
0000
0013
0000
0110
0000
1001
0000
0001
0100
1000
0100
0010
1000
,
0001
0010
0M00
0020
1000
0000
0000
0130
0001
0100
0010
0000
1000
0100
0010
0001
,
0200
0000
1000
0000
0010
0000
0301
0010
0200
0000
0001
0000
0310
0001
0100
0010
,
1000
0010
0M00
0020
0001
0000
0000
0130
1000
0000
0020
0100
0000
1030
0100
0010
,
0004
0000
0000
0000
1003
0000
0100
00M0
0100
0000
0001
0000
1001
0000
0000
0000
1010
0000
0000
0000
0011
0000
0000
0000
,
0120
0000
0000
0000
0000
0000
0000
0000
0100
0000
0000
0000
0000
0000
0000
0000
0100
0000
0000
0000
0000
0000
0000
0000
0130
0000
0000
1000
0000
0000
0001
0000
0000
0000
0000
0000
0021
0000
0000
0000
0000
0000
0130
0000
0000
1000
0000
0000
,
0001
0000
0100
00M0
0200
0000
0000
0000
0310
0000
0000
0000
0011
0000
0000
0000
0010
0000
0001
0000
1000
0000
0000
0000
1200
0000
0000
0000
0310
0000
0001
0000
,
1000
0000
0100
00M0
0200
0000
0000
0000
0310
0000
0000
0000
1010
0000
0000
0000
0010
0000
1000
0000
0001
0000
0000
0000
0201
0000
0000
0000
0310
0000
1000
0000
,
0001
0000
0010
0M00
0020
0000
0000
0000
0130
0000
0000
0000
0110
0000
0000
0000
1001
0000
0000
0000
1000
0000
0100
0000
0001
0000
0100
0000
0010
0000
0001
0000
,
1000
0000
0100
00M0
0200
0000
0000
0000
0310
0000
0000
0000
1010
0000
0000
0000
0010
0M00
0010
0000
0001
0000
0000
0000
0201
0000
0000
0000
0310
0000
1000
0000
,
0001
0000
0100
00M0
0200
0000
0000
0000
0310
0000
0000
0000
0011
0000
0000
0000
0010
0M00
0010
0000
1000
0000
0000
0000
1200
0000
0000
0000
0310
0000
0001
0000
,
1000
0010
1000
0001
1000
0100
0010
0001
1000
0001
0100
0010
1000
0100
0010
0001
,
4000
0000
0000
0000
3001
0000
0100
00M0
0100
0000
1000
0000
0010
0000
0000
0000
0110
0000
0000
0000
1001
0000
0000
0000
,
0002
0000
0000
0000
2003
0000
3020
0000
0230
0000
0302
0000
0003
0002
0000
0003
,
0000
0000
0000
0000
0000
0000
0000
0000
0010
0000
0010
0000
0000
0200
0000
0000
,
1300
0000
1000
0000
0001
0010
0100
1000
0010
0000
2000
0000
3000
2000
0000
3000
,
0001
0000
0001
0000
0000
0001
0020
0000
0130
0001
0100
0010
0100
1000
0001
0000
,
1001
0000
1000
0001
0010
0000
0000
0100
1000
0000
1000
0000
0010
0000
0100
0000
,
2010
0000
3100
0000
0012
0000
0000
0103
0001
0000
0001
0000
1000
0000
0100
0010
,
0001
0000
1000
0000
0101
0000
0000
0001
0010
0000
0010
0000
1100
0000
1000
0001
,
0010
0100
0010
0001
1000
0000
0000
0001
0100
0010
0100
0000
0101
0000
1100
0000
,
0110
0000
0000
0010
0000
0001
0100
0000
0000
0110
0000
0000
0010
0000
1000
0010
0000
1000
0100
0000
0000
0110
0000
0000
,
1000
0000
0010
1000
0000
0010
0100
0000
0000
0110
0000
0000
0001
0000
0010
0001
0000
0010
0100
0000
0000
0110
0000
0000
,
1000
0000
0010
0000
0M00
0010
0001
0000
0000
1001
0000
0000
0001
0000
0010
0000
0M00
0010
1000
0000
0000
1001
0000
0000
,
1000
0000
0100
0000
00M0
0100
0001
0000
0000
1001
0000
0000
0001
0000
0100
0000
00M0
0100
1000
0000
0000
1001
0000
0000
,
1000
0000
0010
0000
0100
0000
0001
0000
0010
0000
0100
0000
1000
0000
0100
0010
0001
0000
1000
0000
0010
0100
0001
0000
,
0040
0000
0000
0000
0031
0000
0100
00M0
0100
0000
1000
0000
0010
0000
0000
0000
0110
0000
0000
0000
1001
0000
0000
0000
,
2000
0000
0000
3002
0000
0000
0003
0000
M100
0000
0000
010M
0000
0000
M100
0000
0000
010M
0000
0000
M100
0000
0000
010M
,
0000
0000
M100
0000
0000
010M
0000
0000
M100
0000
0000
010M
1000
0010
0100
0001
0010
0100
1000
0000
0000
0000
0000
0000
,
0001
0000
0200
0010
0000
0000
1000
0000
0000
0310
0000
2000
0001
0000
0000
0100
0000
0000
3001
0000
0010
0100
0000
0000
,
1000
0000
0200
0010
0000
0000
0001
0000
0000
0320
0000
0000
0031
M000
0001
0000
0000
0100
0000
0000
1000
0000
0000
0010
,
0100
0000
0000
0100
0000
0000
0001
0000
1000
0001
1000
0001
0020
0000
0000
0100
0000
0000
1000
0000
0000
0100
0000
0000
,
0032
0000
0000
0103
0000
0010
1000
0000
0000
1001
0000
0000
0110
0000
0000
0001
0000
0000
0010
0000
0000
0100
0000
0000
,
2000
0000
0000
3200
0000
0000
0302
0000
0000
0103
0000
0020
0001
0000
0000
1000
0000
0000
0130
0000
0010
0100
0000
1000
,
0001
0000
0200
0010
0000
0000
1000
0000
0000
0310
1000
0001
0010
0000
0000
00M0
0000
1000
0010
0000
0010
0100
0000
0000
,
0002
0000
0000
0010
0000
0000
2003
0000
0000
0010
0000
0000
3001
0000
0001
0010
0000
0010
0100
0000
0100
2000
0000
0000
,
3004
0000
0000
0000
1003
0000
0010
0M00
0010
0000
0001
0000
1001
0000
0000
0000
1100
0000
0000
0000
0101
0000
0000
0000
,
0210
0000
0000
0000
0010
0000
0000
0000
0010
0000
0000
0000
0310
M000
0010
0001
0000
0000
0102
0000
0000
1003
0000
0000
,
0010
000M
0010
0100
0000
0000
1000
0000
0000
2010
0000
0000
3100
00M0
0100
0001
0000
0000
0012
0000
0000
1003
0000
0001
,
0100
M000
0100
0010
0000
0000
0001
0000
0000
0102
0000
0000
0013
0M00
0010
1000
0000
0000
2100
0000
0000
3001
0000
0000
,
0100
0000
0010
1000
0010
0100
0001
0000
0000
1001
0000
0000
0110
0000
0000
0001
0000
0000
1000
0000
0000
0001
0000
0000
,
0100
00M0
0100
1000
0000
0000
0010
0000
0000
0102
0000
0000
0013
0M00
0010
1000
0000
0000
1200
0000
0000
0310
0000
0000
,
0100
M000
0100
0001
0000
0000
0010
0000
0000
2100
0000
0000
3010
0M00
0010
0001
0000
0000
0201
0000
0000
0310
0000
0000
,
0100
00M0
0100
1000
0000
1000
0010
0000
0010
0100
0000
0100
0001
0000
1000
0100
0010
0001
0100
0000
0100
0020
0000
0000
,
4030
0000
0000
0000
3001
0000
0010
0M00
0010
0000
1000
0000
0100
0000
0000
0000
0110
0000
0000
0000
1001
0000
0000
0000
,
0002
0100
2003
0010
3002
0010
2003
0100
,
3010
0000
0100
1000
0000
0100
0010
0000
1000
0001
0000
0010
0100
0000
0001
0100
0000
0000
0110
0000
0000
0000
0000
0000
,
1001
0000
0000
0000
;
