#TITLE:Biology;
#SUBTITLE:;
#ARTIST:Girls Aloud;
#TITLETRANSLIT:;
#SUBTITLETRANSLIT:;
#ARTISTTRANSLIT:;
#GENRE:Pop;
#CREDIT:;
#BANNER:banner.png;
#BACKGROUND:Biology-bg.png;
#LYRICSPATH:Biology.lrc;
#CDTITLE:;
#MUSIC:Biology.ogg;
#OFFSET:0.939000;
#SAMPLESTART:104.676872;
#SAMPLELENGTH:13.179996;
#SELECTABLE:YES;
#BPMS:0.000000=145.705002
;
#STOPS:
;
#BGCHANGES:2.000=Biology.avi=1.000=0=0=0=StretchNoLoop====,
99999=-nosongbg-=1.000=0=0=0 // don't automatically add -songbackground-
;
#KEYSOUNDS:;
#ATTACKS:;

//---------------dance-single - ----------------
#NOTES:
     dance-single:
     :
     Beginner:
     2:
     0.131742,0.181049,0.006781,0.006781,0.000000,136.000000,135.000000,1.000000,1.000000,0.000000,0.000000,0.131742,0.181049,0.006781,0.006781,0.000000,136.000000,135.000000,1.000000,1.000000,0.000000,0.000000:
// measure 0
0000
0000
0000
0000
,  // measure 1
0000
0000
0000
0000
,  // measure 2
0000
0000
0000
0000
,  // measure 3
0000
0000
0000
0000
,  // measure 4
0000
0000
0000
0000
,  // measure 5
1000
0000
1000
0000
,  // measure 6
1000
0000
0000
0000
,  // measure 7
0001
0000
0001
0000
,  // measure 8
0001
0000
0000
0000
,  // measure 9
0100
0000
0100
0000
,  // measure 10
0100
0000
0000
0000
,  // measure 11
0010
0000
0010
0000
,  // measure 12
0010
0000
0000
0000
,  // measure 13
1000
0000
0100
0000
,  // measure 14
1000
0000
0000
0000
,  // measure 15
0001
0000
0100
0000
,  // measure 16
0001
0000
0000
0000
,  // measure 17
1000
0000
0010
0000
,  // measure 18
1000
0000
0000
0000
,  // measure 19
0002
0000
0000
0000
,  // measure 20
0003
0000
0000
0000
,  // measure 21
1000
0000
0000
0000
,  // measure 22
0100
0000
0000
0000
,  // measure 23
0010
0000
0000
0000
,  // measure 24
0001
0000
0000
0000
,  // measure 25
0100
0000
0000
0000
,  // measure 26
0010
0000
0000
0000
,  // measure 27
1000
0000
1000
0000
,  // measure 28
0001
0000
0001
0000
,  // measure 29
1000
0000
0000
0000
,  // measure 30
0100
0000
0000
0000
,  // measure 31
0010
0000
0000
0000
,  // measure 32
0001
0000
0000
0000
,  // measure 33
0100
0000
0000
0000
,  // measure 34
0010
0000
0000
0000
,  // measure 35
1000
0000
1000
0000
,  // measure 36
0001
0000
0001
0000
,  // measure 37
1000
0000
0000
0000
,  // measure 38
0010
0000
0010
0000
,  // measure 39
0100
0000
0100
0000
,  // measure 40
0001
0000
0001
0000
,  // measure 41
1000
0000
0000
0000
,  // measure 42
0001
0000
0001
0000
,  // measure 43
0010
0000
0010
0000
,  // measure 44
0100
0000
0100
0000
,  // measure 45
1000
0000
1000
0000
,  // measure 46
0001
0000
0001
0000
,  // measure 47
1000
0000
1000
0000
,  // measure 48
0001
0000
0001
0000
,  // measure 49
0100
0100
0000
0000
,  // measure 50
0000
0010
0010
0000
,  // measure 51
1000
0000
0000
0000
,  // measure 52
0000
0001
0001
0000
,  // measure 53
0010
0010
0000
0000
,  // measure 54
0000
0100
0100
0000
,  // measure 55
1000
0000
0000
0000
,  // measure 56
0001
0000
0100
0000
,  // measure 57
0001
0001
0000
0000
,  // measure 58
0000
0010
0010
0000
,  // measure 59
0100
0000
0100
0000
,  // measure 60
1000
0000
0001
0000
,  // measure 61
1000
1000
0000
0000
,  // measure 62
0000
0010
0010
0000
,  // measure 63
0100
0000
0100
0000
,  // measure 64
0001
0000
0001
0000
,  // measure 65
1000
0000
1000
0000
,  // measure 66
0100
0000
0100
0000
,  // measure 67
0010
0000
0010
0000
,  // measure 68
0001
0000
0000
0000
,  // measure 69
0001
0000
0001
0000
,  // measure 70
0100
0000
0100
0000
,  // measure 71
0010
0000
0010
0000
,  // measure 72
1000
0000
0000
0000
,  // measure 73
1000
0000
1000
0000
,  // measure 74
0100
0000
0100
0000
,  // measure 75
0010
0000
0010
0000
,  // measure 76
0001
0000
0000
0000
,  // measure 77
0001
0000
0001
0000
,  // measure 78
0100
0000
0100
0000
,  // measure 79
0010
0000
0010
0000
,  // measure 80
1000
0000
0000
0000
,  // measure 81
0001
0000
0000
0000
,  // measure 82
0010
0000
0000
0000
,  // measure 83
0100
0000
0000
0000
,  // measure 84
1000
0000
0000
0000
,  // measure 85
0010
0000
0010
0000
,  // measure 86
0100
0000
0100
0000
,  // measure 87
0010
0000
0010
0000
,  // measure 88
0100
0000
0100
0000
,  // measure 89
1001
0000
0000
0000
;

//---------------dance-single - ----------------
#NOTES:
     dance-single:
     :
     Easy:
     5:
     0.267359,0.305139,0.108494,0.115275,0.000000,276.000000,260.000000,16.000000,17.000000,0.000000,0.000000,0.267359,0.305139,0.108494,0.115275,0.000000,276.000000,260.000000,16.000000,17.000000,0.000000,0.000000:
0000
0000
0000
0000
,
0000
0000
0000
0000
,
0000
0000
0000
0000
,
0000
0000
0000
0000
,
0000
0000
0000
0000
,
1000
1000
0100
0100
,
1000
1000
0100
0000
,
1000
0010
0100
0001
,
1000
0000
1000
0000
,
0001
0001
0010
0010
,
0001
0001
0010
0000
,
0001
0100
0010
1000
,
0100
0000
0100
0000
,
1000
0001
0101
0000
,
0001
1000
1100
0000
,
0001
0010
0100
1000
,
0001
0000
0001
0000
,
1000
0001
0011
0000
,
0001
1000
1010
0000
,
1000
0100
0010
0001
,
0200
0000
0000
0000
,
0310
0000
0010
0000
,
1000
0100
1000
0000
,
0001
0000
0001
0000
,
0010
0001
0100
0100
,
0001
0000
0001
0000
,
0010
0001
0100
0000
,
0010
0000
1000
0000
,
0001
0000
0100
0000
,
0001
0000
0001
0000
,
1000
0100
0010
0001
,
1000
0000
1000
0000
,
0001
0100
0010
1000
,
0001
0000
0001
0000
,
1000
0100
0010
0000
,
0001
0000
0001
0000
,
1000
0000
1000
0000
,
0020
0000
0000
0030
,
0100
0001
0010
0100
,
1000
0010
0100
0010
,
1000
0100
0010
0001
,
2000
0000
0000
0000
,
3001
0010
0100
1000
,
0010
0100
0001
1000
,
0100
0010
0001
1000
,
0001
0001
1000
0000
,
0010
0010
0100
0000
,
0001
0001
0010
0000
,
0100
0100
1000
0000
,
0010
1000
1100
0000
,
0100
0010
0001
0100
,
0010
0000
0010
0000
,
0100
0010
1001
1001
,
0001
0000
1000
0000
,
0001
0010
0100
1000
,
0001
0000
0001
0000
,
1000
0001
0100
0100
,
0010
1000
1100
0000
,
1000
0100
0010
0001
,
1000
0000
1000
0000
,
0001
0010
0100
1000
,
0001
0001
0101
0000
,
0001
0100
0010
1000
,
0001
0000
0001
0000
,
1000
0100
0010
0001
,
0100
0000
0020
1000
,
1030
0000
0200
0010
,
0310
0000
0002
1000
,
1003
0010
0100
0001
,
1000
0000
2000
0100
,
3100
0000
0020
0001
,
0031
0000
0200
0010
,
0310
1000
0100
0010
,
0001
0000
2000
3001
,
0101
0000
0002
1003
,
1100
0000
2000
3001
,
0011
0001
0100
0010
,
1000
0000
0020
1030
,
1100
0000
0020
0031
,
0101
0000
0002
1003
,
1001
0001
1000
0010
,
0100
0100
0010
0010
,
1000
0000
1000
0000
,
0001
0001
0010
0010
,
0001
0000
0001
0000
,
1000
0001
0100
0010
,
0100
0100
0001
0001
,
1000
0100
1000
0010
,
1000
1000
0001
0001
,
2002
0000
0000
0000
,
3003
0000
0000
0000
;

//---------------dance-single - ----------------
#NOTES:
     dance-single:
     :
     Medium:
     8:
     0.391352,0.457708,0.230549,0.101713,0.027123,404.000000,370.000000,34.000000,15.000000,0.000000,0.000000,0.391352,0.457708,0.230549,0.101713,0.027123,404.000000,370.000000,34.000000,15.000000,0.000000,0.000000:
0000
0000
0000
0000
,
0000
0000
0000
0000
,
0000
0000
0000
0000
,
0000
0000
0000
0000
,
0000
0000
0000
0000
,
1000
1000
0100
0100
,
0010
0000
0000
0010
0000
0001
0010
0000
0000
0001
0000
0000
,
0100
0100
0010
0010
,
1000
0000
0001
0001
,
1000
1000
0100
0100
,
1000
0000
0000
0001
0000
0001
1000
0000
0000
0010
0000
0000
,
1000
0001
0010
0100
,
1000
0000
0001
0100
,
0001
0001
1000
1000
,
0010
0000
0000
1000
0000
0100
0010
0000
0000
0001
0000
0000
,
1000
0010
0100
0001
,
1000
0000
0001
0001
,
1000
0100
0010
0001
,
1000
0000
0000
0010
0000
0100
0001
0000
0000
0001
0000
0000
,
1000
1000
0001
0010
,
0200
0000
0000
0000
,
1300
0000
1100
0000
0001
0100
0010
0000
,
1000
0000
1000
0000
0001
0010
0100
0000
,
1000
0000
0001
0001
,
1000
0000
0010
0100
0001
0000
0001
0000
,
1000
0000
0001
0001
,
1000
0000
0100
1000
0010
0000
1000
0100
,
0000
0000
0100
0010
0000
0010
0000
0001
,
0100
0000
0010
1000
0000
1000
0000
0000
,
0001
0000
0011
0000
1000
0000
0010
0100
,
0000
0100
0010
0000
1000
0000
0100
0000
,
0010
0000
0000
0000
0001
0000
1000
0010
,
0000
0010
0100
0000
0001
0000
1000
0000
,
0100
0000
1000
0001
,
0010
0001
1000
0000
0010
0000
0100
0001
,
0000
0000
0001
0010
0000
0100
0000
0100
,
1000
0000
1000
0010
0000
0010
0000
0100
,
0000
0110
0000
0000
0001
0000
1000
0100
,
0000
0100
0000
0010
0000
0010
0000
0001
,
0000
0001
0000
1000
0000
1000
0000
0010
,
0000
0010
0000
0100
0000
0100
0000
0010
,
0000
0110
0000
0000
0100
0000
0010
1000
,
0000
1000
0000
0100
0000
0100
0000
0010
,
0000
0010
0000
0001
0000
0001
0000
1000
,
0000
1000
0000
0001
0000
0001
0000
1000
,
0000
1100
0000
0001
0000
0101
0000
1000
,
0000
1010
0000
0001
0000
0011
0000
0100
,
0000
1010
0000
0100
0000
0011
0000
0010
,
0000
1100
0000
0010
0000
0101
0000
0001
,
0010
0100
1000
0000
1100
0000
0101
0000
,
0001
0000
1000
0000
0010
1000
0001
0000
,
0020
0130
0200
0310
,
0002
1003
1001
1001
,
1000
0010
0100
0000
1010
0000
0101
0000
,
0001
0010
0100
0000
0010
0100
1000
0000
,
0001
0001
1000
1000
,
0010
1000
1100
0011
,
0001
0100
0010
0000
0110
0000
1001
0000
,
0001
0010
0001
0000
1000
0010
1000
0000
,
0002
0103
0200
0310
,
0020
1030
1010
1100
,
1000
0100
0010
0000
0110
0000
1001
0000
,
0001
0100
0001
0000
1000
0010
1000
0000
,
0002
0013
0020
0130
,
1000
0001
0100
0000
0001
1000
0100
0000
,
0010
0000
0011
0000
0001
0000
0100
0010
,
0000
0010
1000
0000
0100
0000
1000
0010
,
0000
0010
0100
0000
0001
0000
0010
0100
,
0000
0100
0010
0000
0001
0000
0001
0000
,
1000
0000
1000
0000
0010
0000
0100
0010
,
0000
0010
1000
0000
0001
0000
0010
0100
,
0000
0100
0010
0000
0001
0000
0100
0010
,
0000
0010
0100
0000
0001
0000
1000
0000
,
0011
0000
1100
0000
0001
0000
1000
0010
,
0000
0010
0100
0000
0010
0000
1000
0001
,
0000
0001
0010
0000
0100
0000
0010
0001
,
0000
0001
1000
0000
0001
0000
0010
0000
,
1100
0000
0011
0000
1000
0000
0001
0100
,
0000
0100
0010
0000
0100
0000
0001
0010
,
0000
0010
0100
0000
1000
0000
0010
0100
,
0000
0100
0001
0000
1000
0000
0100
0000
,
0011
0001
0100
0100
,
0001
0000
0000
0010
0000
0000
0001
0000
0100
0001
0000
0000
,
1100
1000
0010
0010
,
1000
0000
0000
0100
0000
0000
1000
0000
0010
1000
0000
0000
,
0002
0100
1003
0001
,
2000
0000
0000
0100
0000
0000
3001
0000
1000
0001
0000
0000
,
0002
0010
1003
0001
,
2000
0000
0000
0010
0000
0000
3001
0000
1000
0001
0000
0000
,
0220
0000
0000
0000
,
0330
0000
0000
0000
;

//---------------dance-single - ----------------
#NOTES:
     dance-single:
     :
     Hard:
     11:
     0.510502,0.518736,0.352605,0.318700,0.101713,527.000000,475.000000,52.000000,47.000000,0.000000,0.000000,0.510502,0.518736,0.352605,0.318700,0.101713,527.000000,475.000000,52.000000,47.000000,0.000000,0.000000:
0000
0000
0000
0000
,
0000
0000
0000
0000
,
0000
0000
0000
0000
,
0000
0000
0000
0000
,
0000
0000
0000
0000
,
1000
1000
0100
0100
,
0010
0000
0000
0010
0000
0000
0001
0000
0001
1000
0000
1000
,
0001
0001
0100
0100
,
0010
0000
0000
0010
0000
0000
1000
0000
1000
0001
0000
0001
,
1000
1000
0100
0100
,
0010
0000
0000
0010
0000
0000
0001
0000
0100
0001
0000
0100
,
0010
0010
1000
1000
,
0100
0000
0000
0100
0000
0000
1000
0000
0100
0010
0100
0010
,
0001
0000
0000
0101
0000
0001
0100
0000
0000
0010
0000
0000
,
2000
0000
0000
0100
0000
0000
3001
0000
0100
0010
0000
0010
,
1000
0000
0100
0010
0000
0000
0001
0000
0100
0010
0000
0200
,
1000
0000
0000
0301
0000
0000
1000
0000
0100
0010
0100
0010
,
0001
0000
0000
0100
0000
0100
0010
0000
0000
1000
0000
0000
,
0200
0000
0000
0001
0000
0000
1300
0000
0001
0100
0000
0100
,
0010
1000
0100
0010
,
0002
0000
1000
1000
,
0103
0000
1010
0000
0001
0010
0100
1000
,
0001
0000
1000
0100
1000
0010
0100
0001
,
1000
0000
0101
0000
0001
0010
0100
1000
,
0000
0010
0001
0010
1000
0000
0001
0100
,
0010
0000
0101
0000
0001
0010
0100
1000
,
0010
0100
0010
0100
0001
0000
1000
0100
,
0002
0000
1003
0010
0001
0000
1000
0010
,
0002
0000
1003
0100
0001
0000
1010
0000
,
0101
0000
1000
0000
0001
0010
0100
1000
,
0000
0010
0100
1000
0100
0001
0010
0100
,
1000
0000
0011
0000
1000
0010
0100
0010
,
0000
0001
0010
0100
0001
0000
1000
0100
,
0010
0000
1100
0000
0001
0100
1000
0100
,
0010
1000
0100
0010
0001
0000
1000
0010
,
0002
0000
1003
0100
0001
0000
1000
0100
,
0002
0000
1003
0010
0001
0000
0000
0011
,
0000
1100
0000
0000
0001
0000
1000
0200
,
0000
0310
0001
0200
0000
0310
1000
0002
,
0000
0013
0001
2000
0000
3010
1000
0200
,
0000
0310
0001
0200
0000
0310
0000
0101
,
0000
1010
0000
0000
0001
0000
1000
0200
,
0000
1300
0001
0200
0000
0301
1000
0020
,
0000
1030
0001
0020
0000
0031
0100
0020
,
0000
1030
0100
0020
0000
0130
0000
2100
,
0000
3001
0000
0012
0000
1003
0000
2010
,
0000
3001
0000
0102
0000
1003
0000
2100
,
0000
3010
0000
0102
0000
0013
0000
2010
,
0000
3100
0000
0012
0000
0103
0000
0001
,
0010
0100
1000
0000
1010
0000
0101
0000
,
0001
0010
1000
0010
0100
0010
0001
0000
,
2010
3001
0102
1003
,
1000
0001
1100
1100
,
0001
0010
0100
0000
1001
0000
0011
0000
,
0001
0100
1000
0100
0010
0100
0001
0000
,
0102
1003
2010
3001
,
1000
0100
0010
0002
0000
0103
1000
0100
,
0010
1000
0001
0000
0011
0000
0101
0000
,
0001
0100
1000
0100
0010
1000
0001
0000
,
2010
0100
0001
3010
,
0012
0100
1000
0013
,
0001
1000
1100
0000
1000
0001
0101
0000
,
1000
0100
0001
0100
0010
0001
1000
0000
,
0012
1003
2010
3001
,
1000
0100
0001
1000
0010
0001
0100
0010
,
0100
0001
0000
1000
0100
0001
0100
0010
,
0000
1001
0000
0001
0100
1000
0100
0010
,
0000
1001
0000
0001
0010
1000
0010
0100
,
1000
0100
0100
1000
0010
0010
0100
0001
,
0010
0100
0000
1000
0100
0001
0100
0010
,
0000
1001
0000
0001
0100
1000
0100
0010
,
0000
1001
0000
1000
0010
0001
0010
0100
,
0001
1000
1000
0100
1000
1000
0010
0100
,
0001
1000
0000
0001
0010
1000
0010
0100
,
0000
1001
0000
1000
0010
0001
0010
0100
,
0000
1001
0000
0001
0100
1000
0100
0010
,
1000
0001
0001
0010
0100
0100
0010
0001
,
0100
0010
0000
1000
0100
0001
0100
0010
,
0000
1001
0000
0001
0100
1000
0100
0010
,
0000
1001
0000
1000
0100
0001
0100
0010
,
0000
0010
0001
0000
0100
0010
1000
0000
,
2100
3001
0102
1003
,
2010
0000
0000
3001
0000
0000
1000
0000
0100
0010
0000
0000
,
0102
0013
2100
3010
,
0102
0000
0000
1003
0000
0000
0001
0000
1000
0100
0000
0010
,
0001
0000
0000
0100
0000
0100
0010
0000
0000
1000
0000
0000
,
0200
0000
0000
0001
0000
0000
1300
0000
0010
0100
0000
0100
,
1000
0000
0000
0100
0000
0001
0010
0000
0000
0100
0000
0000
,
0020
0000
0000
1000
0000
0000
0031
0000
0100
0010
0000
0020
,
0200
0000
0000
0000
,
0330
0000
0000
0000
;

//---------------dance-single - ----------------
#NOTES:
     dance-single:
     :
     Challenge:
     11:
     0.495003,0.518736,0.298358,0.237330,0.128836,511.000000,467.000000,44.000000,35.000000,40.000000,0.000000,0.495003,0.518736,0.298358,0.237330,0.128836,511.000000,467.000000,44.000000,35.000000,40.000000,0.000000:
0000
0000
0000
0000
,
0000
0000
0000
0000
,
0000
0000
0000
0000
,
0000
0000
0000
0000
,
0000
0000
0000
0000
,
1000
1000
0100
0100
,
0010
0000
0000
0010
0000
0000
0001
0000
0001
1000
0000
1000
,
0001
0001
0100
0100
,
0010
0000
0000
0010
0000
0000
1000
0000
1000
0001
0000
0001
,
1000
1000
0100
0100
,
0010
0000
0000
0010
0000
0000
0001
0000
0100
0001
0000
0100
,
0010
0010
1000
1000
,
0100
0000
0000
0100
0000
0000
1000
0000
0100
0010
0100
0010
,
0001
0000
0000
0101
0000
0001
0100
0000
0000
0010
0000
0000
,
2000
0000
0000
0100
0000
0000
3001
0000
0100
0010
0000
0010
,
1000
0000
0100
0010
0000
0000
0001
0000
0100
0010
0000
0200
,
1000
0000
0000
0301
0000
0000
1000
0000
0100
0010
0100
0010
,
0001
0000
0000
0100
0000
0100
0010
0000
0000
1000
0000
0000
,
0200
0000
0000
0001
0000
0000
1300
0000
0001
0100
0000
0100
,
0010
1000
0100
0010
,
0002
0000
1000
1000
,
0103
0000
1010
0000
0001
0010
0100
1000
,
0001
0000
1000
0100
1000
0010
0100
0001
,
1000
0000
0101
0000
0001
0010
0100
1000
,
0000
0010
0001
0010
1000
0000
0001
0100
,
0010
0000
0101
0000
0001
0010
0100
1000
,
0010
0100
0010
0100
0001
0000
1000
0100
,
0002
0000
1003
0010
0001
0000
1000
0010
,
0002
0000
1003
0100
0001
0000
1010
0000
,
0101
0000
1000
0000
0001
0010
0100
1000
,
0000
0010
0100
1000
0100
0001
0010
0100
,
1000
0000
0011
0000
1000
0010
0100
0010
,
0000
0001
0010
0100
0001
0000
1000
0100
,
0010
0000
1100
0000
0001
0100
1000
0100
,
0010
1000
0100
0010
0001
0000
1000
0010
,
0002
0000
1003
0100
0001
0000
1000
0100
,
0002
0000
1003
0010
0001
0000
0000
0011
,
0000
1100
0000
0000
0001
0000
1000
0100
,
0000
1000
0010
1000
0000
0010
0001
0010
,
0000
0001
0100
0001
0000
0100
1000
0100
,
0000
1000
0010
1000
0000
0001
0000
1010
,
0000
0101
0000
0000
1000
0000
0001
0100
,
0000
0001
0010
0001
0000
0010
1000
0010
,
0000
1000
0100
1000
0000
0100
0001
0100
,
0000
0001
0010
0001
0000
1000
0000
2100
,
0000
3001
0000
0012
0000
1003
0000
2010
,
0000
3001
0000
0102
0000
1003
0000
2100
,
0000
3010
0000
0102
0000
0013
0000
2010
,
0000
3100
0000
0012
0000
0103
0000
0001
,
0010
0100
1000
0000
1010
0000
0101
0000
,
0001
0010
1000
0010
0100
0010
0001
0000
,
2010
3001
0102
1003
,
1000
0001
1100
1100
,
0001
0010
0100
0000
1001
0000
0011
0000
,
0001
0100
1000
0100
0010
0100
0001
0000
,
0102
1003
2010
3001
,
1000
0100
0010
0002
0000
0103
1000
0100
,
0010
1000
0001
0000
0011
0000
0101
0000
,
0001
0100
1000
0100
0010
1000
0001
0000
,
2010
0100
0001
3010
,
0012
0100
1000
0013
,
0001
1000
1100
0000
1000
0001
0101
0000
,
1000
0100
0001
0100
0010
0001
1000
0000
,
0012
1003
2010
3001
,
1000
0000
0100
M000
0100
0000
0001
0000
0010
000M
0010
0000
1000
0000
0010
0000
,
0100
0001
0000
1000
0100
0001
0100
0010
,
0000
MMMM
0000
1000
0010
0001
0010
0100
,
0000
MMMM
0000
1000
0100
0001
0100
0010
,
0001
0000
0100
000M
0100
0000
1000
0000
0010
M000
0010
0000
0001
0000
0100
0000
,
0010
1000
0000
0001
0100
1000
0100
0010
,
0000
MMMM
0000
0001
0010
1000
0010
0100
,
0000
MMMM
0000
0001
0100
1000
0100
0010
,
1000
0000
0010
M000
0010
0000
0001
0000
0100
000M
0100
0000
1000
0000
0100
0000
,
0010
0001
0000
1000
0010
0001
0010
0100
,
0000
MMMM
0000
1000
0100
0001
0100
0010
,
0000
MMMM
0000
1000
0010
0001
0010
0100
,
0001
0000
0010
000M
0010
0000
1000
0000
0100
M000
0100
0000
0001
0000
0100
0000
,
0010
1000
0000
0001
0010
1000
0010
0100
,
0000
MMMM
0000
0001
0100
1000
0100
0010
,
0000
MMMM
0000
0001
0010
1000
0010
0100
,
0000
0100
1000
0000
0001
1000
0001
0000
,
2100
3001
0102
1003
,
2010
0000
0000
3001
0000
0000
1000
0000
0100
0010
0000
0000
,
0102
0013
2100
3010
,
0102
0000
0000
1003
0000
0000
0001
0000
1000
0100
0000
0010
,
0001
0000
0000
0100
0000
0100
0010
0000
0000
1000
0000
0000
,
0200
0000
0000
0001
0000
0000
1300
0000
0010
0100
0000
0100
,
1000
0000
0000
0100
0000
0001
0010
0000
0000
0100
0000
0000
,
0020
0000
0000
1000
0000
0000
0031
0000
0100
0010
0000
0020
,
0200
0000
0000
0000
,
0330
0000
0000
0000
;
