#TITLE:Binary Black Hole;
#SUBTITLE:;
#ARTIST:BEMANI Sound Team "D.J.Amuro";
#TITLETRANSLIT:;
#SUBTITLETRANSLIT:;
#ARTISTTRANSLIT:D.J.Amuro;
#GENRE:BLACK OUT;
#CREDIT:;
#MUSIC:Binary Black Hole.ogg;
#BANNER:Binary Black Hole.png;
#BACKGROUND:Binary Black Hole-bg.png;
#CDTITLE:;
#SAMPLESTART:89.619;
#SAMPLELENGTH:15.000;
#SELECTABLE:YES;
#OFFSET:0.045;
#BPMS:0.000=190.000;
#STOPS:;
#BGCHANGES:0.000=Binary Black Hole.mp4=1.000=0=0=1,
388.000=Binary Black Hole-bg.png=1.000=0=0=1,
99999.000=-nosongbg-=1.000=0=0=0=StretchNoLoop====
;
#FGCHANGES:;

//--------------- dance-single - forcednature ----------------
#NOTES:
     dance-single:
     forcednature:
     Beginner:
     9:
     0,0,0,0,0:
0000
0000
0000
0000
,
0000
0000
0000
0000
,
0000
0000
0000
0000
,
0000
0000
0000
0000
,
0000
0000
0000
0000
,
1000
0000
1001
0000
0000
0001
0100
0000
,
0001
0000
1001
0000
0000
1000
0100
0000
,
1000
0000
1001
0000
0000
0001
0010
0000
,
0001
0000
1001
0000
0000
1000
0010
0000
,
0100
0000
1001
0000
0000
0001
0010
0000
,
0100
0000
1001
0000
0000
1000
0010
0000
,
0100
0000
1001
0000
0000
0001
0010
0000
,
0100
0000
1001
0000
0000
1000
0010
0000
,
1001
0001
1000
0010
,
1000
0001
0010
0001
,
0100
0010
1000
0010
,
0100
0001
1000
0001
,
0010
0100
1000
0100
,
0010
0001
1000
0010
,
0100
0001
0010
0100
,
0000
0000
0000
1000
0000
1000
0000
0000
,
1001
0001
0100
0010
,
1000
1000
0100
0010
,
0001
1000
0010
0100
,
0001
0001
0010
0100
,
1000
0001
0100
0010
,
1000
1000
0100
0010
,
0001
1000
0010
0100
,
0001
0001
0010
0100
,
0110
0000
0010
0000
0001
0000
1000
0001
,
0000
0000
0100
0000
0010
0000
1000
0010
,
0000
0000
0100
0000
0001
0000
0010
0001
,
0000
0000
1000
0000
0010
0000
0100
0010
,
0000
0000
1000
0000
0100
0000
0010
0100
,
0000
0000
1000
0000
0001
0000
0010
0001
,
0000
0000
0100
0000
0010
0000
1000
0010
,
0000
0000
0000
0000
,
1001
0001
0100
0010
,
1000
0100
0010
0000
,
0200
1000
1000
0010
,
0010
1000
1000
0300
,
0110
0010
0001
1000
,
0001
0100
0010
0000
,
0200
0001
0001
0010
,
0010
0001
0001
0300
,
0110
0000
0001
0000
0000
1000
0000
0000
,
0100
0000
0000
0010
0001
0000
0001
0000
,
0100
0000
0010
0000
0000
1000
0000
0000
,
0001
0000
0000
1000
0100
0000
0100
0000
,
0110
0000
0010
0000
0001
1000
0001
0000
,
0100
0000
0010
0000
1000
0001
1000
0000
,
0100
0010
0100
1000
,
0001
0000
0001
0000
0100
0010
0100
0000
,
1001
0000
0000
0000
,
2000
3200
0320
0032
,
0203
0000
0000
0300
,
0020
0000
0000
2030
0000
0000
0000
0000
,
3002
0000
0000
0003
,
0020
0000
0000
0230
0000
0000
2300
0000
,
3002
0000
0000
0000
0003
0200
0000
0000
,
0320
0000
0000
0030
0000
0200
0000
0000
,
0320
0000
0000
0030
0000
2000
0000
0000
,
3002
0203
0320
2030
,
3002
0000
0000
0023
0000
0000
0230
0000
,
2300
0000
0000
3002
0000
0000
0203
0000
,
0320
0000
0000
0000
0000
0000
0000
2030
,
0000
0000
0000
3002
,
0023
0000
0000
0230
0000
0000
2300
0000
,
3002
0000
0000
0000
0003
0200
0000
0000
,
0320
0000
2030
3002
,
0023
0000
0000
0030
,
0001
1000
0001
0000
0100
0000
0110
0000
,
1000
0001
1000
0000
0100
0000
0110
0000
,
0001
1000
0001
0000
0010
0000
0110
0000
,
1000
0001
1000
0000
0010
0000
0110
0000
,
0001
0100
0001
0000
1000
0000
0110
0000
,
1000
0100
1000
0000
0001
0000
0110
0000
,
0001
0000
0001
0100
0000
0100
0001
0000
,
1000
0000
1000
0100
0000
0100
1000
0000
,
1001
0000
0001
0000
0100
0010
0100
0000
,
0001
1000
0100
0010
,
0001
0000
1000
0000
0100
0010
0100
0000
,
1000
0001
0100
0010
,
1001
0000
0001
0000
0100
0010
0100
0000
,
1001
0000
1000
0000
0100
0010
0100
0000
,
1000
0000
1000
0001
0000
0001
0100
0000
,
0001
0000
0001
1000
0000
1000
0100
0000
,
0010
0001
0010
0001
0010
0001
0000
0000
,
1000
0010
1000
0010
1000
0010
0000
0000
,
0100
0001
0100
0001
0100
0001
0000
0000
,
1000
0100
1000
0100
1000
0100
0000
0000
,
0110
1000
0001
0100
,
0110
0001
1000
0100
,
1000
0010
1000
0000
0001
0010
0001
0000
,
0100
0010
0100
0010
1000
0001
1000
0000
,
2002
0000
0000
0000
,
0000
0000
0000
0000
,
0000
0000
0000
0000
,
0000
0000
0000
0000
,
3003
0000
0000
0000
;

//--------------- dance-single - forcednature ----------------
#NOTES:
     dance-single:
     forcednature:
     Easy:
     13:
     0,0,0,0,0:
0000
0000
0000
0000
,
0000
0000
0000
0000
,
0000
0000
0000
0000
,
0000
0000
0000
0000
,
0000
0000
0000
0000
,
1001
0000
0110
0000
0001
0100
1000
0000
,
0100
0000
0110
0000
1000
0100
0001
0000
,
0100
0000
0110
0000
0001
0100
1000
0000
,
0100
0000
0110
0000
1000
0100
0001
0000
,
0100
0000
0110
0000
1000
0010
0001
0000
,
0010
0000
0110
0000
0001
0010
1000
0000
,
0010
0000
0110
0000
1000
0010
0001
0000
,
0010
0000
0110
0000
0001
1000
0001
1000
,
0100
0010
0000
0010
0000
0010
0001
0000
,
0100
0010
0000
0010
0000
0010
1000
0000
,
0001
0010
0000
0010
0000
0010
0100
0000
,
1000
0010
0000
0010
0000
0010
0100
0000
,
0001
0100
0000
1000
0000
0100
0001
0000
,
1000
0100
0000
0001
0000
0100
1000
0000
,
0001
0010
0000
1000
0000
0010
0000
0000
,
0000
0000
0000
0100
0000
0100
0000
0000
,
1001
0000
0000
0000
0110
0000
0000
0000
0001
0000
0000
0100
0000
0000
0010
0000
,
1000
0000
0000
0000
1000
0000
0000
0000
0100
0000
0000
0010
0000
0000
0001
0000
,
1000
0000
0000
0000
0010
0000
0000
0000
0100
0000
0000
0001
0000
0000
0010
0000
,
0100
0000
0000
0000
0100
0000
0000
0000
0010
0000
0000
0001
0000
0000
1000
0000
,
0010
0000
0000
0000
0100
0000
0000
0000
0001
0000
0000
1000
0000
0000
0100
0000
,
0010
0000
0000
0000
0010
0000
0000
0000
0001
0000
0000
1000
0000
0000
0010
0000
,
0100
0000
0000
0000
0001
0000
0000
0000
1000
0000
0000
0100
0000
0000
0010
0000
,
0001
0000
0000
0000
0001
0000
0000
0000
0100
0000
0000
0010
0000
0000
0000
0000
,
1001
0000
0001
0010
0100
1000
0100
0010
,
0000
0000
0001
1000
0001
0100
0010
1000
,
0000
0000
0100
1000
0010
0100
0001
0010
,
0000
0000
0100
1000
0001
0100
0001
1000
,
0010
0000
0100
0010
1000
0001
0010
0100
,
1000
0000
0001
0100
0010
1000
0001
0010
,
0100
0000
0010
0001
1000
1000
0010
0010
,
0000
0000
0000
0000
,
1001
0000
0001
0100
0010
1000
0001
0000
,
0010
0000
0100
0000
1000
0001
0100
0000
,
0020
1000
0100
0001
,
0100
1000
0100
0031
,
0110
0000
1000
0001
0010
0100
1000
0000
,
0001
0000
0100
0000
0010
1000
0001
0000
,
0020
1000
0100
0001
,
0100
0000
1000
0000
0130
0010
0001
0000
,
1001
0000
0001
0100
0000
1000
0100
0000
,
0001
0010
0000
1000
0010
0000
0100
0000
,
1001
0000
1000
0010
0000
0001
0010
0000
,
1000
0100
0000
0001
0100
0000
0010
0000
,
1001
0000
0001
0100
1000
0000
0100
0000
,
1001
0000
1000
0100
0001
0000
0100
0000
,
0011
0100
1010
0100
,
0001
1000
0001
1000
0010
0001
0010
1000
,
0100
0000
0000
0000
,
0020
0032
2003
3020
,
0230
0000
0000
0300
,
0002
0000
0000
2003
0000
0000
0000
0000
,
3200
0000
0000
0300
,
0020
0000
0000
0032
0000
0000
0203
0000
,
0320
0000
0000
0000
0030
2000
3200
0320
,
0032
0000
0000
0003
0000
2000
3200
0320
,
0032
0000
0000
0003
0000
0200
0302
2003
,
3020
2030
3002
0023
,
0230
0000
0000
2300
0000
0000
3002
0000
,
0203
0000
0000
0320
0000
0000
2030
0000
,
3002
0000
0000
0000
0000
0000
0003
0020
,
0230
0000
0000
0000
0000
0000
2300
3002
,
0203
0000
0320
2030
0000
3002
0023
0000
,
0230
0000
0000
0000
0300
2000
3002
0203
,
0310
0010
0020
0000
0130
0001
1000
0001
,
0020
0000
0000
0030
,
0001
0000
1000
0010
1000
0000
0001
0000
0010
0000
0100
0000
1100
0000
0000
0000
,
1000
0000
0001
0010
0001
0000
1000
0000
0010
0000
0100
0000
0101
0000
0000
0000
,
0001
0000
0010
0100
0010
0000
0001
0000
1000
0000
0100
0000
1100
0000
0000
0000
,
1000
0000
0010
0100
0010
0000
1000
0000
0001
0000
0100
0000
0101
0000
0000
0000
,
0001
0000
1000
0100
1000
0000
0010
0000
0001
0000
0010
0000
0110
0000
0000
0000
,
1000
0000
0001
0100
0001
0000
0010
0000
1000
0000
0010
0000
0110
0000
0000
0000
,
0001
0001
0100
1000
1000
0100
0010
0000
,
1000
0000
1000
0000
0100
0000
0010
0000
0001
1000
0001
0000
0100
0000
0000
0000
,
0010
1000
0001
0020
0000
0100
0100
0030
,
0010
0001
1000
0001
0100
0010
1000
0001
,
0010
0100
1000
0020
0000
0100
0100
0030
,
0010
1000
0001
0010
0100
1000
0001
0100
,
0010
1000
0001
0200
0000
0010
0010
0300
,
0100
0001
1000
0100
0010
0001
1000
0010
,
0100
0100
1000
0100
0100
0001
0010
0000
,
0100
0100
0001
0100
1000
0001
1000
0000
,
1000
0100
1000
0100
1000
0000
0001
0010
0001
0010
0001
0000
0000
0000
0000
0000
,
1000
0010
1000
0010
1000
0000
0001
0100
0001
0100
0001
0000
0000
0000
0000
0000
,
1000
0100
1000
0100
0010
0000
0001
0100
0001
0100
0010
0000
0000
0000
0000
0000
,
1000
0010
1000
0010
0100
0000
0001
0010
0001
0010
0100
0000
0000
0000
0000
0000
,
1001
0000
0001
0000
0100
0010
1000
0000
,
1001
0000
1000
0000
0100
0010
0001
0000
,
1000
0010
1000
0010
0100
0001
0100
0001
,
0010
0000
0100
0000
0010
0000
0100
0000
1000
0001
1000
0001
1000
0000
0000
0000
,
1001
0000
0000
0000
;

//--------------- dance-single - forcednature ----------------
#NOTES:
     dance-single:
     forcednature:
     Medium:
     16:
     0,0,0,0,0:
0000
0000
0000
0000
,
0000
0000
0000
0000
,
0000
0000
0000
0000
,
0000
0000
0000
0000
,
0000
0000
0000
0000
,
1001
0000
0011
0000
1000
0100
0001
0100
,
1000
0000
1010
0000
0001
0100
1000
0100
,
0001
0000
0011
0000
1000
0100
0001
0100
,
1000
0000
1010
0000
0001
0100
1000
0100
,
0001
0000
1100
0000
0001
0010
1000
0010
,
0001
0000
0101
0000
1000
0010
0001
0010
,
1000
0000
1100
0000
0001
0010
1000
0010
,
0001
0000
0000
0000
0101
0000
0000
0000
1000
0001
1000
0000
0001
1000
0001
0000
,
0100
0000
0100
0000
0010
0000
1000
0000
0001
0000
0010
0100
1000
0000
0000
0000
,
0001
0000
0001
0000
0100
0000
0010
0000
1000
0000
0001
0010
0100
0000
0000
0000
,
1000
0000
1000
0000
0001
0000
0100
0000
0010
0000
1000
0001
0010
0000
0000
0000
,
0100
0000
0100
0000
1000
0000
0001
0000
0100
0000
0010
1000
0001
0000
0000
0000
,
0010
0000
0001
0000
0010
0000
0100
0000
1000
0000
0001
0100
0010
0000
0000
0000
,
1000
0000
0001
0000
1000
0000
0100
0000
0010
0000
0001
1000
0010
0000
0000
0000
,
0100
0000
0001
0000
0100
0000
0001
1000
0100
0000
0100
0000
0010
0000
0010
0001
,
0000
0000
0000
1000
0000
1000
0000
0000
,
0001
0000
0100
0000
0010
0000
0100
0000
0000
0001
0000
1000
0100
0000
0010
0000
,
0001
0000
0100
0000
0001
0000
1000
0000
0000
0010
0000
1000
0100
0000
0010
0000
,
0001
0000
1000
0000
0010
0000
0100
0000
0000
0001
0000
1000
0100
0000
1000
0000
,
0001
0000
0100
0000
0010
0000
1000
0000
0000
0001
0000
0010
0001
0000
0100
0000
,
0010
0000
1000
0000
0100
0000
0010
0000
0000
0001
0000
1000
0010
0000
0100
0000
,
0001
0000
1000
0000
0100
0000
1000
0000
0000
0010
0000
0100
0001
0000
0010
0000
,
0100
0000
0010
0000
0001
0000
1000
0000
0000
0010
0000
0100
0001
0000
1000
0000
,
0100
0000
1000
0000
0010
0000
1000
0100
0010
0000
0010
0000
0001
0000
0001
0000
,
1001
0000
0000
0000
1000
0000
0010
0000
0100
0001
0000
0100
0001
0000
0100
0001
,
1000
0000
0000
0000
0001
0000
0010
0000
0100
1000
0000
0100
1000
0000
0100
1000
,
0001
0000
0000
0000
1000
0000
0100
0000
0010
0001
0000
0010
0001
0000
0010
0001
,
1000
0000
0000
0000
0001
0000
0100
0000
0010
1000
0000
0010
1000
0000
0010
1000
,
0001
0000
0001
0000
0010
0000
0100
0000
1000
0001
0000
1000
0001
0000
0100
0010
,
1000
0000
1000
0000
0010
0000
0100
0000
0001
1000
0000
0001
1000
0000
0100
0010
,
0001
0000
0001
0000
0100
0000
0010
0000
1000
0001
1000
0001
1000
0000
0100
0000
,
0010
0000
0000
0010
0000
0000
0001
0000
0100
0000
0100
0000
0010
0000
1000
0000
,
0001
0010
0100
0001
0100
0010
0001
1000
,
0010
0100
1000
0100
0001
0010
0100
0000
,
1000
0010
0001
0010
0100
0001
1000
0010
,
1000
0100
0001
0100
0010
0001
1000
0000
,
0010
0100
1000
0001
0010
0100
0001
1000
,
0100
0001
0100
1000
0010
0100
0001
0000
,
1000
0100
0010
1000
0001
0100
0010
0001
,
1000
0000
0010
0000
0001
0000
0010
0000
0100
0001
0100
0000
0010
0000
0000
0000
,
1000
0000
0100
0000
0010
0000
0010
0001
1000
0000
0010
0000
0010
1000
0001
0000
,
0100
0000
0100
0000
0001
0000
1000
0100
0010
0000
0001
0000
2000
0000
0000
0000
,
3001
0000
0100
0000
0010
0000
0010
1000
0001
0000
0010
0000
0010
0001
1000
0000
,
0100
0000
0100
0000
1000
0000
0001
0100
0010
0000
1000
0000
0002
0000
0000
0000
,
1003
0000
1000
0000
0100
0000
0010
0000
0001
1000
0001
0000
0020
0000
0000
0000
,
0031
0000
0001
0000
0100
0000
0010
0000
1000
0001
1000
0000
0020
0000
0000
0000
,
1030
0100
1100
0000
0001
0100
0101
0000
,
0110
0000
0000
0000
1001
0000
0000
0000
0001
0100
0001
0100
0010
0000
1000
0001
,
1000
0000
0000
0000
,
0002
0203
0320
2030
,
3200
0000
0000
0300
,
0020
0000
0032
2003
0000
0000
0000
0000
,
3020
0000
0000
0030
,
0200
0000
0302
2003
0000
3002
0023
0000
,
0230
0000
0000
0000
0300
2000
3020
0230
,
0302
0000
0000
0003
0000
2000
3020
0230
,
0302
0000
0000
0000
0000
0000
0000
0000
0000
0003
0000
0000
0000
0000
0000
2000
0000
0000
3002
0000
0023
0000
0230
0000
,
2300
3002
0023
0032
,
0203
0000
0320
2030
0000
3020
0230
0000
,
0302
0000
2003
3200
0000
0320
0032
0000
,
0203
0000
0000
0000
0000
0000
0000
0000
0000
0000
0000
0000
0300
0000
0010
1000
,
0002
0000
0000
0000
0000
0000
0023
0230
,
2300
0000
3002
0203
0000
0302
0023
0000
,
0230
0000
0000
0000
0300
2000
3002
0203
,
0310
1000
0010
1000
0002
0000
0000
0000
0013
0001
0010
0001
1000
0100
0010
0001
,
0200
0000
0000
0300
,
0001
0000
1000
0100
0010
0000
0001
0000
0100
0010
1000
0000
1010
0000
0000
0000
,
1000
0000
0001
0100
0010
0000
1000
0000
0100
0010
0001
0000
0011
0000
0000
0000
,
0001
0000
1000
0010
0100
0000
0001
0000
0010
0100
1000
0000
1100
0000
0000
0000
,
1000
0000
0001
0010
0100
0000
1000
0000
0010
0100
0001
0000
0101
0000
0000
0000
,
1000
0000
0100
0001
0100
0000
0010
0000
0001
1000
0010
0000
0110
0000
0000
0000
,
0001
0000
0100
1000
0100
0000
0010
0000
1000
0001
0010
0000
0110
0000
0000
0000
,
0100
1000
0100
0000
0010
0000
0100
1000
0100
0000
0001
0000
0100
0000
0000
0000
,
0010
0001
0010
0000
0001
0000
0010
0001
1000
0001
0100
0010
1000
0000
0000
0000
,
0001
0000
0100
0010
1000
0000
0200
0000
0001
0000
0010
0000
1000
0000
0300
0000
,
0100
0000
0010
0000
0001
0000
1000
0000
0001
0000
0100
0010
1000
0000
0001
0000
,
0010
0000
0100
1000
0001
0000
0200
0000
1000
0000
0010
0000
0001
0000
0300
0000
,
0100
0000
0010
0000
1000
0000
0001
0000
0010
0000
0100
1000
0001
0000
0100
0000
,
0110
0000
0010
1000
0001
0000
0020
0000
1000
0000
0100
0000
0001
0000
0030
0000
,
0110
0000
0100
0000
1000
0000
0001
0000
0100
0000
0010
1000
0001
0000
0010
0000
,
0001
0100
0001
0000
1000
0000
0001
0100
0001
0000
0010
0000
0001
0100
0001
0000
,
1000
0010
1000
0000
0001
0000
1000
0010
1000
0001
1000
0100
0010
0000
0010
0000
,
0001
0100
0001
0100
0010
0000
1000
0100
1000
0100
0010
0000
0001
0100
0010
1000
,
0001
0010
0001
0010
0100
0000
1000
0010
1000
0010
0100
0000
0002
0000
0000
0000
,
1003
0100
0010
0001
1000
0000
0001
0100
0010
1000
0001
0000
1000
0100
1000
0100
,
0010
0001
1000
0001
0100
0000
0010
1000
0001
1000
0100
0000
0010
0000
0001
1000
,
0001
0000
0100
0000
1000
0000
0100
0000
0001
0010
0000
0001
0010
0000
0100
0000
,
1000
0000
0100
0000
0001
0000
0100
0000
1000
0010
0000
1000
0010
0000
0100
0000
,
0001
0010
0001
0000
0100
0000
0001
0000
1000
0010
1000
0000
0100
0000
1000
0000
,
0001
0100
0001
0000
1000
0010
1000
0000
0001
0010
0001
0010
0100
1000
0100
1000
,
0010
0000
0000
0000
;

//--------------- dance-single - forcednature ----------------
#NOTES:
     dance-single:
     forcednature:
     Hard:
     18:
     0,0,0,0,0:
0000
0000
0000
0000
,
0000
0000
0000
0000
,
0000
0000
0000
0000
,
0000
0000
0000
0000
,
0000
0000
0000
0000
,
1000
0000
0000
0000
0101
0000
0000
0000
0001
0000
1000
0000
0010
0000
0000
0100
,
0001
0000
0000
0000
1100
0000
0000
0000
1000
0000
0001
0000
0010
0000
0000
0100
,
1000
0000
0000
0000
0011
0000
0000
0000
0001
0000
1000
0000
0100
0000
0000
0010
,
0001
0000
0000
0000
1010
0000
0000
0000
1000
0000
0001
0000
0100
0000
0000
0010
,
1000
0000
0000
0000
1001
0000
0000
0000
0001
0000
1000
0000
0010
0000
0100
0001
,
1000
0000
0000
0000
1001
0000
0000
0000
1000
0000
0001
0000
0010
0000
0100
1000
,
0001
0000
0000
0000
0110
0000
0000
0000
0001
0000
1000
0000
0100
0000
0010
0001
,
1000
0000
0000
0000
0110
0000
0000
1000
0001
0100
0001
0100
0001
0100
0001
0100
,
0010
0000
0010
0000
1000
0000
0001
0000
0010
0000
0100
1000
0001
0000
0000
0000
,
0100
0000
0100
0000
0010
0000
1000
0000
0001
0000
0010
0100
1000
0000
0000
0000
,
0001
0000
0001
0000
1000
0000
0010
0000
0100
0000
0001
1000
0100
0000
0000
0000
,
0010
0000
0010
0000
0001
0000
1000
0000
0010
0000
0100
0001
1000
0000
0000
0000
,
0100
0000
0100
0000
0010
0001
0010
0000
0100
0000
1000
0001
0100
0000
0000
0000
,
0010
0000
0010
0000
1000
0001
1000
0000
0010
0000
0100
0001
1000
0000
0000
0000
,
0100
0000
0100
0000
0010
0001
0010
0000
0001
1000
0001
1000
0001
1000
0001
1000
,
0020
0000
0000
0100
0000
1000
0030
0000
,
0001
0000
0100
0000
0101
0000
0000
0000
1000
0010
0000
1000
0001
0000
0010
0000
,
0100
1000
0100
0000
1000
0100
1000
0000
0001
0100
0000
0010
1000
0000
0001
0000
,
1000
0000
0100
0000
0110
0000
0000
0000
0010
0100
0000
1000
0100
0000
0010
0000
,
0001
0100
0001
0000
0100
0001
0100
0000
0010
1000
0000
0001
1000
0000
0100
0000
,
0010
0000
0001
0000
1001
0000
0000
0000
1000
0010
0000
0100
0001
0000
1000
0000
,
0001
0010
0001
0000
1000
0100
1000
0000
0010
0100
0000
0001
0010
0000
0100
0000
,
1000
0000
0001
0000
1001
0000
0000
0000
0001
1000
0000
0100
1000
0000
0001
0000
,
1000
0010
1000
0000
0001
0100
0001
0000
0010
0000
0010
0000
0001
0000
1000
0000
,
1100
0000
0000
0000
0100
0000
0010
0000
0001
1000
0010
0000
0100
0000
0001
1000
,
0010
0000
0000
0000
1000
0000
0001
0000
0010
0100
1000
0000
0001
0000
0010
0100
,
1000
0000
0000
0000
0010
0000
0100
0000
0001
1000
0100
0000
0010
0000
0001
1000
,
0100
0000
0000
0000
0010
0000
0001
0000
0100
0001
1000
0000
0010
0000
0100
0001
,
1000
0000
1000
0000
0100
0000
0010
0000
0001
0100
0010
0000
1000
0000
0001
0010
,
0100
0000
0100
0000
1000
0000
0001
0000
0100
0010
1000
0000
0001
0000
0010
0100
,
1000
0000
1000
0000
0001
0000
0100
0000
0010
1000
0010
1000
0001
0000
0010
0100
,
1000
0000
0000
0010
0000
0000
1000
0000
0100
0000
0100
0000
0001
0000
0100
0000
,
0110
0000
0000
0000
1000
0000
0010
0000
1000
0001
0010
0100
1000
0000
0001
0100
,
0010
0000
1000
0000
0100
0000
1000
0000
0010
0100
0001
1000
0100
0000
0010
0001
,
1000
0000
0010
0000
0001
0000
0010
0000
0100
0001
1000
0001
0010
0000
0100
1000
,
0001
0000
0010
0000
1000
0000
0010
0000
0100
1000
0001
1000
0010
0000
0100
0000
,
0110
0000
0000
0000
1000
0000
0001
0000
0010
0100
1000
0001
0100
0000
0010
1000
,
0001
0000
0010
0000
0100
0000
0010
0000
0001
1000
0010
0100
0001
0000
1000
0001
,
0100
0000
1000
0000
0100
0000
0001
0000
0010
0100
1000
0001
0100
0000
0010
0000
,
1000
0000
0100
0000
0001
0000
0100
0000
0010
0001
0010
0001
0100
0000
0000
0000
,
1010
0000
1000
0000
0100
0010
0001
0000
0100
0000
0010
0100
0001
0000
0010
0000
,
0100
0010
0001
0000
1000
0000
0001
0100
0001
1000
0010
0000
1010
0000
0000
0000
,
0001
0000
0001
0000
0100
0010
1000
0000
0100
0000
0010
0100
1000
0000
0010
0000
,
0100
0010
1000
0000
0001
0000
1000
0100
1000
0001
0100
0010
1000
0000
0000
0000
,
0101
0000
0001
0000
1000
0000
0100
0000
0010
0001
0100
0010
1000
0000
0000
0000
,
1100
0000
1000
0000
0001
0000
0100
0000
0010
1000
0100
0010
0001
0000
0000
0000
,
0101
0000
0001
1000
0010
0000
1000
0000
1100
0000
1000
0001
0010
0000
0001
0000
,
0101
0000
0100
0000
0010
1000
0001
1000
0100
0010
0001
1000
0001
0000
0100
0010
,
1000
0000
0000
0000
,
0002
0203
0320
2030
,
3002
0000
0000
0003
,
2000
0000
3020
0230
0000
0000
0000
0000
,
0302
0000
0000
0003
,
2000
0000
3002
0023
0000
0230
2300
0000
,
3002
0000
0000
0000
0003
0200
0302
2003
,
3020
0000
0000
0030
0000
0200
0302
2003
,
3020
0000
0000
0000
0000
0000
0000
0000
0000
0030
0000
0000
0000
0000
0000
0200
0000
0000
0302
0000
2003
0000
3002
0000
,
0023
0230
2300
3001
,
1002
0000
2003
3200
0000
0320
0032
0000
,
0203
0000
0320
2030
0000
3200
0320
0000
,
0032
0000
0000
0000
0000
0000
0100
0000
0000
0000
0000
0000
1003
0000
0001
0010
,
0200
0000
0000
0001
0000
0000
2300
3002
,
0023
0000
0032
0203
0000
0320
2030
0000
,
3200
0000
0000
0001
0300
2000
3002
0023
,
0031
1000
0001
1000
0020
0000
0000
0000
1030
0001
1000
0001
0010
0100
1000
0001
,
0200
0000
0000
0300
,
0001
0000
0000
0000
0000
0000
1000
0000
0100
0000
1000
0000
0100
0000
0000
0000
0000
0000
0010
0000
0000
0000
0000
0000
0001
0000
0000
1000
0000
0000
0010
0000
0000
0000
0000
0000
0110
0000
0000
0000
0000
0000
0000
0000
0000
0000
0000
0000
,
1000
0000
0000
0000
0000
0000
0001
0000
0100
0000
0001
0000
0100
0000
0000
0000
0000
0000
0010
0000
0000
0000
0000
0000
1000
0000
0000
0001
0000
0000
0010
0000
0000
0000
0000
0000
0110
0000
0000
0000
0000
0000
0000
0000
0000
0000
0000
0000
,
0001
0000
0000
0000
0000
0000
1000
0000
0010
0000
1000
0000
0010
0000
0000
0000
0000
0000
0100
0000
0000
0000
0000
0000
0001
0000
0000
0010
0000
0000
0100
0000
0000
0000
0000
0000
1100
0000
0000
0000
0000
0000
0000
0000
0000
0000
0000
0000
,
1000
0000
0000
0000
0000
0000
0001
0000
0010
0000
0001
0000
0010
0000
0000
0000
0000
0000
0100
0000
0000
0000
0000
0000
1000
0000
0000
0010
0000
0000
0100
0000
0000
0000
0000
0000
0101
0000
0000
0000
0000
0000
0000
0000
0000
0000
0000
0000
,
0001
0000
0000
0000
0000
0000
1000
0000
0001
0000
0100
0000
0001
0000
0000
0000
0000
0000
0010
0000
0000
0000
0000
0000
0100
0000
0000
1000
0000
0000
0010
0000
0000
0000
0000
0000
1010
0000
0000
0000
0000
0000
0000
0000
0000
0000
0000
0000
,
1000
0000
0000
0000
0000
0000
0001
0000
1000
0000
0100
0000
1000
0000
0000
0000
0000
0000
0010
0000
0000
0000
0000
0000
0100
0000
0000
0001
0000
0000
0010
0000
0000
0000
0000
0000
0011
0000
0000
0000
0000
0000
0000
0000
0000
0000
0000
0000
,
0001
0100
0010
1000
0001
0000
1000
0100
0010
0001
1000
0000
0010
0000
0010
0100
,
0001
1000
0001
0010
0100
0000
1000
0001
0100
0010
0100
1000
0100
0000
0001
1000
,
0010
0000
0100
0001
1000
0000
0001
0010
0200
0000
1000
0001
0000
0000
0301
1000
,
0010
0000
0010
0000
0100
0000
0001
0000
0010
0100
1000
0010
0100
0001
1000
0001
,
0010
0000
0100
1000
0001
0000
1000
0010
0200
0000
0001
1000
0000
0000
1300
0001
,
0010
0000
0010
0000
0100
0000
1000
0000
0010
0100
0001
1000
0001
0010
0001
1000
,
0010
0000
1000
0001
0010
0000
0100
1000
0020
0000
1000
0001
0000
0000
0031
1000
,
0100
0000
0100
0000
0010
0000
0001
0000
1000
0001
0010
0100
1000
0001
0100
0001
,
1000
0100
0010
0001
1000
0000
0001
0100
0010
1000
0001
0000
0010
0100
1000
0001
,
1000
0010
0100
0001
1000
0000
0001
0010
0100
1000
0100
0001
0100
0010
0001
1000
,
0001
0100
0001
0010
0100
0000
1000
0100
1000
0010
0100
0000
0001
1000
0001
1000
,
0001
0100
1000
0100
0010
0000
1000
0100
0001
0100
0010
0000
0002
0000
0000
0000
,
0103
0001
0010
0001
0100
0000
0010
1000
0100
1000
0010
0000
0100
0001
1000
0001
,
0010
1000
0010
0001
0010
0000
0100
0001
0100
1000
0100
0000
0010
0000
0001
1000
,
0010
0000
0100
0000
0001
0000
0010
0000
0100
1000
0000
1000
0010
0000
0100
0000
,
0110
0000
0010
0000
1000
0000
0010
0000
0100
0001
0000
0001
0010
0000
0100
0000
,
1100
1000
0001
0010
0101
0001
1000
0010
,
1000
0100
0010
0001
0100
0010
1000
0100
0010
0001
0100
0010
1000
0100
0010
0001
,
0100
0000
0000
0000
;

//--------------- dance-double - forcednature ----------------
#NOTES:
     dance-double:
     forcednature:
     Easy:
     13:
     0,0,0,0,0:
00000000
00000000
00000000
00000000
,
00000000
00000000
00000000
00000000
,
00000000
00000000
00000000
00000000
,
00000000
00000000
00000000
00000000
,
00000000
00000000
00000000
00000000
,
00011000
00000000
00000100
00000000
00001000
00000010
00010000
00000000
,
00001000
00000000
01000000
00000000
00010000
00100000
00001000
00000000
,
00010000
00000000
00000100
00000000
00001000
00000010
00010000
00000000
,
00001000
00000000
01000000
00000000
00010000
00100000
00001000
00000000
,
00010000
00000000
00000010
00000000
00001000
00000100
00010000
00000000
,
00001000
00000000
00100000
00000000
00010000
01000000
00001000
00000000
,
00010000
00000000
00000010
00000000
00001000
00000100
00010000
00000000
,
00001000
00000000
00100000
00000000
00010000
01000000
00010000
01000000
,
00100000
00000000
00010000
00000000
00001000
00010000
00001000
00000000
,
00000010
00000000
00001000
00000000
00010000
00001000
00010000
00000000
,
00100000
00000000
00010000
00000000
00001000
00010000
00001000
00000000
,
00000010
00000000
00001000
00000000
00010000
00001000
00010000
00000000
,
01000000
00000000
00010000
00000000
00001000
00010000
00001000
00000000
,
00000100
00000000
00001000
00000000
00010000
00001000
00010000
00000000
,
01000000
00000000
00010000
00000000
00001000
00010000
00001000
00010000
,
00000000
00000000
00000000
00000010
00000000
00000010
00000000
00000000
,
00000110
00000000
00000000
00000000
00000001
00000000
00000000
00000000
00000100
00000000
00000000
00000001
00000000
00000000
00000010
00000000
,
00000100
00000000
00000000
00000000
00000100
00000000
00000000
00000000
00010000
00000000
00000000
00001000
00000000
00000000
01000000
00000000
,
00010000
00000000
00000000
00000000
00100000
00000000
00000000
00000000
01000000
00000000
00000000
10000000
00000000
00000000
00010000
00000000
,
01000000
00000000
00000000
00000000
01000000
00000000
00000000
00000000
00100000
00000000
00000000
10000000
00000000
00000000
00010000
00000000
,
00100000
00000000
00000000
00000000
00001000
00000000
00000000
00000000
00010000
00000000
00000000
00000010
00000000
00000000
00001000
00000000
,
00000100
00000000
00000000
00000000
00000100
00000000
00000000
00000000
00000010
00000000
00000000
00000001
00000000
00000000
00001000
00000000
,
00000010
00000000
00000000
00000000
00000100
00000000
00000000
00000000
00001000
00000000
00000000
00010000
00000000
00000000
00001000
00000000
,
01000000
00000000
01000000
00000000
00010000
10000000
00010000
10000000
,
00010000
00000000
00100000
00000000
00002000
00000000
00003000
00020000
,
00000000
00030000
00000010
00000000
00002000
00000000
00003000
00000200
,
00000000
00000300
00000010
00000000
00000002
00000000
00000003
00000200
,
00000000
00000300
00000010
00000000
00020000
00000000
00030000
00002000
,
00000000
00003000
00100000
00000000
00020000
00000000
00030000
02000000
,
00000000
03000000
00100000
00000000
20000000
00000000
30000000
02000000
,
00000000
03000000
00100000
00000000
00001000
00001000
00010000
00010000
,
00000000
00000000
00000000
00000000
,
00011000
00000000
00000100
00000000
00001000
00000001
00001000
00000000
,
00000010
00000000
00010000
00000000
00001000
01000000
00001000
00000000
,
00200000
00010000
01000000
10000000
,
01000000
00010000
01000000
10300000
,
01100000
00000000
00100000
00000000
00001000
00010000
00001000
00000000
,
01000000
00000000
00001000
00000000
00010000
00000100
00010000
00000000
,
00002000
00100000
00010000
01000000
,
00010000
00000000
00103000
00000000
00001000
00010000
00001000
00000000
,
00011000
00000000
00010000
00000100
00000000
00000100
00001000
00000000
,
00001000
00000001
00000000
00000001
00000100
00000000
00000010
00000000
,
00001000
00000000
00000100
00010000
00000000
00010000
00001000
00000000
,
00001000
01000000
00000000
01000000
00010000
00000000
10000000
00000000
,
10010000
00000000
10000000
01000000
00000000
01000000
00100000
00000000
,
01100000
00000000
01000000
00010000
00000000
00010000
00001000
00000000
,
00011000
00000100
00011000
01000000
,
00001000
00010000
00001000
00010000
00000100
00001000
00000010
00000000
,
00000110
00000000
00000000
00000000
,
00000002
00000023
00000230
00020300
,
00032000
00000000
00000000
00003000
,
02000000
00000000
00000000
03020000
00000000
00000000
00000000
00000000
,
20030000
00000000
00000000
30000000
,
02000000
00000000
00000000
03200000
00000000
00000000
00302000
00000000
,
00023000
00000000
00000000
00000000
00030000
00000200
00002300
00003002
,
00000023
00000000
00000000
00000030
00000000
00000200
00002300
00003002
,
00000023
00000000
00000000
00000030
00000000
00000200
00020300
00032000
,
02003000
03020000
20030000
32000000
,
03200000
00000000
00000000
00302000
00000000
00000000
00023000
00000000
,
00030020
00000000
00000000
00002030
00000000
00000000
00003200
00000000
,
00000320
00000000
00000000
00000000
00000000
00000000
00000030
00000002
,
00002003
00000000
00000000
00000000
00000000
00000000
00003020
00020030
,
00032000
00000000
00203000
00320000
00000000
20030000
30200000
00000000
,
02300000
00000000
00000000
00000000
03000000
00002000
00023000
00030200
,
00001300
00001000
00002000
00000000
00003010
00001000
00000100
00000010
,
00000002
00000000
00000000
00000003
,
00000100
00000000
00000010
00001000
00000010
00000000
00010000
00000000
00001000
00000000
00001000
00000000
00100000
00000000
00000000
00000000
,
01000000
00000000
00100000
00010000
00100000
00000000
00001000
00000000
00010000
00000000
00010000
00000000
00000010
00000000
00000000
00000000
,
00001000
00000000
00000010
00000100
00000010
00000000
00010000
00000000
00001000
00000000
00001000
00000000
00100000
00000000
00000000
00000000
,
00010000
00000000
00100000
01000000
00100000
00000000
00001000
00000000
00010000
00000000
00010000
00000000
00000010
00000000
00000000
00000000
,
00001000
00000000
00000100
00000010
00000100
00000000
00010000
00000000
00001000
00000000
00001000
00000000
01000000
00000000
00000000
00000000
,
00010000
00000000
01000000
00100000
01000000
00000000
00001000
00000000
00010000
00000000
00010000
00000000
00000100
00000000
00000000
00000000
,
00001000
00001000
00000010
00010000
00010000
00001000
00100000
00000000
,
00001000
00000000
00001000
00000000
00010000
00000000
00100000
00000000
01000000
00010000
01000000
00000000
00100000
00000000
00000000
00000000
,
10000000
01000000
00010000
00002000
00000000
00100000
00100000
00003000
,
00001000
00010000
00000010
00000000
00001000
00000100
00000010
00000000
,
00000001
00000100
00000010
00020000
00000000
00000100
00000100
00030000
,
00010000
00001000
01000000
00000000
00010000
00100000
01000000
00000000
,
10000000
00010000
01000000
00002000
00000000
00100000
00100000
00003000
,
00001000
00010000
00000010
00000000
00001000
00000100
00000010
00000000
,
00000001
00000001
00000100
00001000
00001000
00010000
00100000
00000000
,
10000000
10000000
01000000
00010000
00001000
00001000
00010000
00000000
,
00001000
00010000
00001000
00010000
00000100
00000000
00010000
00001000
00010000
00001000
01000000
00000000
00000000
00000000
00000000
00000000
,
00001000
00010000
00001000
00010000
00000010
00000000
00010000
00001000
00010000
00001000
00100000
00000000
00000000
00000000
00000000
00000000
,
00001000
01000000
00001000
01000000
00001000
00000000
00010000
00000010
00010000
00000010
00010000
00000000
00000000
00000000
00000000
00000000
,
00001000
00100000
00001000
00100000
00001000
00000000
00010000
00000100
00010000
00000100
00010000
00000000
00000000
00000000
00000000
00000000
,
00011000
00000000
00001000
00000000
01000000
00010000
00100000
00000000
,
00011000
00000000
00010000
00000000
00000100
00001000
00000010
00000000
,
00000100
00000001
00000100
00000001
00001000
00000100
00001000
00000100
,
00010000
00000000
00001000
00000000
01000000
00000000
00010000
00000000
10000000
01000000
10000000
01000000
00100000
00000000
00000000
00000000
,
10010000
00000000
00000000
00000000
;

//--------------- dance-double - forcednature ----------------
#NOTES:
     dance-double:
     forcednature:
     Medium:
     16:
     0,0,0,0,0:
00000000
00000000
00000000
00000000
,
00000000
00000000
00000000
00000000
,
00000000
00000000
00000000
00000000
,
00000000
00000000
00000000
00000000
,
00000000
00000000
00000000
00000000
,
00011000
00000000
01001000
00000000
01000000
00010000
00100000
00001000
,
00010000
00000000
00010100
00000000
00000100
00001000
00000010
00010000
,
00001000
00000000
01001000
00000000
01000000
00010000
00100000
00001000
,
00010000
00000000
00010100
00000000
00000100
00001000
00000010
00010000
,
00001000
00000000
00101000
00000000
00100000
01000000
00100000
00001000
,
00010000
00000000
00010010
00000000
00000010
00000100
00000010
00010000
,
00001000
00000000
00101000
00000000
00100000
01000000
00100000
00001000
,
00010000
00000000
00010010
00000000
00000010
00000010
00001000
00001000
,
00000100
00000000
00000100
00000000
00010000
00000000
00001000
00000000
00100000
00000000
00010000
10000000
00010000
00000000
00000000
00000000
,
01000000
00000000
01000000
00000000
00001000
00000000
00010000
00000000
00000010
00000000
00001000
00000001
00001000
00000000
00000000
00000000
,
00000100
00000000
00000100
00000000
00010000
00000000
00001000
00000000
00100000
00000000
00010000
10000000
00010000
00000000
00000000
00000000
,
01000000
00000000
01000000
00000000
00001000
00000000
00010000
00000000
00000010
00000000
00001000
00000001
00001000
00000000
00000000
00000000
,
00000010
00000000
00000010
00000000
00001000
00000000
00010000
00000000
01000000
00000000
00010000
10000000
00010000
00000000
00000000
00000000
,
00100000
00000000
00100000
00000000
00010000
00000000
00001000
00000000
00000100
00000000
00001000
00000001
00001000
00000000
00000000
00000000
,
00000010
00000000
00000010
00000000
00001000
00000000
00010000
00000000
01000000
00000000
00010000
10000000
00010000
00000000
10000000
00010000
,
00000000
00000000
00000000
00100000
00000000
00100000
00000000
00000000
,
00001000
00000000
00010000
00000000
00000100
00000000
00000000
00000000
00001000
00000000
00000000
00000001
00000000
00000000
00000100
00000000
,
00000020
00000000
00000000
00000000
00020030
00000000
00000000
00000000
00130000
00000000
00000000
01000000
00000000
00000000
00010000
00000000
,
10000000
00000000
01000000
00000000
00100000
00000000
00000000
00000000
00010000
00000000
00000000
01000000
00000000
00000000
00010000
00000000
,
00200000
00000000
00000000
00000000
00302000
00000000
00000000
00000000
00003010
00000000
00000000
00000100
00000000
00000000
00001000
00000000
,
00000001
00000000
00000100
00000000
00000010
00000000
00000000
00000000
00010000
00000000
00000000
00000100
00000000
00000000
00001000
00000000
,
00000020
00000000
00000000
00000000
00020030
00000000
00000000
00000000
00130000
00000000
00000000
01000000
00000000
00000000
00010000
00000000
,
10000000
00000000
00010000
00000000
00100000
00000000
00000000
00000000
01000000
00000000
00000000
10000000
00000000
00000000
01000000
00000000
,
00200000
00000000
00302000
00000000
00003010
00000010
00000100
00001000
,
00001001
00000000
00000001
00000100
00001000
00010000
01000000
10000000
,
00100000
00000000
10000000
01000000
00010000
00001000
00000100
00000001
,
00000010
00000000
00000001
00000100
00001000
00010000
01000000
10000000
,
00100000
00000000
10000000
01000000
00010000
00001000
00000100
00000001
,
00000010
00000000
00000100
00010000
00001000
00010000
00100000
10000000
,
00010000
00000000
01000000
00001000
00010000
00001000
00000010
00000001
,
00001000
00000000
00000000
00000000
00000100
00000000
00000000
00000000
00010000
00001000
00010000
00001000
00010000
00000000
00010000
00000000
,
00100000
00000000
00000000
01000000
00000000
00000000
00010000
00000000
10000000
00000000
10000000
00000000
01000000
00000000
00000000
00000000
,
00100000
00001000
00010000
00000000
00100000
10000000
00010000
00000000
,
10000000
01000000
00100000
00000000
00010000
01000000
00001000
00000000
,
00020000
00000100
00001000
00100000
,
00001000
00000100
00001000
00100000
,
00031000
00010000
00000100
00000000
00001000
00000001
00000100
00000000
,
00000010
00010000
00001000
00000000
00100000
00010000
01000000
00000000
,
00002000
01000000
00010000
00000010
,
00010000
00000000
00000000
00000000
01000000
00000000
00000000
00000000
00013000
00001000
00010000
00001000
00010000
00000000
00000000
00000000
,
00011000
00000000
00010000
00010000
00000000
00100000
00100000
00000000
,
10000000
10000000
00000000
01000000
00100000
00010000
01000000
00000000
,
00011000
00000000
00001000
00001000
00000000
00000010
00000010
00000000
,
00000001
00000001
00000000
00000100
00000010
00001000
00000100
00000000
,
00011000
00000000
01000000
00010000
00100000
01000000
00010000
00000000
,
00011000
00000000
00000100
00001000
00000010
00000100
00001000
00000000
,
01002000
00103000
00020100
00030010
,
00010000
00000000
00001000
00000000
01000000
00000000
00010000
00000000
10000000
01000000
10000000
01000000
00100000
00000000
00010000
10000000
,
00010000
00000000
00000000
00000000
,
02000000
03002000
00023000
00030200
,
00002300
00000000
00000000
00003000
,
00000020
00000000
00000230
00000302
00000000
00000000
00000000
00000000
,
00000023
00000000
00000000
00000030
,
00000200
00000000
00020300
00032000
00000000
02003000
03020000
00000000
,
20030000
00000000
00000000
00000000
30000000
02000000
03200000
00302000
,
00023000
00000000
00000000
00030000
00000000
02000000
03200000
00302000
,
00023000
00000000
00000000
00000000
00000000
00000000
00000000
00000000
00000000
00030000
00000000
00000000
00000000
00000000
00000000
00000020
00000000
00000000
00002030
00000000
00003002
00000000
00000023
00000000
,
00000032
00000203
00002300
00023000
,
00230000
00000000
20300000
30020000
00000000
20030000
32000000
00000000
,
03020000
00000000
00032000
00003020
00000000
00000230
00002300
00000000
,
00003002
00000000
00000000
00000000
00000000
00000000
00000000
00000000
00000000
00000000
00000000
00000000
00000003
00000000
00000100
00000010
,
00002000
00000000
00000000
00000000
00000000
00000000
00003200
00020300
,
00032000
00000000
02003000
03020000
00000000
00230000
00320000
00000000
,
20030000
00000000
00000000
00000000
30000000
02000000
03020000
00032000
,
00013000
00000100
00010000
00000100
00020000
00000000
00000000
00000000
00031000
01000000
00001000
01000000
00010000
10000000
00010000
10000000
,
02000000
00000000
00000000
03000000
,
00100000
00000000
00001000
00010000
00000100
00000000
00001000
00000000
00000010
00001000
00000001
00000000
00000101
00000000
00000000
00000000
,
00000010
00000000
00010000
00001000
01000000
00000000
00010000
00000000
00100000
00010000
10000000
00000000
11000000
00000000
00000000
00000000
,
00100000
00000000
00010000
01000000
00001000
00000000
00010000
00000000
00000100
00001000
00000010
00000000
00000101
00000000
00000000
00000000
,
00000010
00000000
00001000
00000100
00010000
00000000
00001000
00000000
01000000
00010000
00100000
00000000
11000000
00000000
00000000
00000000
,
10000000
00000000
01000000
00100000
00010000
00000000
00001000
00000000
00000100
00000010
00000001
00000000
00001001
00000000
00000000
00000000
,
00000001
00000000
00000100
00000010
00001000
00000000
00010000
00000000
01000000
00100000
10000000
00000000
10010000
00000000
00000000
00000000
,
10000000
01000000
00000000
01000000
00100000
00000000
00100000
00001000
00000000
00001000
00010000
00000000
00000010
00000000
00001000
00000000
,
00000001
00000010
00000000
00000010
00000100
00000000
00000100
00001000
00000100
00010000
00001000
00100000
00010000
00000000
10000000
00000000
,
00100000
00000000
01000000
00010000
01000000
00000000
00002000
00000000
00000000
00000000
00010000
00000000
00000100
00000000
00003000
00000000
,
00001000
00010000
00000100
00001000
00000010
00010000
00001000
00000010
,
00000001
00000000
00001000
00000010
00001000
00000000
00000200
00000000
00000000
00000000
00000001
00000000
00001000
00000000
00000300
00000000
,
00000100
00010000
00001000
01000000
00010000
00100000
01000000
00010000
,
00001000
00000000
01000000
00010000
01000000
00000000
00200000
00000000
00000000
00000000
00010000
00000000
10000000
00000000
00300000
00000000
,
00100000
10000000
01000000
00100000
00001000
00010000
00000010
00001000
,
00000001
00000100
00000000
00000100
00000010
00000000
00000010
00010000
00000000
00010000
00001000
00000000
00100000
00000000
00010000
00000000
,
10000000
00100000
00000000
00100000
01000000
00000000
01000000
00010000
01000000
00001000
00010000
00000010
00001000
00000000
00000001
00000000
,
00001000
00000100
00010000
00001000
00100000
00000000
00010000
01000000
00001000
00010000
00000010
00000000
00000100
00000001
00000100
00000001
,
00001000
00000010
00010000
00001000
01000000
00000000
00010000
00100000
00001000
00010000
00000100
00000000
00002000
00000000
00000000
00000000
,
00003010
00010000
00000100
00010000
00001000
00000000
00100000
00001000
01000000
00001000
00010000
00000000
00000010
00001000
00000010
00001000
,
00000100
00010000
00000010
00010000
00001000
00000000
01000000
00001000
00100000
00001000
00010000
00000000
00100000
00000000
10000000
00010000
,
10000000
00000000
01000000
00000000
00100000
00000000
00010000
00000000
01000000
00001000
00000000
00001000
00010000
00000000
00000100
00000000
,
00001000
00000000
00000010
00000000
00000100
00000000
00000001
00000000
00000010
00000100
00000000
00000100
00001000
00000000
00000010
00000000
,
00010000
00001000
00010000
00100000
00010000
00001000
00000010
00001000
,
00010000
00000100
00010000
00000000
00001000
01000000
00001000
00000000
00100000
00010000
00100000
00010000
10000000
00100000
10000000
00100000
,
01000000
00000000
00000000
00000000
;

//--------------- dance-double - forcednature ----------------
#NOTES:
     dance-double:
     forcednature:
     Hard:
     18:
     0,0,0,0,0:
00000000
00000000
00000000
00000000
,
00000000
00000000
00000000
00000000
,
00000000
00000000
00000000
00000000
,
00000000
00000000
00000000
00000000
,
00000000
00000000
00000000
00000000
,
00011000
00000000
00000000
00000000
01000000
00000000
00010000
00000000
00000000
00000000
00010000
00000000
00100000
00000000
00000000
00001000
,
00010000
00000000
00000000
00000000
00000100
00000000
00001000
00000000
00000000
00000000
00001000
00000000
00000010
00000000
00000000
00010000
,
00001000
00000000
00000000
00000000
01000000
00000000
00010000
00000000
00000000
00000000
00010000
00000000
00100000
00000000
00000000
00001000
,
00010000
00000000
00000000
00000000
00000100
00000000
00001000
00000000
00000000
00000000
00001000
00000000
00000010
00000000
00000000
00010000
,
00001000
00000000
00000000
00000000
00100000
00000000
01000000
00000000
00000000
00000000
01000000
00000000
00100000
00000000
00000000
00001000
,
00010000
00000000
00000000
00000000
00000010
00000000
00000100
00000000
00000000
00000000
00000100
00000000
00000010
00000000
00000000
00010000
,
00001000
00000000
00000000
00000000
00100000
00000000
01000000
00000000
00000000
00000000
01000000
00000000
00100000
00000000
00000000
00001000
,
00010000
00000000
00000000
00000000
00000010
00000000
00000000
00000100
00000001
00001000
00000001
00001000
00000001
00001000
00000001
00001000
,
00000100
00000000
00000100
00000000
00010000
00000000
00001000
00000000
01000000
00000000
00010000
00100000
01000000
00000000
00000000
00000000
,
10000000
00000000
10000000
00000000
00100000
00000000
00010000
00000000
00001000
00000000
00010000
00000100
00001000
00000000
00000000
00000000
,
00000010
00000000
00000010
00000000
00001000
00000000
00000100
00000000
00000010
00000000
00000001
00001000
00000010
00000000
00000000
00000000
,
00010000
00000000
00010000
00000000
00001000
00000000
00100000
00000000
00010000
00000000
01000000
00010000
10000000
00000000
00000000
00000000
,
01000000
00000000
00010000
00000000
00001000
00000000
00010000
00000000
00000100
00000000
00001000
00000010
00000100
00000000
00000000
00000000
,
00000001
00000000
00000010
00000000
00000100
00000000
00001000
00000000
00000010
00000000
00010000
00001000
00100000
00000000
00000000
00000000
,
00010000
00000000
01000000
00000000
00100000
00000000
10000000
00000000
00010000
00100000
00010000
00100000
00010000
00100000
00010000
00100000
,
00002000
00000000
00000000
00010000
00000000
00000100
00003000
00000000
,
00001000
00000000
00010000
00000000
00000100
00000000
00001000
00000000
00000001
00000100
00000000
00000010
00001000
00000000
00000100
00000000
,
00010000
00001000
00000000
00000000
00010000
00100000
00000000
00000000
00010000
00001000
00000000
01000000
00010000
00000000
10000000
00000000
,
01000000
00000000
00100000
00000000
00001000
00000000
00100000
00000000
00010000
01000000
00000000
00001000
00010000
00000000
00000100
00000000
,
00001000
00000010
00000000
00000000
00000001
00000010
00000000
00000000
00000100
00000001
00000000
00001000
00000100
00000000
00010000
00000000
,
00001000
00000000
01000000
00000000
00010000
00000000
10000000
00000000
01000000
00010000
00000000
00001000
00100000
00000000
00010000
00000000
,
00001000
00000100
00000000
00000000
00000001
00000100
00000000
00000000
00010000
00001000
00000000
01000000
00010000
00000000
00100000
00000000
,
01000000
00000000
10000000
00000000
00100000
00000000
01000000
00000000
00001000
00010000
00000000
00000100
00001000
00000000
00000010
00000000
,
00000001
00000010
00000000
00000000
00001000
00000010
00000000
00000000
00010000
00000000
00010000
00000000
00001000
00000000
00100000
00010000
,
10000000
00000000
00000000
00000000
01000000
00000000
00010000
00000000
00001000
00000010
00001000
00000000
00010000
00000000
00001000
00000010
,
00001000
00000000
00000000
00000000
00010000
00000000
00100000
00000000
01000000
00010000
01000000
00000000
00100000
00000000
01000000
00010000
,
01000000
00000000
00000000
00000000
00100000
00000000
01000000
00000000
00001000
00010000
00001000
00000000
01000000
00000000
00001000
00010000
,
00001000
00000000
00000000
00000000
00000010
00000000
00000100
00000000
00010000
00000010
00010000
00000000
00000100
00000000
00010000
00000010
,
00010000
00000000
00000100
00000000
00001000
00000000
00000010
00000000
00000100
00000001
00001000
00000000
00000010
00000000
00001000
00000001
,
00000100
00000000
00001000
00000000
00010000
00000000
00100000
00000000
01000000
00010000
10000000
00000000
00100000
00000000
10000000
00010000
,
01000000
00000000
01000000
00000000
00001000
00000000
00010000
00000000
00000100
00001000
00000100
00001000
00000001
00000000
00000001
00000000
,
00001000
00000000
00000000
00000010
00000000
00000000
00010000
00000000
00100000
00000000
00100000
00000000
01000000
00000000
00000000
00000000
,
10010000
00000000
00000000
00000000
10000000
00000000
01000000
00000000
00000000
00010000
00001000
00010000
00001000
00000000
00000010
00000000
,
00000100
00000000
00000001
00000000
00000100
00000000
00001000
00000000
00000000
00000010
00010000
00000010
00010000
00000000
00001000
00000000
,
01000000
00000000
00100000
00000000
00010000
00000000
00100000
00000000
00000000
01000000
00010000
01000000
00010000
00000000
10000000
00000000
,
01000000
00000000
00010000
00000000
00001000
00000000
00010000
00000000
00000000
00000010
00001000
00000010
00001000
00000000
00000100
00000000
,
00000110
00000000
00000000
00000000
00000001
00000000
00001000
00000000
00000000
00000100
00010000
00000100
00010000
00000000
00001000
00000000
,
01000000
00000000
00100000
00000000
00010000
00000000
00100000
00000000
00000000
10000000
01000000
10000000
01000000
00000000
00010000
00000000
,
00001000
00000000
00000010
00000000
00001000
00000000
00010000
00000000
00000000
00000010
00001000
00000010
00001000
00000000
00000100
00000000
,
00000010
00000000
00000001
00000000
00000100
00000000
00000001
00000000
00000010
00000100
00001000
00000100
00000010
00000000
00000000
00000000
,
00001001
00000000
00000000
00000000
00001000
00000100
00020000
00000000
00000000
00000000
00031000
01000000
00020000
00000000
00000000
00000000
,
00130000
00010000
02000000
00000000
00000000
00000000
03100000
10000000
00010000
10000000
01000000
00000000
00010000
00000000
00000000
00000000
,
00001000
00000000
00000000
00000000
00000010
00000100
00002000
00000000
00000000
00000000
00003010
00000100
00000002
00000000
00000000
00000000
,
00001003
00000100
00020000
00000000
00000000
00000000
00031000
01000000
00010000
01000000
00100000
00000000
10000000
00000000
00000000
00000000
,
10010000
00000000
00000000
00000000
10000000
00000000
01000000
00000000
00100000
00010000
00100000
00001000
00010000
00000000
00000000
00000000
,
00001001
00000000
00000000
00000000
00000001
00000000
00000100
00000000
00000010
00001000
00000010
00010000
00001000
00000000
00000000
00000000
,
10020000
00031000
00002001
00013000
,
00011000
00000000
00000000
00000000
00011000
00000000
00000000
00000000
01000000
00010000
01000000
00010000
00100000
00000000
01000000
10000000
,
00010000
00000000
00000000
00000000
,
02000000
03002000
00003020
00000032
,
00000203
00000000
00000000
00000300
,
00002000
00000000
02003000
03020000
00000000
00000000
00000000
00000000
,
00230000
00000000
00000000
00300000
,
02000000
00000000
23000000
30020000
00000000
02030000
03002000
00000000
,
00023000
00000000
00000000
00000000
00030000
00000200
00002300
00003020
,
00020030
00000000
00000000
00030000
00000000
00000200
00002300
00003020
,
00020030
00000000
00000000
00000000
00000000
00000000
00000000
00000000
00000000
00030000
00000000
00000000
00000000
00000000
00000000
00002000
00000000
00000000
02003000
00000000
03020000
00000000
02030000
00000000
,
03200000
20300000
32000000
03020000
,
00032000
00000000
00003020
00000230
00000000
00002300
00003002
00000000
,
00000203
00000000
00002300
00023000
00000000
00230000
20300000
00000000
,
32000000
00000000
00000000
00000000
00000000
00000000
00010000
00000000
00000000
00000000
00000000
00000000
13000000
00000000
01000000
00100000
,
00020000
00000000
00000000
01000000
00000000
00000000
20030000
30200000
,
02300000
00000000
03002000
00023000
00000000
00030200
00002300
00000000
,
00003020
00000000
00000000
00000001
00000030
00002000
00003002
00000023
,
00000130
00001000
00000100
00010000
00002000
00000000
00000000
00000000
01003000
00001000
01000000
00010000
10000000
00010000
00100000
01000000
,
20000000
00000000
00000000
30000000
,
00010000
00000000
00000000
01000000
00010000
01000000
00010000
00000000
00000000
00100000
00000000
00000000
00001000
00000000
00000000
00010000
00000000
00000000
00010100
00000000
00000000
00000000
00000000
00000000
,
00001000
00000000
00000000
00000100
00001000
00000100
00001000
00000000
00000000
00000010
00000000
00000000
00010000
00000000
00000000
00001000
00000000
00000000
00101000
00000000
00000000
00000000
00000000
00000000
,
00010000
00000000
00000000
00100000
00010000
00100000
00010000
00000000
00000000
01000000
00000000
00000000
00001000
00000000
00000000
00010000
00000000
00000000
00010010
00000000
00000000
00000000
00000000
00000000
,
00001000
00000000
00000000
00000010
00001000
00000010
00001000
00000000
00000000
00000100
00000000
00000000
00010000
00000000
00000000
00001000
00000000
00000000
01001000
00000000
00000000
00000000
00000000
00000000
,
00010000
00000000
00000000
10000000
01000000
10000000
01000000
00000000
00000000
00010000
00000000
00000000
00001000
00000000
00000000
00000010
00000000
00000000
00000110
00000000
00000000
00000000
00000000
00000000
,
00001000
00000000
00000000
00000001
00000100
00000001
00000100
00000000
00000000
00001000
00000000
00000000
00010000
00000000
00000000
00100000
00000000
00000000
01100000
00000000
00000000
00000000
00000000
00000000
,
00010000
01000000
00000000
00100000
10000000
00000000
00010000
00100000
00000000
01000000
10000000
00000000
00010000
00000000
01000000
00000000
,
00001000
00010000
00000000
00000100
00001000
00000000
00000001
00000100
00000010
00001000
00000001
00001000
00000100
00000000
00000010
00000001
,
00000010
00000000
00000100
00001000
00000100
00000000
00020000
00000000
00000010
00000000
00001000
00000000
01030000
00000000
00000000
00000000
,
00010000
00000000
00001000
00000000
01000000
00000000
00010000
00000000
00100000
01000000
10000000
01000000
00100000
00000000
00010000
10000000
,
00100000
00000000
01000000
00010000
01000000
00000000
00002000
00000000
00100000
00000000
00010000
00000000
00003100
00000000
00000000
00000000
,
00001000
00000000
00010000
00000000
00000100
00000000
00001000
00000000
00000010
00000100
00000001
00000100
00000010
00000000
00001000
00000001
,
00000010
00000000
00000001
00000100
00001000
00000000
00020000
00000000
00100000
00000000
00001000
00000000
00030010
00000000
00000000
00000000
,
00010000
00001000
00010000
00000000
00100000
00000000
10000000
00000000
00010000
10000000
01000000
00100000
00010000
00000000
01000000
00001000
,
00010000
00001000
00000000
00010000
00000100
00000000
00001000
00000100
00000000
00000010
00000001
00000000
00000100
00000000
00000010
00001000
,
00000010
00010000
00000000
00001000
00010000
00000000
00001000
00100000
00010000
10000000
00010000
01000000
00001000
00000000
00010000
00000000
,
00000100
00010000
00001000
00010000
00100000
00000000
01000000
00001000
00010000
00001000
00000010
00000000
00000100
00001000
00000100
00010000
,
00000010
00010000
00001000
00010000
01000000
00000000
00100000
00001000
00010000
00001000
00000100
00000000
00000020
00000000
00000000
00000000
,
00000130
00001000
00010000
00001000
01000000
00000000
00100000
00010000
00001000
00010000
00000010
00000000
00001000
00000001
00001000
00000100
,
00000010
00001000
00010000
00001000
00100000
00000000
01000000
00010000
00001000
00010000
00000100
00000000
00001000
00000000
00000001
00000100
,
00001000
00000000
00000100
00000000
00000010
00000000
00000100
00000000
00000001
00000010
00000000
00000100
00010000
00000000
00001000
00000000
,
00011000
00000000
00010000
00000000
00100000
00000000
00010000
00000000
00001000
01000000
00000000
00010000
10000000
00000000
01000000
00000000
,
00010000
00001000
00000010
00000100
00010000
00001000
00000100
00000010
,
00000100
00000001
00000100
00000010
00001000
00000010
00010000
00001000
00100000
00010000
00100000
01000000
10000000
01000000
00010000
00001000
,
00010000
00000000
00000000
00000000
;
