#TITLE:Bereavement;
#SUBTITLE:;
#ARTIST:Graupel;
#TITLETRANSLIT:;
#SUBTITLETRANSLIT:;
#ARTISTTRANSLIT:;
#GENRE:;
#CREDIT:;
#BANNER:;
#BACKGROUND:;
#LYRICSPATH:;
#CDTITLE:;
#MUSIC:Bereavement.ogg;
#OFFSET:1.885000;
#SAMPLESTART:-0.029000;
#SAMPLELENGTH:12.000000;
#LASTBEATHINT:3.464800;
#SELECTABLE:YES;
#BPMS:0.000000=244.000000
,36.000000=236.000000
,40.000000=225.000000
,234.000000=158.000000
,272.000000=159.500000
,276.000000=170.000000
;
#STOPS:
;
#BGCHANGES:;
#KEYSOUNDS:;
#ATTACKS:;

//---------------dance-single - ----------------
#NOTES:
     dance-single:
     :
     Medium:
     13:
     0.591558,0.755911,0.820369,0.234391,0.004883,424.000000,340.000000,84.000000,24.000000,0.000000,0.000000,0.591558,0.755911,0.820369,0.234391,0.004883,424.000000,340.000000,84.000000,24.000000,0.000000,0.000000:
// measure 0
0000
0000
0000
0000
,  // measure 1
0000
0000
0000
0000
,  // measure 2
0000
0000
0000
0000
,  // measure 3
0000
0000
0000
0000
,  // measure 4
0000
0000
0000
0000
,  // measure 5
0000
0000
0000
0000
,  // measure 6
0110
0000
0000
0000
,  // measure 7
0000
0000
0000
0000
,  // measure 8
2002
0000
0000
3003
,  // measure 9
1001
0000
0000
0000
1001
0000
0000
1000
,  // measure 10
0100
0010
0000
0001
0000
1000
0000
0101
,  // measure 11
0000
1100
0000
0101
0000
0000
0000
0001
,  // measure 12
0010
0100
0000
1000
0000
0001
0000
1010
,  // measure 13
0000
0011
0000
1010
0000
0000
0000
0000
,  // measure 14
0001
0000
1000
0000
0100
0000
0010
0100
,  // measure 15
0010
0000
0001
0000
0100
0000
0001
1000
,  // measure 16
0001
0010
0100
1000
,  // measure 17
0001
0100
0001
0100
0010
1000
0010
1000
,  // measure 18
0001
0010
0000
0100
0000
1000
0000
1100
,  // measure 19
0000
0110
0000
0011
0000
0000
0000
1000
,  // measure 20
0001
0100
0000
0010
0000
1000
0000
1010
,  // measure 21
0000
0110
0000
0101
0000
0000
0000
0000
,  // measure 22
1000
0000
0001
0000
0010
0000
0001
0100
,  // measure 23
0010
0000
1000
0000
0001
0000
0010
0100
,  // measure 24
1000
0001
1000
0100
,  // measure 25
0010
0100
0010
0100
1000
0001
0000
2002
,  // measure 26
0000
3003
1001
0000
1100
0000
0101
0000
,  // measure 27
1100
0000
0101
0000
1000
0100
0010
0002
,  // measure 28
0000
1003
0101
1100
,  // measure 29
0101
0000
1100
0000
0001
0100
0010
2000
,  // measure 30
0000
3100
1010
1100
,  // measure 31
1010
0000
1100
0000
0001
1000
0100
0020
,  // measure 32
0000
0000
0031
0000
0100
0010
0000
2002
,  // measure 33
0000
3003
0110
0000
1001
0000
0000
0000
,  // measure 34
0001
1000
0010
0000
1000
0001
0010
0000
,  // measure 35
0001
1000
0010
0000
1000
0001
0010
0000
,  // measure 36
0001
0100
0010
0000
1000
0100
0010
0001
,  // measure 37
0000
0110
0000
1001
0000
0000
0001
0000
,  // measure 38
0100
0001
1000
0000
0100
1000
0001
0000
,  // measure 39
0100
0001
1000
0000
0100
1000
0001
0000
,  // measure 40
0100
0010
1000
0000
0100
0010
0001
1000
,  // measure 41
0000
1010
0000
0101
0000
0000
1000
0000
,  // measure 42
0011
1000
1010
0001
,  // measure 43
0101
1000
1100
0001
,  // measure 44
1002
0100
0100
0103
,  // measure 45
2001
0100
0100
3100
,  // measure 46
1001
1000
1100
0010
,  // measure 47
1001
0001
0101
0010
,  // measure 48
1100
0101
1100
0101
,  // measure 49
1010
0011
1010
0011
,  // measure 50
1010
1100
0101
0011
,  // measure 51
1001
0010
0201
1000
,  // measure 52
0301
0010
1200
0001
,  // measure 53
1300
0010
0201
1000
,  // measure 54
0301
0000
0010
0000
0100
0100
0100
0000
,  // measure 55
1001
0100
1020
0001
,  // measure 56
1030
0100
0021
1000
,  // measure 57
0031
1000
0001
1000
0001
1000
0001
1000
,  // measure 58
0001
0100
0010
1000
0100
0010
0000
0000
,  // measure 59
2002
0000
0000
0000
,  // measure 60
0000
0000
3003
0000
,  // measure 61
0220
0000
0000
0330
,  // measure 62
0001
1000
0100
0010
0001
0000
0110
0000
,  // measure 63
2002
0000
0000
0000
,  // measure 64
3003
0000
0000
0000
0000
0000
0001
1000
0010
0000
0000
0000
0000
0000
0000
0000
,  // measure 65
0220
0000
0000
0000
,  // measure 66
0330
0000
0000
0000
,  // measure 67
0000
0000
0000
0000
,  // measure 68
0000
0000
0000
0000
,  // measure 69
0001
0000
0001
0000
1100
0000
0001
1000
,  // measure 70
0100
0010
0101
1000
,  // measure 71
1000
0000
0001
0000
0011
0000
1000
0001
,  // measure 72
0010
0100
1010
0001
,  // measure 73
1000
0000
1000
0000
0110
0000
1000
0100
,  // measure 74
0010
0100
0010
0000
0110
0000
1000
0000
,  // measure 75
0001
0000
0001
0000
0110
0000
0001
0100
,  // measure 76
0010
0100
0010
0100
0001
1000
0001
1000
,  // measure 77
0001
0000
0001
0000
0110
0000
0001
1000
,  // measure 78
0001
0000
0001
0000
0110
0000
1000
0001
,  // measure 79
1000
0001
1000
0000
0110
0000
1000
0001
,  // measure 80
1000
0100
0010
0001
1000
0100
0010
0001
,  // measure 81
1000
0000
0010
0000
1010
0000
0001
1000
,  // measure 82
0100
0010
0001
0000
1001
0000
0001
0100
,  // measure 83
0010
1000
0101
0001
,  // measure 84
1000
0100
1000
0100
0010
0001
0010
0001
,  // measure 85
1000
0010
1000
0010
0100
0001
0100
0001
,  // measure 86
1000
0000
0000
0000
;

//---------------dance-single - ----------------
#NOTES:
     dance-single:
     :
     Hard:
     16:
     0.798046,1.217857,0.566445,0.478548,0.449249,572.000000,514.000000,58.000000,49.000000,158.000000,0.000000,0.798046,1.217857,0.566445,0.478548,0.449249,572.000000,514.000000,58.000000,49.000000,158.000000,0.000000:
0000
0000
0000
0000
,
0000
0000
0000
0000
,
M00M
M00M
M00M
M00M
M00M
M00M
M00M
M00M
M00M
M00M
M00M
M00M
M00M
M00M
M00M
M00M
,
M00M
M00M
M00M
M00M
M00M
M00M
M00M
M00M
M00M
M00M
M00M
M00M
M00M
M00M
M00M
M00M
,
M00M
M00M
M00M
M00M
M00M
M00M
M00M
M00M
M00M
M00M
M00M
M00M
M00M
M00M
M00M
M00M
,
M00M
M00M
M00M
M00M
M00M
M00M
M00M
M00M
M00M
M00M
M00M
M00M
M00M
0000
0000
0000
,
0011
0000
1100
0000
0101
0000
0000
1100
,
0000
0101
1010
0011
,
1000
0001
1000
0010
0100
0001
0010
0100
,
0110
0000
0000
0000
1001
0000
0000
0001
,
1000
0200
0000
0001
0000
1300
0000
0201
,
0000
1000
0000
0301
0000
1000
0000
1000
,
0001
0200
0000
1000
0000
0301
0000
1200
,
0000
0001
0000
1300
0000
0001
0000
0001
,
1000
0010
0000
0101
0000
1100
0000
1000
,
0001
0010
0000
1100
0000
1000
0001
0001
,
0100
0010
0000
1100
0000
0101
0000
1000
,
0100
0100
0010
0010
0001
0100
0010
1000
,
0001
0020
0000
1000
0000
0031
0000
1020
,
0000
0001
0000
1030
0000
0010
0100
0001
,
1000
0020
0000
0001
0000
1030
0000
0021
,
0000
1000
0000
0031
0000
0100
0010
0100
,
0001
0010
0000
1100
0000
0101
0000
0001
,
1000
0010
0000
0100
0001
0100
0010
0010
,
1000
0001
0000
1001
0000
0110
0000
1000
,
0100
0100
0010
0010
0001
1000
0010
0201
,
0000
0000
1300
0000
0001
0010
0001
0010
,
1000
0100
1000
0100
0001
0100
1000
1020
,
0000
0000
0031
0000
1000
0100
1000
0100
,
0001
0000
0010
0000
0001
0000
0010
0100
1000
0000
0001
0000
0000
0000
1001
0000
,
0000
0110
0000
0001
1000
0100
1000
0100
,
0001
0100
0001
0100
0010
0001
0100
1200
,
0000
0000
0001
0000
0310
1000
0100
0201
,
0000
1000
0000
0310
0000
0000
0110
0000
,
1001
0000
0001
0100
0001
1000
0001
0100
,
0010
1000
0001
1000
0010
1000
0001
1000
,
0100
0010
0100
1000
0100
0010
0100
2000
,
0000
3002
0000
0203
0000
0300
0010
0000
,
1000
0010
1000
0010
0100
0001
1000
0100
,
0010
0100
0010
0001
1000
0001
0100
0010
,
0100
0001
0010
0100
0010
0001
1000
0020
,
0000
2030
0000
3002
0000
0003
0110
0000
,
2000
3001
0010
0010
2000
3001
0100
0100
,
2000
3001
0010
0010
2000
3001
0100
0100
,
1000
0001
0100
0110
,
1001
0001
1000
0110
,
0002
1003
0100
0100
0002
1003
0010
0010
,
0002
1003
0100
0100
0002
1003
0010
0010
,
0001
0101
1100
1010
,
0011
1010
0101
1100
,
0001
1000
0100
0010
0001
1000
0010
0100
,
0001
1000
0100
1000
0001
1000
0100
1000
,
0001
1000
0010
1000
0001
1000
0010
1000
,
0001
0100
0010
0100
0001
0100
0010
0100
,
0001
0000
1000
0000
0100
0000
0010
0000
0001
0000
0100
0000
0010
0000
1000
0001
,
1000
0001
0100
0001
1000
0001
0100
0001
,
1000
0001
0010
0001
1000
0001
0010
0001
,
0100
0100
0010
0010
1000
1000
0001
0001
,
1000
0000
0100
0000
0010
0000
0001
0000
0100
0000
0020
0030
0000
00M0
0000
0000
,
1002
1000
1000
1000
,
1000
0000
1000
0000
1003
0010
0100
0001
,
2001
0001
0001
3001
,
1000
0100
1000
0100
1000
0100
1000
0100
0010
0000
0000
0000
0110
0000
0000
0000
,
1002
1000
1000
1000
,
1000
0000
0000
0000
1003
0000
1000
0010
0001
0000
0000
0000
0000
0000
0010
0100
,
0002
0000
0000
0000
1000
0000
0000
0000
1000
0000
0000
0000
1003
0000
1000
0001
,
0100
0000
0000
M000
M000
0000
00M0
00M0
0M00
0M00
0000
000M
000M
0000
M000
M000
,
00M0
00M0
00M0
00M0
00M0
00M0
00M0
00M0
00M0
00M0
00M0
00M0
00M0
0000
0000
0000
,
M000
M000
0000
0M00
0M00
0000
00M0
00M0
000M
000M
0000
0000
0MM0
0MM0
0000
0000
,
1001
0000
0000
0000
1000
0000
0001
0100
0010
0000
0100
0000
1000
0000
0100
0000
,
0001
0000
0110
0000
1001
0000
0001
1000
,
0001
0000
0100
0000
0010
0000
1000
0100
0010
0000
0100
0000
0001
0000
0100
0000
,
1000
0000
0110
0000
1001
0000
1000
0001
,
1000
0000
0010
0000
0100
0000
0001
0010
0100
0000
0010
0000
1000
0000
0010
0000
,
0001
0000
0110
0000
1001
0000
0001
1000
,
0001
0000
0010
0000
0100
0000
1000
0010
0100
0000
0010
0000
0001
0000
0010
0000
,
2000
3200
0320
2030
3002
0203
0320
0032
,
1003
0000
0000
0010
0000
0000
0100
0000
0101
0000
1000
0000
0001
0100
0010
1000
,
0100
0000
0000
1000
0000
0001
0000
0000
1100
0000
0001
0000
0000
0010
0100
1000
,
0001
0000
0002
0000
0003
1000
0001
0000
0101
0000
1000
0000
0010
0100
0010
0000
,
0002
2003
3200
0320
2030
3002
0023
0230
,
1300
0000
0000
0000
0000
0001
0000
0000
0000
0000
0010
0000
0000
0000
0000
0000
1100
0000
0000
0000
0001
0000
0000
0000
0010
0000
0100
0000
1000
0000
0001
0000
,
0100
0000
0000
0000
0000
0010
0000
0000
0000
0000
1000
0000
0000
0000
0000
0000
0101
0000
0000
0000
1000
0000
0000
0000
0000
0000
0010
0000
0100
0000
0001
0000
,
1000
0000
2000
0000
3000
0001
1000
0000
1100
0000
1000
0000
0001
0100
0010
0000
,
1000
0001
1000
0001
0100
0010
0100
0010
1000
0100
1000
0100
0010
0001
0010
0001
,
1000
0000
1000
0001
0100
0000
0100
0010
1000
0000
1000
0100
0010
0000
0010
0001
,
1000
0000
0000
0000
;
