#TITLE:Bangin' Breaks;
#SUBTITLE:;
#ARTIST:Sota Fujimori;
#TITLETRANSLIT:;
#SUBTITLETRANSLIT:;
#ARTISTTRANSLIT:;
#GENRE:;
#CREDIT:;
#MUSIC:Bangin' Breaks.ogg;
#BANNER:Bangin' Breaks.png;
#BACKGROUND:Bangin' Breaks-bg.png;
#CDTITLE:;
#SAMPLESTART:73.849;
#SAMPLELENGTH:15.000;
#SELECTABLE:YES;
#OFFSET:1.536;
#BPMS:0.000=156.000;
#STOPS:;
#BGCHANGES:;
#FGCHANGES:;

//--------------- dance-single - chrononical ----------------
#NOTES:
     dance-single:
     chrononical:
     Beginner:
     4:
     0,0,0,0,0:
0000
0000
0000
0000
,
0000
0000
0000
0000
,
0000
0000
0000
0000
,
1000
0000
1000
0000
,
0001
0000
0001
0000
,
1000
0000
0100
0000
,
0100
0000
0010
0000
,
0001
0000
0100
0000
,
0100
0000
0002
0000
,
1003
0000
0010
0000
,
0100
0000
0100
0000
,
0001
0000
0010
0000
,
0010
0000
0020
0000
,
0031
0000
1000
0000
,
0001
0001
0001
0000
,
1000
0000
0010
0000
,
0100
0100
0100
0000
,
0001
0000
1000
0000
,
0001
0001
0001
0000
,
1000
0000
0010
0000
,
0100
0000
0100
0000
,
0001
0000
1000
1000
,
1000
0000
0001
0001
,
0001
0000
0010
0000
,
1000
0000
0100
0100
,
0100
0000
0001
0001
,
0001
0000
1000
1000
,
1000
0000
0010
0000
,
0100
0000
0000
0000
,
0001
0000
1000
0000
,
1000
0001
1000
1000
,
0001
0000
0100
0000
,
1000
0000
0010
0000
,
0001
0001
0001
0000
,
1000
1000
1000
0000
,
1000
0000
0100
0000
,
0001
0000
0010
0000
,
2002
0000
0000
3003
,
1000
0000
0100
0000
,
0010
0000
0001
1000
,
0001
0000
0100
0000
,
0010
0100
0010
0000
,
1000
0001
1000
0000
,
0001
0000
0010
0000
,
0100
0010
0100
0000
,
1001
0000
0000
0000
,
0000
0000
0000
0000
,
0000
0000
0000
0000
,
0000
0000
0000
1001
,
0001
0000
0010
0000
,
0100
0100
0100
0000
,
1000
0000
0010
0000
,
0100
0100
0100
0001
,
1000
0000
0100
0000
,
0010
0010
0000
1001
,
0001
0000
0100
0000
,
0010
0010
0020
0000
,
1030
0000
0100
0000
,
0010
0001
0010
0000
,
0010
0000
0001
0000
,
1000
0010
1000
0000
,
1000
0000
0010
0000
,
0001
0000
0010
0000
,
1000
0000
0001
0000
,
1000
0001
1000
0002
,
1003
0000
0010
0000
,
0010
0000
0100
0000
,
0001
0000
0010
0000
,
0010
0000
0100
0000
,
0200
0000
0000
0000
,
0000
0000
0000
0300
;

//--------------- dance-single - chrononical ----------------
#NOTES:
     dance-single:
     chrononical:
     Easy:
     8:
     0,0,0,0,0:
0000
0000
0000
0000
,
0000
0000
0000
0000
,
0000
0000
0000
0000
,
1000
0001
1000
0100
,
1000
0010
0100
0001
,
1000
0000
0100
0010
0000
0010
0100
0000
,
1000
0000
0010
0100
0000
0100
0010
0000
,
1000
0000
0100
0010
0000
0010
0100
0000
,
1000
0001
0100
0010
,
1000
0000
0100
0010
0000
0010
0001
0000
,
1000
0100
0001
0100
,
1000
0000
0010
0100
0000
0100
0001
0000
,
1000
0100
0010
0001
,
1000
0001
1000
0000
0010
0000
0010
0000
,
1000
0001
1000
0000
0100
0000
0100
0000
,
0010
0100
0010
0000
0001
1000
0001
0000
,
1000
0010
0100
0001
,
1000
0001
1000
0000
0100
0000
0100
0000
,
1000
0001
1000
0000
0010
0000
0010
0000
,
0100
0010
0100
0000
0001
1000
0001
0000
,
1000
0100
0001
0010
,
1000
0100
1000
0000
0100
0000
0100
0000
,
1000
0010
1000
0000
0010
0000
0100
0000
,
0001
0100
0001
0000
1000
0100
1000
0000
,
0001
0010
0100
1000
,
0001
0100
0001
0000
0100
0000
0100
0000
,
0001
0010
0001
0000
0010
0000
0100
0000
,
1000
0010
1000
0000
0001
0010
0001
0000
,
1001
1000
0001
1000
,
0001
0010
0010
0100
,
1000
0010
0001
0010
,
1000
0100
0010
0001
,
1000
0100
0010
0100
,
1000
0010
0010
0100
,
0001
0100
1000
0100
,
0001
0010
0100
1000
,
0001
0010
0100
0010
,
0002
0000
0000
0000
,
1003
1000
0010
0010
,
0100
0010
0001
0010
,
1000
0010
0001
0100
,
1000
0100
0010
0200
,
0320
0000
0032
0000
,
1003
0010
0001
1000
,
0100
0001
2000
3001
,
1001
0000
0000
0000
,
0000
0000
0000
0000
,
0000
0000
0000
0000
,
0000
0000
0000
0110
,
1002
0013
0100
0001
,
0100
1000
0010
0010
,
2000
3010
0100
1000
,
0100
0000
0001
0000
0010
0000
0100
0010
,
0200
1300
0001
0100
,
1000
0100
0010
0110
,
0100
0001
0010
1000
,
0010
0100
1000
0001
,
1000
0000
0010
0100
0000
0100
0001
0000
,
1000
0100
0001
0100
,
1000
0000
0100
0010
0000
0010
0001
0000
,
1000
0010
0001
0010
,
1000
0000
0001
0100
0000
0100
0010
0000
,
1000
0100
0001
0010
,
1000
0000
0001
0010
0000
0010
0100
0000
,
1000
0010
0200
0302
,
1003
0000
0100
0010
0000
0100
0010
0000
,
0001
0000
0100
0010
0000
0100
0010
0000
,
1000
0010
0100
0001
,
1000
1001
0001
0010
,
0200
0000
0000
0000
,
0000
0000
0000
0300
;

//--------------- dance-single - chrononical ----------------
#NOTES:
     dance-single:
     chrononical:
     Medium:
     12:
     0,0,0,0,0:
0000
0000
0000
0000
,
0000
0000
0000
0000
,
0000
0000
0000
0000
,
0001
0000
0000
0100
0010
0000
0000
0100
0010
0000
0000
1000
0001
0000
0000
1000
,
0001
0010
0100
0010
0001
1000
0001
1000
,
0001
0000
0000
0100
0010
0000
2000
0000
0000
0000
3001
0000
2001
0000
0000
0000
,
3001
0000
0000
0010
0100
0000
2000
0000
0000
0000
3001
0000
1002
0000
0000
0000
,
1003
0000
0000
0010
0100
0000
0200
0000
0000
0000
0301
0000
2001
0000
0000
0000
,
3001
0000
0000
0010
0100
0000
0100
0000
0001
0000
0100
0000
0010
0000
0100
0000
,
1000
0000
0000
0001
0100
0000
0020
0000
0000
0000
1030
0000
2010
0000
0000
0000
,
3001
0000
0000
1000
0100
0000
0010
0000
0100
0000
1000
0000
1200
0000
0000
0000
,
1300
0000
0000
0001
0100
0000
0002
0000
0000
0000
0013
0000
0012
0000
0000
0000
,
2003
0000
0000
3020
0000
0000
0130
0000
0100
0000
1000
0000
0100
0000
0010
0000
,
1000
0000
0100
0000
0010
0000
0000
0010
0000
0010
0000
0000
0001
0000
0000
0000
,
0001
1000
0000
0010
0000
0010
0000
0100
0000
0100
0000
0000
0001
0000
0000
0000
,
1000
0100
0001
0000
1000
0010
0001
0000
,
1000
0100
0100
1000
0001
0100
1000
0100
,
0001
0000
0010
0000
0100
0000
0000
0100
0000
0100
0000
0000
1000
0000
0000
0000
,
0000
1000
0001
0000
0010
0000
0010
0000
0100
0000
0100
0000
1000
0000
0000
0000
,
0001
0100
1000
0000
0001
0010
1000
0000
,
0001
0000
0010
0000
0010
0000
0100
0000
0001
0000
0000
0001
0000
0000
0100
0000
,
1000
0000
0010
0000
0100
0000
0000
1000
0000
1000
0000
0000
0100
0000
0000
0000
,
0100
0010
0000
1000
0000
1000
0000
0001
0000
0001
0000
0000
0010
0000
0000
0000
,
0001
0010
1000
0000
0001
0100
1000
0000
,
0001
0100
0010
0100
0001
0100
1000
0100
,
0001
0000
0010
0000
0100
0000
0000
0001
0000
0001
0000
0000
0100
0000
0000
0000
,
0000
0100
1000
0000
0001
0000
0001
0000
1000
0000
1000
0000
0010
0000
0000
0000
,
1000
0010
0001
0000
1000
0100
0001
0000
,
1001
0000
0001
0010
1000
0010
0100
1000
,
0001
1000
0000
0001
1000
0000
0010
0000
0100
0000
0001
0000
1000
0000
0000
0000
,
0001
0010
1000
0001
0100
1000
1100
0000
,
1000
0000
0000
0010
0000
0000
0010
0000
0000
0100
0010
0000
1000
0000
0001
0000
,
1000
0000
0100
0000
0010
0000
0010
0000
0000
0010
0100
0000
1000
0001
1000
0000
,
0001
0000
0010
0000
0100
0000
0000
0010
0000
0010
0000
0002
0000
0000
0000
0000
,
1003
0010
0001
1000
0100
0001
1000
0001
,
1000
0100
0000
1000
0100
0000
0010
0001
0000
0010
0001
0000
1000
0000
0000
0000
,
0001
0100
0000
0001
0100
0000
0010
1000
0000
0010
1000
0000
0001
0000
0000
0000
,
2002
0000
0000
0000
0000
0000
3003
0001
,
1000
0100
0010
0001
0010
0100
0001
0100
,
1000
0000
0010
0000
0100
0000
0010
0000
0001
0000
0010
0000
0100
0010
0000
0100
,
0000
0100
0001
0010
1000
0001
0100
1000
,
0001
0100
0010
0010
1000
0100
0020
0000
,
0032
0000
0000
1003
0020
0000
0000
0000
,
1030
0010
0100
1000
0100
1000
0100
0010
,
1000
0000
0100
0000
0010
0100
0000
2000
0000
0000
0000
3002
0000
0000
0000
0000
,
1003
0000
0000
0000
,
0000
0000
0000
0000
,
1000
0000
0000
0001
0000
0001
0000
0100
0000
0000
0100
0000
0001
0000
1000
0000
,
0000
0000
0001
0000
0000
0100
0000
0100
0000
0000
0010
0000
0110
0000
0000
0000
,
1002
0000
0013
0200
0000
0301
0100
1000
,
0001
0000
0010
0000
0200
0000
0000
0000
1300
0000
0000
0001
0000
0000
1000
0000
,
2000
0000
3010
0200
0000
1300
0100
0001
,
1000
0000
0100
0000
0020
0000
0000
0000
0130
0000
0000
1000
0000
0000
0020
0000
,
0230
0000
0301
0200
0000
1300
0001
0010
,
1000
0000
0100
0000
0020
0000
0000
0000
0130
0000
0000
0110
0000
0000
0010
0000
,
0100
0000
0000
0100
1000
0000
0001
0000
0100
0000
1000
0000
0100
0000
0010
0000
,
1000
0000
0100
0000
0020
0000
0000
0000
0031
1000
0001
0000
2000
0000
0000
0000
,
3001
0010
0100
0110
0000
1100
0000
1000
,
0001
0100
1000
0100
0001
0010
0100
1000
,
0001
0100
0010
0110
0000
1010
0000
1000
,
0001
0010
0100
0001
0100
0010
0100
1000
,
0001
0100
0010
0110
0000
0101
0001
1000
,
1000
0100
0001
1000
0010
0100
1000
0001
,
1000
0010
0100
0110
0000
1010
1000
0001
,
1000
0100
0010
1000
0020
0000
0032
0000
,
1003
0000
0000
0001
0100
0000
0020
0000
0000
0000
0130
0000
0201
0000
0000
0000
,
0301
0000
0000
1000
0100
0000
0020
0000
0000
0000
0130
0000
1200
0000
0000
0000
,
1300
1100
0100
0110
,
0010
0000
0000
0000
0011
0000
0000
0000
0001
1000
0000
0001
1000
0000
0010
0000
,
0200
0000
0000
0000
,
0000
0000
0000
0300
;

//--------------- dance-single - chrononical ----------------
#NOTES:
     dance-single:
     chrononical:
     Hard:
     16:
     0,0,0,0,0:
0000
0000
0000
0000
,
0000
0000
0000
0000
,
0000
0000
0000
0000
,
1000
0000
0000
0100
0010
0000
0000
0010
0001
0000
0000
0001
0100
0000
0000
0100
,
0010
1000
0001
0010
0001
1000
0010
0010
,
1000
0000
0000
0100
0010
0100
2000
0000
0000
0000
3001
0000
1001
0000
0000
0000
,
0001
0000
0000
0100
0010
0100
0002
0000
0000
0000
1003
0000
1001
0000
0000
0001
,
1000
0000
0000
0100
0010
0100
2000
0000
0000
0000
3100
0000
1100
0000
1000
0000
,
0100
0000
0000
0010
0100
1000
0001
0000
0100
0001
0100
0001
0100
0010
1000
0010
,
1000
0000
0000
0100
0010
0100
0020
0000
0000
0000
0031
0000
0011
0000
0000
0000
,
0001
0000
0000
0010
0100
0000
0001
0000
0100
0000
1000
0000
1001
0000
0000
0001
,
1000
0000
0000
0010
0100
0010
0200
0000
0000
0000
0301
0000
0101
0000
0100
0000
,
0010
0000
1000
0001
0000
0000
0001
0000
0010
0100
0010
0100
1000
0100
1000
0100
,
1000
0000
0100
0000
0010
0100
0000
0010
0000
0010
0001
0000
0100
0010
0000
1000
,
0001
0100
0000
0010
0000
0001
0000
0010
0000
0010
1000
0000
0100
0010
0000
0001
,
1000
0000
0010
0100
0000
0100
0001
1000
0001
0000
0010
0100
0000
0100
1000
0001
,
1000
0010
0100
0000
0100
0010
1000
0000
0100
0010
0100
0010
0001
1000
0001
1000
,
0001
0000
0100
0000
0010
0100
0000
1000
0000
0100
0010
0000
1000
0100
0000
0010
,
0001
1000
0100
0000
0001
0000
0100
0000
1000
0000
0010
1000
0000
0001
0100
0000
,
0001
0000
1000
0010
0000
0010
0001
0010
0000
0010
1000
0000
0100
0010
0001
1000
,
0001
0000
0010
0000
0100
0010
0100
0010
0100
1000
0001
0100
0010
1000
0001
1000
,
0001
0000
0100
0000
0010
0100
0000
1000
0000
1000
0100
0000
0010
1000
0000
0001
,
1000
0100
0000
0001
0000
0100
0000
0010
0000
0010
0100
0000
1000
0001
0000
0100
,
0010
0000
0010
1000
0000
0100
1000
0001
0100
0000
0100
0001
0000
0100
0010
1000
,
0001
1000
0100
0000
1000
0001
0100
0010
0000
0100
0001
1000
0100
0010
0001
1000
,
0001
0000
0100
0000
0010
0001
0000
1000
0000
1000
0100
0000
0001
0010
0000
0100
,
0010
0100
0001
0000
1000
0000
0010
0000
0001
0000
0100
0010
0000
0010
0100
0000
,
0001
0000
1000
0100
0000
0100
0001
0100
0000
0100
1000
0000
0010
0100
0001
1000
,
0001
0000
0000
0000
0001
0010
0100
0010
0001
1000
0001
1000
0001
0100
0010
0100
,
0001
1000
0000
1000
0100
0000
0100
0010
0000
0010
0001
1000
0010
0000
0100
0000
,
1000
0100
0001
1000
0100
0001
0100
0000
,
1000
0000
0010
0000
0100
0000
0001
0100
0000
0100
0010
0000
1000
0010
1000
0001
,
1000
0000
0100
0000
0010
0000
0001
0010
0000
0010
0100
0000
1000
0001
1000
0001
,
1000
0100
0000
0000
1000
0010
0000
0100
0000
0100
0000
0001
0010
0000
0100
0000
,
0001
0100
1000
0001
0100
1000
0100
0100
,
0001
0100
0000
0010
0100
0000
0001
0100
0000
0010
0100
0010
1000
0001
1000
0100
,
0010
0100
0000
0010
0100
0000
1000
0100
0000
0010
0100
0000
1000
0001
0100
0010
,
2000
0000
0000
0000
0000
0000
0000
0000
0000
0000
0000
0000
0000
0000
3001
0010
,
0100
0010
0001
1000
0001
0100
0010
1000
0010
0100
0001
1000
0001
0000
1000
0100
,
0010
0001
0010
0100
1000
0001
0010
0100
0020
0000
0031
0100
0010
0100
0000
0100
,
0000
0100
1000
0100
0010
1000
0100
1000
0100
0010
0100
0010
0001
1000
0001
1000
,
0001
0010
0100
0010
0001
1000
0010
0100
0010
1000
0001
1000
0002
0000
0000
0000
,
2003
0000
0000
0000
0000
3100
0010
0001
0200
0000
0000
0000
0000
0000
0000
0000
,
0310
0100
0001
1000
0100
0010
0100
1000
0001
0100
0010
0100
0001
1000
0001
0010
,
0200
0000
1300
0001
0100
0010
0000
0020
0000
0000
0000
2030
0000
0000
0000
0000
,
3001
0000
0000
0000
,
0000
0000
0000
0000
,
1000
0000
0010
0100
0000
0100
0000
1000
0000
0000
0100
0000
0100
0000
0010
1000
,
0100
0000
0010
0001
0000
0100
0000
0100
0000
0000
0010
0000
0110
0000
0000
0000
,
2001
0000
0000
0000
3010
0100
0010
0200
0000
0000
1300
0000
0100
0000
0010
0000
,
1000
0000
0100
0000
0020
0000
0000
0000
1030
0010
0000
0010
0000
0000
0001
0100
,
0002
0000
0000
0000
0103
0010
0100
0020
0000
0000
0031
0000
0010
0000
0100
0000
,
0001
0000
0010
0000
0200
0000
0000
0000
0301
0100
0000
0200
0000
0000
0320
0000
,
0032
0000
0000
0000
0013
0100
0010
0200
0000
0000
0301
0000
0100
0000
0010
0000
,
0001
0000
0100
0000
0020
0000
0000
0000
0031
0010
0000
0110
0000
0000
0100
0001
,
1000
0000
0000
1000
0100
0010
0100
0020
0000
0000
1030
0000
0010
0000
0100
0000
,
1000
0000
0010
0000
0200
0000
0000
0000
1300
0100
0010
0100
0010
1000
0001
1000
,
0001
0000
0010
0100
0010
0000
0110
0000
0000
0000
0011
0000
0001
0000
0100
0000
,
0010
0100
0010
0100
0001
1000
0001
1000
0100
0010
0100
0010
0001
1000
0001
1000
,
0001
0000
0100
0010
0100
0000
0110
0000
0000
0000
0101
0000
0001
0000
1000
0000
,
0001
0100
0010
0100
0001
1000
0100
0010
0002
0000
1003
0010
0100
0010
1000
0001
,
1000
0000
0100
0001
0100
0000
0101
0000
0000
0000
1100
0000
1000
0000
0100
0000
,
0010
0001
0100
0000
0010
1000
0100
0000
0010
0001
0010
0001
1000
0001
1000
0001
,
1000
0000
0010
0001
0010
0000
0011
0000
0000
0000
1010
0000
1000
0000
0010
0000
,
0100
1000
0001
0010
0200
0000
0302
0000
,
1003
0000
0000
0100
0001
0100
0020
0000
0000
0000
1030
0000
1010
0000
0010
0000
,
0001
0000
0000
0100
1000
0100
0020
0000
0000
0000
0031
0000
0011
0000
0000
0010
,
1000
0000
0000
0100
0010
0000
0000
0010
0001
0000
0000
0001
0100
0000
0010
0000
,
1000
0000
0000
0000
1010
0000
0000
0000
1000
0100
0000
0100
0010
0001
1000
0001
,
2000
0000
0000
0000
0000
0000
0000
0000
0000
3001
0100
0010
,
0100
0001
1000
0001
0010
0100
0010
0001
1000
0000
0000
0000
;
