#TITLE:Bag It Up;
#SUBTITLE:;
#ARTIST:Geri Halliwell;
#TITLETRANSLIT:;
#SUBTITLETRANSLIT:;
#ARTISTTRANSLIT:;
#CREDIT:Nezemarth;
#BANNER:Bag It Up.png;
#BACKGROUND:Bag It Up-bg.png;
#LYRICSPATH:;
#CDTITLE:Dancemania SUMMERS3.png;
#MUSIC:Bag It Up.ogg;
#OFFSET:-5.171;
#SAMPLESTART:54.406;
#SAMPLELENGTH:12.000;
#SELECTABLE:YES;
#BPMS:0.000=116.880;
#STOPS:;
#BGCHANGES:;

//---------------dance-single - ----------------
#NOTES:
     dance-single:
     :
     Hard:
     10:
     0.411,0.437,0.246,0.000,0.185:
0000
0000
0000
0000
,
0000
0000
0000
0000
,
0000
0000
0000
0000
,
0000
0000
0000
0000
,
1000
0000
0100
0010
0000
0100
0000
0000
1000
0000
0000
1000
0000
0000
0010
0000
,
0100
0000
0000
0001
0010
0001
0000
1000
0000
0001
0000
0000
0100
0010
0000
0000
,
0000
0000
1000
0100
0000
0010
0000
0000
0100
0000
0000
0100
0000
0000
1000
0000
,
0001
0000
0000
0100
0000
0000
0010
0000
1000
0000
0001
0000
0010
0100
1000
0000
,
0001
0100
0010
0100
1000
0100
0001
1000
,
0100
0010
0100
1000
0010
0100
0001
0000
,
1000
0100
0010
0100
0001
0100
1000
0001
,
0100
0010
0001
0010
1000
0001
0010
0000
,
0100
1000
0001
0100
0010
0100
0001
1000
,
0100
0010
0001
0010
1000
0010
0100
0000
,
1000
0010
0100
0001
1000
0100
0010
0001
,
0100
1000
0100
0000
0001
0000
1000
0000
,
1001
0000
0000
0000
1000
0000
0100
0000
0001
0000
0000
0100
0000
0000
0010
0000
,
0001
0000
0000
0100
0000
0000
1000
0000
0000
0000
0100
0000
0001
0000
0000
0000
,
1001
0000
0000
0000
1000
0000
0100
0000
0010
0000
0000
1000
0000
0000
0010
0000
,
0100
1000
0001
0100
,
0110
0000
0000
0000
0010
0000
0100
0000
0001
0000
0000
1000
0000
0000
0100
0000
,
0001
0000
0000
0100
0000
0000
0010
0000
0000
0000
0001
0000
0000
0000
1000
0000
,
0010
1000
0001
0010
0100
1000
0010
1000
,
1100
0110
0011
0101
,
1001
0000
0000
1000
0010
0000
0100
0000
0001
0000
0010
0000
1000
0000
0010
0000
,
0011
0000
0000
0001
0100
0000
0010
0000
0001
0000
0010
0000
1000
0000
0001
0000
,
0011
0000
0000
0010
1000
0000
0010
0000
0100
0000
1000
0000
0010
0000
0100
0000
,
1100
0000
0000
1000
0100
0000
0000
0100
0001
0000
0000
0001
0010
0000
0000
0000
,
0011
0000
0000
0010
0100
0000
1000
0000
0010
0000
0001
0000
0010
0000
0100
0000
,
1100
0000
0000
0100
0010
0000
1000
0000
0001
0000
0010
0000
0100
0000
1000
0000
,
0010
0000
0100
0000
0110
0000
0000
0000
0100
0001
0000
0000
1000
0000
0100
0000
,
0110
0000
0000
0010
0001
0000
0000
0001
1000
0000
0000
1000
0010
0000
0100
0000
,
0010
0000
1000
0001
0000
0000
1001
0000
0000
0000
0000
0000
0011
0000
0000
0000
,
0001
0000
0010
0100
1000
0000
0001
0000
,
0100
0000
0010
1000
0000
0000
1001
0000
0000
0000
0000
0000
1010
0000
0000
0000
,
0010
0000
0100
0001
1000
0000
1000
0000
,
0010
0100
0001
0010
0100
1000
1010
0000
,
1000
0010
0100
0001
0010
0100
0101
0000
,
0100
0000
0100
0000
1000
0000
1000
0000
0001
0000
0000
0100
0000
0000
0010
0000
,
1001
0000
0000
0000
;

//---------------dance-single - ----------------
#NOTES:
     dance-single:
     :
     Medium:
     8:
     0.291,0.349,0.123,0.000,0.028:
0000
0000
0000
0000
,
0000
0000
0000
0000
,
0000
0000
0000
0000
,
0000
0000
0000
0000
,
1000
0100
0010
0010
,
0100
0000
1000
0000
0001
0100
0001
0000
,
1000
0100
0010
0010
,
0100
0000
1000
0000
0010
0100
0001
0000
,
1000
0000
0100
0000
0010
0001
0010
0000
,
0100
0000
1000
0000
0010
1000
0100
0000
,
0010
0000
0001
0000
1000
0010
1000
0000
,
0001
0000
0010
0000
0100
1000
0010
0000
,
0100
0000
0001
0000
0010
0001
0010
0000
,
0100
0000
1000
0000
0001
0100
0010
0000
,
1000
0000
0100
0000
0010
0001
0010
0000
,
0100
1000
0001
0000
0100
0000
0010
0000
,
1001
0000
1000
0100
0010
0000
0001
0000
,
1000
0000
0000
1000
0000
0000
0010
0000
0000
0000
0000
0000
0100
0000
0000
0000
,
0001
0000
0010
0100
1000
0000
1000
0100
,
0001
0000
1000
0010
,
1001
0000
0001
0100
0010
0000
0010
0100
,
1000
0000
0000
1000
0000
0000
0100
0000
0000
0000
0000
0000
0001
0000
0000
0000
,
1000
0000
0100
0000
0010
0001
0100
0000
,
0110
1010
1001
0011
,
0110
0000
0100
0000
1000
0001
0100
0001
,
1001
0000
1000
0000
0100
0010
0100
1000
,
1001
0000
0001
0000
0100
0010
0100
0001
,
1000
0100
0010
0001
,
0011
0000
0010
0000
0001
0100
0010
1000
,
1010
0000
1000
0000
0100
0010
0001
0100
,
0010
0010
0010
0000
1000
0000
0100
0000
,
0001
0100
1000
0010
,
0100
0000
0000
0100
0000
0000
0001
0000
0000
0000
0000
0000
0010
0000
0000
0000
,
0100
1000
0001
0100
,
0010
0000
0000
0010
0000
0000
0001
0000
0000
0000
0000
0000
1000
0000
0000
0000
,
0100
0001
1000
0100
,
0010
0000
0100
1000
0001
0000
0100
0000
,
0010
0000
1000
0100
0010
0000
0001
0000
,
0100
0000
0000
0000
0010
0000
1000
0000
0100
0000
0000
0100
0000
0000
0010
0000
,
0001
0000
0000
0000
;

//---------------dance-single - ----------------
#NOTES:
     dance-single:
     :
     Easy:
     5:
     0.189,0.262,0.123,0.000,0.000:
0000
0000
0000
0000
,
0000
0000
0000
0000
,
0000
0000
0000
0000
,
0000
0000
0000
0000
,
1000
0000
0100
0000
,
0010
0100
1000
0100
,
0001
0000
0100
0000
,
1000
0010
0001
0010
,
0100
0000
0001
0000
,
1000
0100
0010
0000
,
0001
0000
0100
0000
,
0010
1000
0100
0000
,
0001
0000
0100
0000
,
0010
0001
0100
0000
,
1000
0000
0100
0000
,
0010
1000
0100
0010
,
1001
0000
0001
0000
,
1000
0010
0100
0001
,
0010
0000
0100
0000
,
1000
0000
0000
0001
,
0100
0000
1000
0000
,
0100
0010
1000
0100
,
0010
0010
0010
0000
,
0001
0001
1000
1000
,
1010
0010
0100
0001
,
0011
0010
0100
1000
,
1001
1000
0010
0100
,
0001
1000
0100
0010
,
0011
0001
0100
0010
,
1010
1000
0100
0010
,
0011
1001
1000
0010
,
0100
0001
1000
0100
,
0010
0000
0000
0110
0000
0000
0000
0000
,
0001
0000
0100
0000
,
0010
0000
0000
0110
0000
0000
0000
0000
,
1000
0000
0100
0000
,
0010
0100
1000
0000
,
0010
0100
1000
0000
,
1000
0100
0001
1000
,
1001
0000
0000
0000
;

//---------------dance-double - ----------------
#NOTES:
     dance-double:
     :
     Hard:
     10:
     0.411,0.415,0.179,0.000,0.202: // measure 1
00000000
00000000
00000000
00000000
,  // measure 2
00000000
00000000
00000000
00000000
,  // measure 3
00000000
00000000
00000000
00000000
,  // measure 4
00000000
00000000
00000000
00000000
,  // measure 5
00000000
00000000
10000000
00100000
00000000
01000000
00000000
00000000
00001000
00000000
00000000
00001000
00000000
00000000
00010000
00000000
,  // measure 6
00000100
00000000
00000000
00000010
00000001
00001000
00000000
00000010
00000000
00000100
00000000
00001000
00010000
00001000
00000000
00000000
,  // measure 7
00000000
00000000
00000010
00000001
00000000
00000100
00000000
00000000
00000010
00000000
00000000
00000010
00000000
00000000
00010000
00000000
,  // measure 8
00001000
00000000
00000000
00100000
00000000
00000000
00010000
00000000
10000000
00000000
00100000
00000000
00010000
00001000
00010000
00000000
,  // measure 9
00000010
00001000
00000001
00000100
00001000
00010000
00100000
01000000
,  // measure 10
00010000
10000000
01000000
00100000
00010000
10000000
00100000
00000000
,  // measure 11
10000000
00010000
00100000
01000000
00010000
00001000
00000010
00000001
,  // measure 12
00001000
00000010
00010000
00001000
00000010
00000001
00001000
00000000
,  // measure 13
00000010
00010000
00001000
00100000
00010000
10000000
00100000
00010000
,  // measure 14
00001000
00000010
00000100
00001000
00000001
00000100
00000010
00010000
,  // measure 15
00001000
00100000
00010000
10000000
01000000
00100000
00001000
00010000
,  // measure 16
00000010
00000010
00001000
00000000
00000001
00000000
00000100
00000000
,  // measure 17
00000110
00000000
00000000
00000000
00000010
00000000
00010000
00000000
00001000
00000000
00000000
00000010
00000000
00000000
00001000
00000000
,  // measure 18
00010000
00000000
00000000
01000000
00000000
00000000
10000000
00000000
00000000
00000000
00100000
00000000
01000000
00000000
00000000
00000000
,  // measure 19
10000000
00000000
00000000
00000000
01000000
00000000
00010000
00000000
00100000
00000000
00000000
01000000
00000000
00000000
00010000
00000000
,  // measure 20
00001000
00000010
00000001
00000100
,  // measure 21
00001000
00000000
00000000
00000000
00000100
00000000
00000010
00000000
00001000
00000000
00000000
00000100
00000000
00000000
00000010
00000000
,  // measure 22
00001000
00000000
00000000
00010000
00000000
00000000
01000000
00000000
00000000
00000000
00100000
00000000
00010000
00000000
10000000
00000000
,  // measure 23
00100000
01000000
00010000
00100000
00001000
00010000
00001000
00000010
,  // measure 24
00000110
00011000
01100000
10010000
,  // measure 25
11000000
00000000
00000000
01000000
00100000
00000000
01000000
00000000
10000000
00000000
00100000
00000000
00010000
00000000
00001000
00000000
,  // measure 26
00000100
00000000
00000010
00000000
00001010
00000000
00000000
00001000
00000100
00000000
00000010
00000000
00001000
00000000
00010000
00000000
,  // measure 27
01000000
00000000
10000000
00000000
10100000
00000000
00000000
00100000
00010000
00000000
00001000
00000000
00000010
00000000
00001000
00000000
,  // measure 28
00010000
00000000
00000000
00010000
00100000
00000000
00000000
00100000
10000000
00000000
00000000
10000000
01000000
00000000
00000000
00000000
,  // measure 29
01010000
00000000
00000000
01000000
10000000
00000000
00100000
00000000
00010000
00000000
00001000
00000000
00000010
00000000
00000001
00000000
,  // measure 30
00000101
00000000
00000000
00000100
00001000
00000000
00000100
00000000
00000001
00000000
00000010
00000000
00001000
00000000
00010000
00000000
,  // measure 31
01000000
00000000
00100000
00000000
01100000
00000000
00000000
00000000
01000000
10000000
00000000
00000000
00010000
00000000
01000000
00000000
,  // measure 32
00100000
00000000
00000000
00100000
00010000
00000000
00000000
00010000
00001000
00000000
00000000
00001000
00000010
00000000
00000001
00000000
,  // measure 33
00000100
00000000
00000010
00001000
00000000
00000000
00001010
00000000
00000000
00000000
00001000
00000010
00010000
00000000
00000000
00000000
,  // measure 34
00011000
00000000
00100000
00010000
01000000
00000000
00100000
00000000
,  // measure 35
10000000
00000000
00010000
10000000
00000000
00000000
10010000
00000000
00000000
00000000
00010000
00100000
00001000
00000000
00000000
00000000
,  // measure 36
00011000
00000000
00000010
00001000
00000100
00000000
00000010
00000000
,  // measure 37
00000001
00000100
00001000
00000100
00000010
00010000
00001000
00000000
,  // measure 38
10000000
01000000
00010000
01000000
00100000
00001000
00010000
00000000
,  // measure 39
00000010
00000000
00000100
00000000
00000001
00000000
00000010
00000000
00001000
00000000
00000000
00010000
00000000
00000000
01000000
00000000
,  // measure 40
10010000
00000000
00000000
00000000
;

//---------------dance-solo - ----------------
#NOTES:
     dance-solo:
     :
     Hard:
     11:
     0.429,0.437,0.168,0.000,0.364:
000000
000000
000000
000000
,
000000
000000
000000
000000
,
000000
000000
000000
000000
,
000000
000000
000000
000000
,
000000
000000
000100
100000
000000
000001
000100
000000
001000
000000
000000
001000
000000
000000
010000
000000
,
000100
000000
000000
000100
010000
000001
000000
000000
000100
000000
001000
000000
010000
001000
000000
000000
,
000000
000000
001000
100000
000000
000001
001000
000000
000100
000000
000000
000100
000000
000000
100000
000000
,
001000
000000
000000
000100
000000
000000
000010
000000
100000
000000
000100
000000
001000
000010
100000
000000
,
001000
000000
000000
000000
000100
000010
000000
100000
000000
000100
001000
000000
000001
000000
100000
000000
,
001000
000000
000000
000000
000100
000001
000000
010000
000000
000100
001000
000000
000001
000000
100000
000000
,
001000
000000
000000
000000
000100
000010
000000
010000
000000
000100
100000
000000
000001
000000
001000
000000
,
000100
000000
000000
000000
010000
001000
000000
100000
000000
000010
001000
000000
000001
000000
100000
000000
,
001000
000000
000000
000000
000010
000001
000000
010000
000000
000010
001000
000000
000100
000000
100000
000000
,
001000
000000
000000
000000
000010
000001
000000
000100
000000
000010
001000
000000
000100
000000
100000
000000
,
001000
000000
000000
000000
000100
001000
000000
010000
000000
000010
001000
000000
000100
000000
100000
000000
,
001000
000100
000010
000100
001000
000000
100000
000000
,
100100
000000
000000
000000
000100
000000
001000
000000
000010
000000
000000
100000
000000
000000
001000
000000
,
000100
000000
000000
001000
000000
000000
010000
000000
000000
000000
000100
000000
001000
000000
000000
000000
,
010000
000000
000000
000000
001000
000000
000010
000000
000100
000000
000000
001000
000000
000000
100000
000000
,
001000
000100
000010
000001
,
000010
000000
000000
000000
000100
000000
001000
000000
000001
000000
000000
001000
000000
000000
100000
000000
,
000100
000000
000000
001000
000000
000000
100000
000000
000000
000000
001000
000000
000010
000000
100000
000000
,
001000
000100
000010
010000
000100
001000
000001
000100
,
000110
001100
101000
100100
,
010100
000000
000000
000100
001000
000000
000010
000000
000100
000000
000001
000000
000010
000000
001000
000000
,
001100
000000
000000
001000
100000
000000
000100
000000
001000
000000
010000
000000
100000
000000
000010
000000
,
000110
000000
000000
000100
001000
000000
010000
000000
000100
000000
001000
000000
100000
000000
001000
000000
,
000100
000000
000000
000100
100000
000000
000000
100000
001000
000000
000000
001000
000010
000000
000000
000000
,
001010
000000
000000
000010
000001
000000
001000
000000
000100
000000
010000
000000
001000
000000
100000
000000
,
110000
000000
000000
010000
001000
000000
000100
000000
010000
000000
001000
000000
000010
000000
000001
000000
,
000011
000000
000001
000000
001001
000000
000000
000000
001000
000100
000000
010000
001000
000000
000100
000000
,
000001
000000
000000
000001
001000
000000
000000
001000
000100
000000
000000
000100
010000
000000
001000
000000
,
000100
000000
001000
100000
000000
000000
100100
000000
000000
000000
000100
001000
000010
000000
000000
000000
,
000100
000000
001000
100000
000100
000000
000000
000000
001000
000000
000001
000100
001000
000000
000000
000000
,
100000
000000
000001
001000
000000
000000
001001
000000
000000
000000
001000
000100
100000
000000
000000
000000
,
100000
000000
001000
000000
100000
000000
000001
000000
100000
000000
000010
000000
000100
000000
001000
000000
100000
000000
001000
000000
000000
000100
000000
000000
,
000001
000000
001000
000000
000100
000000
010000
000000
001000
000000
000000
000100
000000
000000
000000
000000
,
000010
000000
010000
000000
000100
000000
100000
000000
001000
000000
000000
000100
000000
000000
000000
000000
,
000001
000000
001000
000000
100000
000000
001000
000000
000010
000000
000000
000100
000000
000000
001000
000000
,
001100
000000
000000
000000
;

//---------------dance-double - ----------------
#NOTES:
     dance-double:
     :
     Medium:
     8:
     0.286,0.328,0.235,0.000,0.017: // measure 1
00000000
00000000
00000000
00000000
,  // measure 2
00000000
00000000
00000000
00000000
,  // measure 3
00000000
00000000
00000000
00000000
,  // measure 4
00000000
00000000
00000000
00000000
,  // measure 5
10000000
01000000
00010000
00001000
,  // measure 6
00000010
00000100
00010000
00011000
,  // measure 7
00000001
00000100
00001000
00010000
,  // measure 8
10000000
01000000
00010000
10000000
,  // measure 9
01000000
00010000
00000000
00001000
00000000
00000100
00000001
00000000
,  // measure 10
00001000
00000100
00000000
00010000
00000000
01000000
10000000
00000000
,  // measure 11
00100000
00010000
00000000
00000010
00000000
00001000
00000100
00000000
,  // measure 12
00000010
00001000
00000000
00010000
00000000
01000000
10000000
00000000
,  // measure 13
00100000
00010000
00000000
00001000
00000000
00000001
00000100
00000000
,  // measure 14
00001000
00000010
00000000
00000100
00000000
00010000
10000000
00000000
,  // measure 15
01000000
00010000
00000000
00000010
00000000
00001000
00000001
00000000
,  // measure 16
00000010
00000100
00010000
00000000
00001000
00000000
00100000
00000000
,  // measure 17
10010000
10000000
01000000
00100000
,  // measure 18
01000000
00000000
00000000
10000000
00000000
00000000
00010000
00000000
00000000
00000000
01000000
00000000
00001000
00000000
00000000
00000000
,  // measure 19
00010000
00000100
00000010
00000001
,  // measure 20
00000101
00000000
00000000
00000100
,  // measure 21
00000010
00010000
00001000
00000100
,  // measure 22
00000001
00000000
00000000
00000010
00000000
00000000
00001000
00000000
00000000
00000000
00000010
00000000
00000100
00000000
00000000
00000000
,  // measure 23
00010000
01000000
10000000
01000000
,  // measure 24
01100000
00011000
00000110
00011000
,  // measure 25
01100000
00000000
00100000
10000000
01000000
00000000
00010000
00000000
,  // measure 26
00011000
00000000
00001000
00000010
00000001
00000000
00000100
00000000
,  // measure 27
00001100
00000000
00001000
00010000
00100000
00000000
10000000
00000000
,  // measure 28
11000000
01000000
01010000
00010000
,  // measure 29
00011000
00000000
00001000
00000010
00000001
00000000
00000100
00000000
,  // measure 30
00001100
00000000
00001000
00010000
00100000
00000000
10000000
00000000
,  // measure 31
11000000
00010000
10010000
00000000
00010000
00000000
01000000
00000000
,  // measure 32
01100000
00100000
00110000
00010000
,  // measure 33
00011000
00000000
00000000
00000110
00000000
00000000
00000001
00000000
,  // measure 34
00000100
00001000
00010000
01000000
,  // measure 35
10000000
00000000
00000000
10010000
00000000
00000000
10000000
00000000
,  // measure 36
00100000
00010000
00001000
00000010
,  // measure 37
00000001
00000100
00001000
00000000
00010000
00000000
01000000
00000000
,  // measure 38
10000000
00100000
00010000
00000000
00001000
00000000
00000010
00000000
,  // measure 39
00000001
00000000
00000010
00000000
00000001
00000000
00000010
00000000
00001000
00000000
00000000
00010000
00000000
00000000
00100000
00000000
,  // measure 40
10000000
00000000
00000000
00000000
;

//---------------dance-double - ----------------
#NOTES:
     dance-double:
     :
     Easy:
     5:
     0.189,0.240,0.134,0.000,0.000: // measure 1
00000000
00000000
00000000
00000000
,  // measure 2
00000000
00000000
00000000
00000000
,  // measure 3
00000000
00000000
00000000
00000000
,  // measure 4
00000000
00000000
00000000
00000000
,  // measure 5
10000000
00000000
01000000
00000000
,  // measure 6
00010000
01000000
10000000
01000000
,  // measure 7
00001000
00000000
00000010
00000000
,  // measure 8
00000001
00000010
00001000
00000001
,  // measure 9
00001001
00000000
00000001
00000010
,  // measure 10
00000100
00000000
00010000
00001000
,  // measure 11
00100000
00000000
00010000
10000000
,  // measure 12
00100000
00000000
01000000
00001000
,  // measure 13
00010000
00000000
00000100
00000010
,  // measure 14
00000001
00000000
00000100
00000010
,  // measure 15
00010000
00000000
00001000
00100000
,  // measure 16
01000000
00000000
10000000
00010000
,  // measure 17
01010000
00000000
01000000
00000000
,  // measure 18
00100000
10000000
01000000
00010000
,  // measure 19
00001000
00000000
00000010
00000000
,  // measure 20
00000001
00000000
00000000
00001000
,  // measure 21
00000010
00000000
00000100
00000000
,  // measure 22
00001000
00010000
00100000
10000000
,  // measure 23
01000000
00000000
00100000
00000000
,  // measure 24
00001000
00001000
00010000
00010000
,  // measure 25
00011000
00000000
00000100
00001000
,  // measure 26
00001001
00000000
00010000
00001000
,  // measure 27
00011000
00000000
01000000
00010000
,  // measure 28
10000000
01000000
00010000
00001000
,  // measure 29
00000110
00000000
00000001
00000100
,  // measure 30
00000110
00000000
00010000
00001000
,  // measure 31
00011000
00011000
00100000
00010000
,  // measure 32
10000000
00100000
00010000
00001000
,  // measure 33
00010000
00000000
00000000
10010000
00000000
00000000
10000000
00000000
,  // measure 34
01000000
00000000
00010000
00000000
,  // measure 35
00001000
00000000
00000000
00001001
00000000
00000000
00000001
00000000
,  // measure 36
00000100
00000000
00001000
00000000
,  // measure 37
00010000
01000000
10000000
00000000
,  // measure 38
00001000
00000100
00000001
00000000
,  // measure 39
00010000
01000000
10000000
01000000
,  // measure 40
01100000
00000000
00000000
00000000
;
