#TITLE:Bad Habits;
#ARTIST:Ed Sheeran;
#BANNER:Bad Habits-bn.png;
#BACKGROUND:Bad Habits-bg.png;
#JACKET:Bad Habits-jacket.png;
#MUSIC:Bad Habits.ogg;
#SAMPLESTART:36.452;
#SAMPLELENGTH:20;
#DISPLAYBPM:126;
#BPMS:0=125.92;
#STOPS:143.75=0.025;
#BGCHANGES:;

//---------------dance-single - ----------------
#NOTES:
     dance-single:
     :
     Beginner:
     3:
     :
0000
0000
0000
0000
,
0000
0000
0000
0000
,
0000
0000
0000
0000
,
0000
0000
0000
0000
,
0000
0001
0000
1000
,
0000
0010
0000
0100
,
0000
0001
0000
0000
,
0000
0000
0000
0000
,
0000
0010
0000
0001
,
0000
0100
0000
0010
,
0000
1000
0000
0000
,
0000
0000
0000
0000
,
0000
0010
0000
0010
,
0000
0100
0000
0100
,
0000
0001
0000
0000
,
0000
0000
0000
0000
,
0001
0000
1000
0000
,
0010
0000
0100
0000
,
0110
0000
0000
0000
,
0000
0000
0000
0000
,
1000
1000
1000
0000
,
0010
0000
0100
0000
,
0001
0001
0001
0000
,
1000
0000
0100
0000
,
0010
0010
0010
0000
,
0001
0000
0100
0000
,
0010
0000
0010
0000
,
0010
0000
0000
0000
,
0100
0100
0100
0000
,
0001
0000
0010
0000
,
0001
0001
0001
0000
,
1000
0000
0010
0000
,
1000
1000
1000
0000
,
0100
0000
0010
0000
,
0001
0000
0001
0000
,
0001
0000
1000
0000
,
1001
0000
0000
0000
,
0010
0000
0000
0000
,
0100
0000
0100
0000
,
0100
0000
0000
0000
,
0000
0000
0000
0000
,
0001
0000
0000
0000
,
0010
0000
0010
0000
,
0010
0000
0000
0000
,
0000
0000
0000
0000
,
0001
0000
0100
0000
,
1000
0000
0000
0000
,
0010
0000
1000
0000
,
0100
0000
0000
0000
,
1000
0000
0001
0000
,
0100
0000
0000
0000
,
0010
0000
0010
0000
,
0010
0000
0000
0000
,
0001
0001
0001
0000
,
0010
0000
0100
0000
,
1000
1000
1000
0000
,
0001
0000
0100
0000
,
0010
0010
0010
0000
,
1000
0000
0001
0000
,
0100
0000
0100
0000
,
0010
0000
1000
0000
,
0110
0000
0000
0001
,
0001
0000
0010
0000
,
0001
0000
0100
0000
,
1000
0000
0010
0000
,
1001
0000
0000
1000
,
1000
0000
0010
0000
,
0100
0000
0010
0000
,
1000
0000
0110
0000
,
1001
0000
0000
0000
;

//---------------dance-single - ----------------
#NOTES:
     dance-single:
     :
     Easy:
     6:
     :
0000
0000
0000
0000
,
0000
0000
0000
0000
,
0000
0000
0000
0000
,
0000
0000
0000
0000
,
0001
0100
1000
1000
,
0000
0010
1000
0001
,
0000
0010
0100
0000
,
1000
0010
1000
0000
,
0100
0010
0001
0001
,
0000
1000
0010
0100
,
0000
0001
0010
0000
,
0001
0100
0001
0000
,
0010
0001
0100
0010
,
0000
1000
0100
0010
,
0000
0001
0100
0000
,
0010
1000
0001
0000
,
1000
0100
1000
0010
,
0100
0001
0010
0100
,
2002
0000
0000
3000
,
0000
0100
0100
0103
,
0001
0010
0001
0100
,
0000
1000
0001
1000
,
0100
1000
0010
0100
,
0000
1000
0010
0100
,
0001
1000
0010
0100
,
0000
0010
1000
0001
,
0011
0000
1100
0000
,
0001
0100
0010
1000
,
0100
0010
0001
0100
,
0000
0010
1000
0100
,
1000
0010
0100
0001
,
0000
0100
0010
0100
,
0001
0010
0100
1000
,
0000
0010
1000
0001
,
0101
0000
1010
0000
,
0010
0100
0010
1000
,
0220
0000
0000
0330
,
0001
0000
0001
0000
,
1000
0000
1000
0000
,
0010
0000
0010
0000
,
0100
0000
0100
0000
,
0001
0000
0010
0000
,
0100
0000
1000
0000
,
0010
0010
0010
0010
,
1000
0001
1000
0100
,
1000
1000
0001
0100
,
0000
0010
0100
0010
,
0100
0100
0001
0010
,
0000
0001
1000
0100
,
1000
0010
0100
0001
,
0000
0010
0001
0100
,
0101
0000
1100
0000
,
0001
1000
0010
0100
,
0001
0001
0010
0100
,
0000
1000
0010
1000
,
0100
0100
0010
0001
,
0000
1000
0001
1000
,
0010
0100
0100
0001
,
0000
0010
0001
1000
,
1010
0000
0011
0000
,
0100
0001
0001
1000
,
0010
1000
0100
0000
,
0010
0001
0100
0000
,
0001
0010
0001
0000
,
1000
0100
1000
0001
,
0100
0010
1000
0000
,
0010
1000
0100
0000
,
0010
0001
0100
0000
,
0001
0100
0010
0110
,
1001
0000
0000
0000
;

//---------------dance-single - ----------------
#NOTES:
     dance-single:
     :
     Medium:
     9:
     :
0000
0000
0000
0000
,
0000
0000
0000
0000
,
0000
0000
0000
0000
,
0000
0000
0000
0000
,
0000
0010
1000
0000
0100
0010
0000
0001
,
0000
1000
0001
0000
1000
0100
0000
0010
,
0000
0001
0100
0000
0001
1000
0000
0010
,
0000
1000
0010
0000
0100
0001
0000
0010
,
0000
0001
1000
0000
0100
0010
0000
0001
,
0000
0100
0010
0000
0010
1000
0000
0001
,
0000
0100
0001
0000
0010
0100
0000
1000
,
0000
0010
1000
0000
0001
1000
0000
0100
,
0000
0100
0010
0000
0001
1000
0000
0001
,
0000
0010
0100
0000
0010
0001
0000
1000
,
0000
0010
1000
0000
0100
1000
0000
0001
,
0000
0010
0001
0000
0100
0010
0000
1000
,
0002
0000
0000
0023
0000
0000
0230
0000
,
0000
2300
0000
0000
3020
0000
0130
0000
,
0202
0000
0000
0300
,
0000
1000
2003
0000
0001
0000
3100
0000
,
1000
0010
0000
0100
0000
0010
0000
1000
,
0000
0100
0000
0010
0000
0100
0000
1000
,
0000
0001
0000
0010
0000
0100
0000
0010
,
0000
0001
0000
0100
0000
0001
0000
1000
,
0000
0001
0000
0100
0000
0010
0000
1000
,
0000
0001
0000
1000
0000
0001
0000
0100
,
0020
0000
0030
1000
0200
0000
0300
0010
,
0001
0100
0002
0000
2003
0000
3100
0000
,
1100
0000
0101
0000
0010
1000
0001
0100
,
0000
0000
0001
0010
0001
0000
1000
0100
,
1000
0000
1100
0000
0010
0100
0010
1000
,
0000
0000
0001
0010
0100
0010
0001
0000
,
0011
0000
1010
0000
0100
0010
1000
0001
,
0000
0000
0010
0001
0100
0000
0010
1000
,
0200
0000
0300
0010
0002
0000
0003
1000
,
0010
1000
0200
0000
0320
0000
0031
1000
,
0002
0000
0000
0200
0000
0000
0003
0000
,
0320
0000
0000
0000
0000
1030
0010
0200
,
0000
0000
0000
0302
0000
0000
0000
2003
,
0000
0010
0010
3010
,
1000
0001
1000
0001
,
0200
0000
0000
0000
0000
0310
1000
0002
,
0000
0000
0000
2003
0000
0000
0000
3020
,
0000
0100
0100
0130
,
0010
1000
0002
0000
2003
0000
3100
1000
,
0001
0100
0000
0100
0000
0100
0000
0100
,
0000
0010
0000
0010
0000
0010
0000
0010
,
0000
1000
0000
1000
0000
1000
0000
1000
,
0000
0001
0000
0001
0000
0001
0000
0001
,
0000
0010
0000
0001
0000
1000
0000
0100
,
0000
1000
0000
0010
0000
0100
0000
0001
,
2000
0000
3000
0100
0020
0000
0030
0001
,
0100
0010
2000
0000
3002
0000
0013
0000
,
0110
0000
1001
0000
1000
0010
0100
0001
,
0000
0000
1000
0100
1000
0000
0001
0100
,
0010
0000
1010
0000
1000
0100
1000
0001
,
0000
0000
0010
0001
1000
0000
0010
0100
,
0001
0000
0011
0000
0100
0010
1000
0001
,
0000
0000
1000
0001
0010
0000
0001
1000
,
0200
0000
0300
0010
0002
0000
0003
0100
,
0010
1000
0002
0000
0023
0000
0031
0100
,
1000
0100
0001
0000
0000
0010
0100
1000
,
0020
0000
0000
0230
0000
0001
0301
0000
,
0000
1000
0001
0000
1000
0010
0000
0100
,
0000
0001
0020
0000
0230
0000
1300
0001
,
0010
0001
1000
0000
0000
0010
0100
0001
,
2000
0000
0000
3002
0000
0010
0013
0000
,
0000
0001
0100
0000
0001
1000
0000
0010
,
0000
1000
0100
0000
0110
0000
0010
0001
,
1001
0000
0000
0000
;

//---------------dance-single - ----------------
#NOTES:
     dance-single:
     :
     Hard:
     12:
     :
0000
0000
0000
0000
,
0000
0000
0000
0000
,
0000
0000
0000
0000
,
0000
0000
0000
0000
,
0001
0100
1000
0100
0010
1000
0200
0000
,
0000
1000
1300
0001
0010
0001
0200
0000
,
0000
0010
0310
0000
1000
0001
1000
0100
,
0000
0100
0010
0000
0001
1000
0001
0100
,
0010
1000
0001
0010
1000
0010
0200
0000
,
0000
0001
0301
0100
1000
0010
2000
0000
,
0000
0100
3100
0000
1000
0010
0100
0001
,
0000
0001
0100
0000
0001
0010
0100
1000
,
0010
1000
0001
1000
0100
0010
0002
0000
,
0000
0103
0001
0010
1000
0010
0200
0000
,
1300
0100
0010
0000
0001
0100
0001
1000
,
0010
1000
0100
0000
0100
0010
0001
1000
,
0002
0100
0103
0020
1000
1030
0200
0000
,
0310
0001
2000
0000
3010
0100
0001
0000
,
0022
0000
0000
0030
,
0000
1000
2003
0000
3001
0100
0001
0100
,
0010
1000
0000
0000
1000
0100
0000
0000
0010
0000
0001
0000
1000
0000
0001
0000
,
0100
0000
0110
0010
1000
0001
1000
0100
,
0010
0001
0000
0000
0001
0100
0000
0000
0001
0000
1000
0000
0010
0000
1000
0000
,
0100
0000
1100
0001
1000
0010
0100
0001
,
0101
0000
1000
0001
0010
0100
1000
0010
,
0100
0000
1010
0100
0001
0010
0001
1000
,
0100
1000
0000
0000
0001
0000
0100
0000
0010
1000
0000
0000
0001
0000
0010
0000
,
0001
0100
1002
0000
1003
0001
1000
0100
,
0010
0001
0000
0000
1000
0100
0000
0000
1000
0000
0010
0000
0100
0000
0001
0000
,
0010
0100
1000
0010
1000
0001
1000
0100
,
0010
0100
0000
0000
1000
0000
0010
0000
0100
0000
1000
0000
0100
0000
0001
0000
,
0010
0100
0010
0001
0100
1000
0100
0001
,
0010
0100
0000
0100
1000
0000
0010
0000
0001
0000
0010
0000
1000
0000
0001
0000
,
0100
0010
1000
0100
0001
0100
0010
0100
,
1000
0010
0000
0000
0100
0000
0001
0000
0010
0100
0000
0000
1000
0000
0001
0000
,
0010
0100
1000
0010
1000
0001
0100
0010
,
2000
0000
0000
0002
0000
0000
3000
0000
,
0023
0000
0001
0000
0031
0100
0010
2000
,
0000
0000
3100
0020
0000
0000
0031
0200
,
1000
1000
0001
0301
,
0100
0100
0100
0100
,
0010
1000
0010
1000
0010
1000
0010
1000
,
0100
0010
0100
0010
0100
0010
0100
0010
,
0001
0100
0010
1000
0100
0010
0001
0100
,
0010
1000
0001
1000
0100
0001
0100
0010
,
0200
0000
2300
0000
3010
0100
0001
0010
,
0000
0000
0001
1000
0001
0010
1000
0010
,
0002
0000
0203
0000
0310
0100
0010
1000
,
0000
0000
0100
0001
0100
1000
0001
0100
,
0020
0000
1030
0001
1000
0100
0010
0001
,
0000
0000
0100
0001
0100
0010
1000
0001
,
0020
0000
0031
0100
2000
0000
3010
1000
,
0100
0010
0002
0000
1003
0010
1000
0010
,
1000
0001
0000
0000
0001
0010
0000
0000
0001
0000
0100
0000
0010
0000
1000
0000
,
0100
0010
1000
0010
0001
0100
0010
1000
,
0100
0010
0000
0000
0001
0000
0100
0000
1000
0000
0100
0000
0001
0000
0010
0000
,
0100
0001
0100
0010
0001
1000
0001
0100
,
0010
1000
0000
1000
0001
0000
0100
0000
0010
0000
0001
0000
0010
0000
1000
0000
,
0100
0010
0001
0100
0001
1000
0100
0010
,
0001
1000
0000
0000
0010
0000
0100
0000
0001
0010
0000
0000
0100
0000
1000
0000
,
0010
1000
1100
0000
0101
0001
0010
0100
,
1000
0010
1000
0001
0010
0100
1000
1010
,
0000
0001
1000
0001
0010
0100
1000
0001
,
0000
0011
0001
0100
0001
0010
0100
1000
,
0000
0010
1000
0010
0100
1000
0100
0001
,
0010
0100
0010
0001
0100
0010
1000
0100
,
0000
0100
0001
0100
1000
0001
1000
0010
,
0000
0010
0100
0001
1000
0100
0010
0001
,
0000
0100
0110
0000
0010
1000
0001
0100
,
1001
0000
0000
0000
;
