#TITLE:Bad Boy Birdwatch;
#SUBTITLE:;
#ARTIST:HyperJuice;
#TITLETRANSLIT:;
#SUBTITLETRANSLIT:;
#ARTISTTRANSLIT:;
#GENRE:;
#CREDIT:;
#MUSIC:Bad Boy Birdwatch.ogg;
#BANNER:Bad Boy Birdwatch.png;
#BACKGROUND:Bad Boy Birdwatch-bg.png;
#CDTITLE:;
#SAMPLESTART:31.875;
#SAMPLELENGTH:15.000;
#SELECTABLE:YES;
#OFFSET:0.000;
#BPMS:0.000=128.000;
#STOPS:;
#BGCHANGES:;
#FGCHANGES:;

//--------------- dance-single - ----------------
#NOTES:
     dance-single:
     :
     Beginner:
     4:
     0,0,0,0,0:
0000
0000
0000
0000
,
0000
0000
0000
0000
,
0000
0000
0000
0000
,
0000
0000
0000
0000
,
0000
0000
0000
0000
,
0001
0000
1000
0000
,
0001
0000
1000
0000
,
0010
0000
0100
0000
,
0010
0000
0100
0000
,
0001
0001
0010
0000
,
0001
0001
0100
0000
,
1000
1000
0010
0000
,
1000
1000
0100
0000
,
1000
0000
0010
0000
,
0001
0000
0010
0000
,
1000
1000
1000
0000
,
2002
0000
3003
0000
,
0001
0000
0010
0000
,
0001
0001
0100
0000
,
1000
0000
0010
0000
,
1000
1000
0100
0000
,
0010
0000
0001
0000
,
1000
0000
0010
0000
,
0110
0000
0110
0000
,
1001
0000
1001
0000
,
1000
1000
0100
0000
,
1000
1000
0010
0000
,
0001
0001
0100
0000
,
0001
0001
0010
0000
,
0001
1000
0001
0000
,
1000
0001
1000
0000
,
0110
0000
0110
0000
,
1001
0000
1001
0000
,
0001
0000
0010
0000
,
0001
0000
0010
0000
,
0100
0000
1000
0000
,
0100
0000
1000
0000
,
0010
0010
0100
0000
,
0010
0010
0100
0000
,
0001
0001
1000
1000
,
0002
0000
0003
0000
,
0001
0000
0101
0000
,
1010
0000
1000
1000
,
1000
0000
1100
0000
,
0011
0000
0001
0001
,
0001
0000
0110
0000
,
1001
0000
1000
1000
,
1000
0000
0010
0000
,
0100
0100
0010
0000
,
0220
0000
0000
0330
,
1001
0000
0000
0000
;

//--------------- dance-single - ----------------
#NOTES:
     dance-single:
     :
     Easy:
     8:
     0,0,0,0,0:
0000
0000
0000
0000
,
0000
0000
0000
0000
,
0000
0000
0000
0000
,
0000
0000
0000
0000
,
0000
0000
0000
0000
,
2000
0100
0010
0001
,
3002
0100
0010
1000
,
2003
0100
0010
3001
,
0002
0100
0010
2003
,
3100
0110
0001
0011
,
1000
0000
1010
0000
0001
1000
0001
0000
,
0100
0110
1000
1010
,
0001
0000
0011
0000
1000
0001
1000
0000
,
0001
0100
0001
0000
1000
0100
1000
0000
,
0001
0001
0001
0000
1000
0010
1000
0000
,
0001
0010
0100
0000
1000
0010
0100
0000
,
2002
0000
0000
3003
,
1000
0010
1000
0000
0100
0010
0100
0000
,
1000
0010
1000
0000
0100
0000
0110
0000
,
0001
0010
0001
0000
0100
0010
0100
0000
,
0001
0010
0001
0000
0200
0000
0320
0000
,
1030
0001
1000
0000
0010
0100
0010
0000
,
1000
0001
1000
0000
0100
0010
0100
0000
,
0220
0330
2002
3003
,
0002
0000
2003
0000
3010
0010
0100
0000
,
0001
0010
0100
0000
0010
0001
0100
0000
,
0001
0010
0100
0000
0010
0001
0100
0000
,
0010
1000
0100
0000
1000
0010
0100
0000
,
0010
1000
0100
0000
0010
0100
0010
0000
,
0001
1000
0100
0000
1000
0001
0100
0000
,
0001
1000
0100
0000
0010
0100
0020
0000
,
0031
0101
1100
0101
,
1001
0000
1000
0001
0000
0001
1000
0000
,
0010
0000
0010
1000
0100
0000
0100
1000
,
0010
0000
0010
0100
0001
0000
1000
0001
,
1000
0000
0010
0100
0001
0000
0001
0010
,
0100
0000
0100
0010
0001
0000
2000
0000
,
3001
0101
1100
0101
,
1000
1100
0101
1100
,
0010
0010
0100
0100
,
0110
1001
0220
0330
,
1000
0100
0110
0011
,
0001
0000
0000
0100
0000
0000
0010
0000
0010
0000
0010
0000
,
0110
0001
0110
1010
,
0001
0000
0000
0010
0000
0010
0000
0010
0000
0110
0000
0000
,
1000
1100
0101
1100
,
1020
0000
0000
0230
0000
0000
0310
0000
0010
0000
0010
0000
,
2000
0100
3002
0100
,
0013
0000
0010
0000
0010
0000
0100
0000
0100
0000
0100
0000
,
0220
0000
0000
0330
,
1001
0000
0000
0000
;

//--------------- dance-single - ----------------
#NOTES:
     dance-single:
     :
     Medium:
     12:
     0.185265,0.236085,0.113218,0.174973,0,126,115,11,17,0,0,0.185265,0.236085,0.113218,0.174973,0,126,115,11,17,0,0:
0000
0000
0000
0000
,
0000
0000
0000
0000
,
0000
0000
0000
0000
,
0000
0000
0000
0000
,
0000
0000
0000
0000
,
1000
0000
0100
0000
1000
0100
0010
0001
,
1000
0000
0010
0000
1000
0010
0100
0000
,
0001
0000
0010
0000
0001
0010
0100
1000
,
0001
0000
0100
0000
0001
0100
0020
0000
,
1030
0100
1000
0100
0010
0100
0010
0100
,
0001
0100
0001
0100
1000
0001
1001
0000
,
1000
0010
1000
0010
0100
0010
0100
0010
,
0001
0010
0001
0010
1000
0001
1001
0000
,
1000
0010
0100
0000
1000
0100
0001
0000
,
0001
0010
0100
0000
0001
0100
1000
0000
,
0010
0010
0100
0100
0010
0010
0100
0100
,
2002
0000
3003
0000
1000
0001
1001
0000
,
1000
0000
0000
1000
0100
0000
0010
0000
0001
0000
0000
0001
0100
0000
0010
0000
,
1000
0000
0000
1000
0100
0000
0010
0000
0001
0000
1000
0000
0020
0000
0230
0000
,
0301
0000
0000
0001
0010
0000
0100
0000
1000
0000
0000
1000
0010
0000
0100
0000
,
0001
0000
0000
0001
0010
0000
0100
0000
1000
0000
0001
0000
2000
0000
0000
0000
,
3001
0000
0000
0001
0100
0000
0001
0000
1000
0000
0000
1000
0100
0000
1000
0000
,
0001
0000
0000
0001
0100
0000
0001
0000
1000
0000
0100
0000
0020
0000
0030
0000
,
2002
3003
0220
0330
,
2002
3003
0220
0330
1000
0001
1001
0000
,
0001
0000
0000
0001
0010
0000
1000
0000
0010
0000
0000
0010
1000
0000
0010
0000
,
0001
0000
0000
0001
0010
0000
1000
0000
0010
0000
0001
0000
0100
0000
0010
0000
,
1000
0000
0000
1000
0100
0000
0001
0000
0100
0000
0000
0100
0001
0000
0100
0000
,
1000
0000
0000
1000
0100
0000
0001
0000
0100
0000
1000
0000
0010
0000
0100
0000
,
0001
0000
0000
0001
0100
0000
1000
0000
0001
0000
0000
0001
0010
0000
1000
0000
,
0001
0000
0000
0001
0100
0000
1000
0000
0100
0000
0001
0000
2000
0000
0000
0000
,
3001
0010
0001
0100
0001
0010
0001
0100
,
0101
0000
1000
1100
0000
0101
2100
0000
,
3001
0100
0020
0000
1030
0001
0200
0000
,
0310
1000
0002
0000
1003
1000
0001
0001
,
1000
0100
0020
0000
0031
1000
0200
0000
,
0310
0001
2000
0000
3010
0100
0020
0000
,
1030
0100
1000
0100
0010
0001
0010
0001
,
0100
0010
0100
0010
1000
0001
1000
0001
,
0100
0000
0100
0010
0000
0010
0100
0000
0100
0010
0000
0010
,
1000
1100
0101
1100
,
1001
0000
0000
1000
0000
1000
0010
0000
0010
0001
0000
0001
,
0020
0000
0000
1030
0001
1000
0001
0000
0001
0010
0000
0000
,
1001
0000
0000
0001
0000
0001
0010
0000
0010
1000
0000
1000
,
0020
0000
0000
0031
1000
0001
1000
0000
1000
0010
0000
0000
,
1001
0000
0000
0001
0000
0001
0010
0000
0010
1000
0000
1000
,
0002
0000
0000
0203
0000
0000
1300
0000
1000
0001
1000
0001
,
2000
0000
0000
3010
0000
0010
0100
0000
0100
0010
0000
0010
,
0100
0000
0001
0010
0000
1000
0001
0000
0100
1000
0000
0000
,
2002
0000
0000
3003
,
0110
0000
0000
0000
;

//--------------- dance-single - ----------------
#NOTES:
     dance-single:
     :
     Hard:
     16:
     0,0,0,0,0:
0000
0000
0000
0000
,
0000
0000
0000
0000
,
0000
0000
0000
0000
,
0000
0000
0000
0000
,
0000
0000
0000
0000
,
1000
0000
0100
0010
0000
0100
0020
0000
0000
0031
0100
0000
0001
0000
0100
0000
,
0001
0000
0010
0100
0000
0010
0200
0000
0000
1300
0010
0000
1000
0000
0010
0000
,
1000
0000
0001
0100
0000
0001
0200
0000
0000
0310
1000
0000
0001
0000
1000
0000
,
0001
0000
1000
0100
0000
1000
0200
0000
0000
0310
0001
0000
2000
0000
0000
0000
,
3001
0000
0001
0100
0001
0100
0010
1000
0001
0000
0101
0000
1000
0100
0010
0001
,
1000
0000
1100
0000
0001
0100
0010
1000
0001
0000
0101
0000
2200
0000
3300
0000
,
1000
0000
1000
0010
1000
0010
0100
0001
1000
0000
1010
0000
0001
0010
0100
1000
,
0001
0000
0011
0000
1000
0010
0100
0001
1000
0000
1010
0000
0022
0000
0033
0000
,
0001
0000
0001
0100
0010
0000
0010
1000
0001
0000
0001
0100
0010
0000
0010
1000
,
0100
0000
0100
0010
0001
0000
0001
1000
0100
0000
0100
0010
0001
0000
0001
0100
,
0010
1000
0010
1000
0100
1000
0100
1000
0001
0010
0001
0010
0001
0100
0001
0100
,
0020
0000
0000
0000
0130
0010
0110
1001
,
1000
0100
1000
0000
01M0
0000
0101
0000
0001
0010
0001
0000
0M10
0000
1010
0000
,
1000
0000
0000
0000
0000
0000
0100
0000
0000
0000
0000
0000
1000
0000
0000
0000
0000
0000
0000
0000
0000
0000
0000
0000
01M0
0000
0000
0000
0000
0000
0000
0000
0000
0000
0000
0000
0101
0000
0000
0000
0000
0000
0000
0000
0000
0000
0000
0000
0001
0000
0000
0000
0010
0000
0000
0000
0001
0000
0000
0000
0010
0000
0000
0000
0000
0000
0100
0000
0000
0000
0000
0000
2000
0000
0000
3000
0000
0000
0000
0000
0000
0000
0000
0000
0002
0000
0000
0003
0000
0000
0000
0000
0000
0000
0000
0000
,
1000
0100
1000
0000
0M10
0000
0011
0000
0001
0100
0001
0000
01M0
0000
1100
0000
,
1000
0000
0000
0010
0000
0000
1000
0000
0000
0000
0000
0000
0M10
0000
0000
0000
0000
0000
0011
0000
0000
0000
0000
0000
0001
0000
0100
0000
0001
0000
0100
0000
0000
0010
0000
0000
1000
0000
0000
0000
0001
0000
0000
0000
1000
0000
0000
0000
,
0001
0100
01M0
0000
1000
0000
1001
0000
1000
0100
01M0
0000
0001
0000
1001
0000
,
0001
0000
0000
0100
0000
0000
01M0
0000
0000
0000
0000
0000
1000
0000
0000
0000
0000
0000
1001
0000
0000
0000
0000
0000
1000
0000
0100
0000
1000
0000
0100
0000
0000
0010
0000
0000
0002
0000
0000
0000
0000
0000
0000
0000
0000
0000
0000
0000
,
1003
0010
1000
0000
0202
0000
0303
0000
0001
0010
0001
0000
2200
0000
3300
0000
,
1000
0000
0000
0010
0000
0000
1000
0000
0000
0000
0000
0000
0001
0000
0000
0010
0000
0000
0001
0000
0000
0000
0000
0000
0200
0000
0000
0000
0000
0000
0320
0000
0000
0000
0000
0000
1030
0000
0000
0000
0001
0000
0000
0000
1000
0000
0000
0000
,
0001
0100
1000
0000
1M00
0000
1010
0000
1000
0100
0001
0000
0M01
0000
0011
0000
,
0001
0000
0000
0100
0000
0000
1000
0000
0000
0000
0000
0000
1M00
0000
0000
0000
0000
0000
1010
0000
0000
0000
0000
0000
1000
0000
0100
0000
0010
0000
0001
0000
0000
1000
0000
0000
0001
0000
0000
1000
0000
0000
0020
0000
0000
0000
0000
0000
,
1030
0100
0001
0000
0M01
0000
0011
0000
0001
0100
1000
0000
1M00
0000
1010
0000
,
1000
0000
0000
0100
0000
0000
0001
0000
0000
0000
0000
0000
0M01
0000
0000
0000
0000
0000
0011
0000
0000
0000
0000
0000
0001
0000
0100
0000
0010
0000
1000
0000
0000
0001
0000
0000
0100
0000
0000
0010
0000
0000
0200
0000
0000
0000
0000
0000
,
0301
0010
0M10
0000
1000
0000
1100
0000
1000
0010
0M10
0000
0001
0000
0101
0000
,
0001
0010
0M10
0000
1000
0000
1100
0000
1000
0010
0M10
0000
0002
0000
0003
0000
,
1001
0000
100M
0100
0010
0000
100M
0010
0100
0000
100M
0100
0010
0000
100M
0010
,
0100
0000
0001
0000
0110
0000
1010
0000
0001
0000
0110
0000
0010
1000
0001
1000
,
0001
0000
0100
0000
0010
1000
0010
1000
0010
0000
0100
0000
1000
0100
1000
0100
,
1000
0000
0100
0000
0001
0100
0001
0100
0001
0000
0010
0000
0200
0000
0320
0000
,
0031
0000
1000
0000
0100
0001
0100
0001
0100
0000
0010
0000
0001
0010
0001
0010
,
0001
0000
0100
0000
1000
0100
1000
0100
1000
0000
0100
0000
0002
0000
0000
0000
,
1003
0000
1000
0001
0100
0000
0100
0001
1000
0000
1000
0001
0100
0000
0010
1000
,
0001
0000
0001
1000
0100
0000
0100
1000
0001
0000
0001
1000
0100
0000
0010
0001
,
1000
0100
1000
0001
0100
0001
1000
0010
1000
0001
0010
0001
,
1001
0000
0000
0001
0001
1000
2000
0000
0000
3100
0010
0100
,
0020
0000
0000
0031
1000
0100
1000
0001
0100
0001
0000
0M10
,
2000
0000
0000
0000
0000
0000
3001
0000
0010
0000
1000
0M00
1000
0M00
1000
0M00
1000
0M00
1000
0000
0010
0000
0001
0000
,
1000
0000
0000
1000
0001
0010
0001
1000
0010
1000
0000
01M0
,
0001
0000
0000
0000
0010
0000
0000
0000
0200
0300
0000
0000
1000
0000
0000
0000
0010
0000
0000
0000
0200
0300
0000
0000
0001
0000
0000
0000
0010
0000
0000
0000
0200
0300
0000
0000
1000
0000
0000
0000
0010
0000
0000
0000
0100
0000
0000
0000
,
0002
0000
0000
1003
0100
0010
1000
0010
0100
1000
0010
0100
,
1000
0000
1000
0200
0000
0000
0301
0000
0001
0010
0100
0100
,
2000
0000
0000
3010
0100
0001
0010
0100
0001
1000
0010
0001
,
1000
0010
0001
1000
0100
0010
1000
0100
0010
1000
0010
0001
,
2000
0000
0000
3000
,
0110
0000
0000
0000
;
