#TITLE:BAM!;
#SUBTITLE:;
#ARTIST:Tim Ismag;
#TITLETRANSLIT:;
#SUBTITLETRANSLIT:;
#ARTISTTRANSLIT:;
#GENRE:;
#CREDIT:;
#BANNER:bn_bam.png;
#BACKGROUND:bg_bam.png;
#LYRICSPATH:;
#CDTITLE:;
#MUSIC:Tim Ismag - BAM! (Original Mix).ogg;
#OFFSET:-0.600000;
#SAMPLESTART:60.599998;
#SAMPLELENGTH:12.000000;
#SELECTABLE:YES;
#BPMS:0.000000=100.000000
;
#STOPS:
;
#BGCHANGES:;
#KEYSOUNDS:;
#ATTACKS:;

//---------------dance-single - ----------------
#NOTES:
     dance-single:
     :
     Challenge:
     15:
     0.642334,0.908272,0.000000,0.128205,0.993590,491.000000,491.000000,0.000000,14.000000,72.000000,0.000000,0.642334,0.908272,0.000000,0.128205,0.993590,491.000000,491.000000,0.000000,14.000000,72.000000,0.000000:
// measure 0
0000
0000
0000
0000
,  // measure 1
0000
0000
0000
0000
,  // measure 2
0000
0000
0000
0000
,  // measure 3
0000
0000
0000
0000
,  // measure 4
0000
0000
MMMM
MMMM
MMMM
0000
1000
0001
,  // measure 5
0M10
0010
0010
0010
1000
0100
0001
0000
1000
0010
0001
0000
0100
0000
0002
0000
,  // measure 6
1003
0100
0001
0100
1000
0010
0M01
0001
0100
0010
1000
0000
0001
0000
2000
0000
,  // measure 7
3010
0010
0100
0000
0001
0100
1000
0000
0001
0010
1000
0000
0001
0000
0010
0000
,  // measure 8
0001
0100
1000
0100
0010
1000
0100
0010
0100
1000
0001
0010
0001
0000
2000
0000
,  // measure 9
3M10
0010
0010
0010
0001
0010
1000
0000
0001
0100
1000
0000
0010
0000
1000
1000
,  // measure 10
0010
0100
1000
0100
0001
0010
1000
0010
0001
0000
0100
0000
0010
0000
2000
0000
,  // measure 11
3001
0001
0100
0000
0001
0010
1000
0000
0001
0100
1000
0000
0001
0000
2000
0000
,  // measure 12
3010
0100
1000
0100
0001
0010
0001
1000
0010
1000
0100
1000
MMMM
0000
0000
0000
,  // measure 13
0001
0001
0100
0100
0001
0010
1000
0000
0001
0100
1000
0000
0001
0000
1000
1000
,  // measure 14
0100
1000
0100
0000
1000
0000
0000
0000
0001
0000
0010
0000
1M00
0000
1000
0000
0010
0000
0100
0000
0001
0000
0000
0000
1000
0000
0000
0000
0002
0000
0000
0000
,  // measure 15
0103
0000
MMM0
M000
00M0
M000
00M0
M000
0001
0000
0010
0000
1000
0000
0000
0000
0001
0000
0100
0000
1000
0000
0000
0000
0001
0000
0000
0000
0100
0000
0000
0000
,  // measure 16
0010
0100
1000
0100
0001
0010
0100
1000
0001
0010
0001
1000
0100
0000
2000
0000
,  // measure 17
301M
0000
0010
0000
0010
0000
0010
0000
0001
1000
0001
0000
1000
0000
0000
0000
0001
0000
0100
0000
1000
0000
0000
0000
0100
0000
0000
0000
0002
0000
0000
0000
,  // measure 18
1003
0000
0100
0000
0001
0000
0100
0000
0010
0000
0001
1000
0001
0000
1000
0000
0100
0000
0000
0000
0100
0000
0000
0000
1000
0000
0000
0000
0002
0000
0000
0000
,  // measure 19
0013
0010
0100
MMM0
1000
0100
0001
0000
1000
0010
0001
0000
1000
0000
0002
0000
,  // measure 20
0103
0010
0001
0010
1000
0100
1000
0010
0100
0001
0010
0001
1000
0010
0000
0010
,  // measure 21
0100
0000
0001
0010
0000
0010
0000
0001
0100
0000
0001
1000
0001
0100
0000
0100
,  // measure 22
0010
0000
0000
0000
0000
0000
1000
0000
0000
0100
0000
0000
0000
0000
0000
0100
0000
0000
0000
0000
0000
1000
0000
0000
0010
0000
0000
0000
0000
0000
0100
0000
0010
0000
0100
0000
0001
0000
0000
1000
0000
0000
0001
0000
0000
1000
0000
0000
,  // measure 23
0001
0000
1000
0000
0001
0000
1000
0000
0001
0000
1000
0000
0001
0000
1000
0000
0001
0010
0001
0000
1000
0001
1000
0000
0001
0010
0001
0010
0001
0000
1000
0001
,  // measure 24
1000
0001
1000
0000
0010
0100
0010
0100
0010
0000
1000
0001
1000
0001
1000
0001
0400
0000
0000
0000
0000
0000
0300
0000
MMMM
0000
0000
0000
0000
0000
0000
0000
,  // measure 25
M100
0100
0100
0100
1000
1000
0M10
0010
0010
0010
0010
0010
0001
0000
1000
0000
,  // measure 26
010M
0100
0100
0100
0001
0000
1000
1000
0010
0010
0100
0100
MMMM
0000
0000
0000
,  // measure 27
01M0
0100
0100
0100
1000
1000
0001
0001
0M10
0010
0010
0010
1000
0000
0001
0000
,  // measure 28
1000
0100
0001
0100
1000
1000
0100
0100
0010
0010
0001
0001
0100
0000
0002
0000
,  // measure 29
01M3
0100
0100
0100
1000
0100
0001
0000
1000
0010
0001
0000
0100
0000
0002
0000
,  // measure 30
1003
0010
0001
0010
1000
0100
00M1
0001
1000
0010
1000
0000
MMMM
0000
0000
0000
,  // measure 31
0001
0001
0100
MMM0
0001
0010
1000
0000
0001
0100
1000
0000
0001
0000
0100
0000
,  // measure 32
0010
0100
1000
0100
0001
0010
0001
0100
0010
1000
0100
0010
MMMM
0000
0000
0000
,  // measure 33
0M10
0010
0010
0010
1000
0100
0001
0000
1000
0010
0001
0000
0100
0000
0001
0001
,  // measure 34
1000
0100
0001
0100
1000
0010
0001
0010
1000
0000
0100
0000
MMMM
0000
0000
0000
,  // measure 35
1000
1000
0001
0000
1000
0100
0001
0000
1000
0010
0001
0000
0100
0000
0002
0000
,  // measure 36
1003
0100
0001
0100
0010
0001
0100
0010
1000
0001
0010
0001
MMMM
0000
0000
0000
,  // measure 37
1000
1000
0010
0010
1000
0100
0001
0000
1000
0010
0001
0000
1000
0000
01M0
0100
,  // measure 38
0100
0100
0001
0000
1000
0100
00M1
0001
1000
0010
0100
0000
0010
0000
2000
0000
,  // measure 39
3001
0MMM
0000
0000
0001
0010
1000
0000
0001
0100
1000
0000
0001
0000
0010
0000
,  // measure 40
0001
0100
1000
0100
0001
0010
0001
1000
0010
1000
0100
1000
0001
0100
0000
0100
,  // measure 41
0010
0000
1000
0100
0000
0100
0000
1000
0010
0000
1000
0001
1000
0010
0000
0010
,  // measure 42
0100
0000
0000
0000
0000
0000
0001
0000
0000
0010
0000
0000
0000
0000
0000
0010
0000
0000
0000
0000
0000
0001
0000
0000
0100
0000
0000
0000
0000
0000
0010
0000
0100
0000
0010
0000
1000
0000
0000
0000
0000
0000
1000
0000
0000
0000
0000
0000
,  // measure 43
1000
0000
0000
0000
0000
0000
1000
0000
0000
0000
0000
0000
1000
0000
0000
0010
0000
0000
0010
0000
0000
0100
0000
0000
0001
0000
1000
0000
0001
0000
1000
0000
0001
0000
1000
0000
0001
0000
0000
0000
0000
0000
0000
0000
0400
0000
0000
0000
,  // measure 44
0000
0000
0000
0000
,  // measure 45
0000
0300
0000
0000
0000
0000
0000
0000
0000
0000
0000
0000
;
