#TITLE:BADTEK;
#SUBTITLE:;
#ARTIST:EBIMAYO;
#TITLETRANSLIT:;
#SUBTITLETRANSLIT:;
#ARTISTTRANSLIT:;
#GENRE:;
#CREDIT:;
#MUSIC:BADTEK.ogg;
#BANNER:BADTEK.png;
#BACKGROUND:BADTEK-bg.png;
#CDTITLE:;
#SAMPLESTART:93.556;
#SAMPLELENGTH:15.000;
#SELECTABLE:YES;
#OFFSET:1.181;
#BPMS:0.000=190.000;
#STOPS:;
#BGCHANGES:;
#FGCHANGES:;

//--------------- dance-single - ----------------
#NOTES:
     dance-single:
     :
     Beginner:
     5:
     0,0,0,0,0:
0000
0000
0000
0000
,
0000
0000
0000
0000
,
0000
0000
0000
0000
,
0000
0000
0000
0000
,
0000
0000
0000
0000
,
0000
0000
0000
0000
,
0001
0000
0001
0000
,
0100
0000
0100
0000
,
0010
0000
0100
0000
,
0010
0010
0010
0000
,
1000
0000
1000
0000
,
0010
0010
0010
0000
,
0100
0000
0100
0000
,
0001
0000
0001
0000
,
0010
0000
0100
0000
,
0010
0010
0010
0000
,
1000
1000
1000
0000
,
0220
0000
0330
0000
,
0001
0000
0010
0000
,
0001
0001
0001
0000
,
0100
0100
0100
0000
,
1000
1000
1000
0000
,
1000
0000
0010
0000
,
1000
1000
1000
0000
,
0100
0100
0100
0000
,
0002
0000
0003
0000
,
1001
0000
0100
0000
,
0010
0000
1000
0000
,
0001
0001
1000
0000
,
0100
0100
0100
0000
,
0010
0000
0010
0000
,
0100
0000
0100
0000
,
1000
0000
0001
0000
,
1000
1000
1000
0000
,
0002
0000
0003
0000
,
0200
0000
0300
0000
,
0020
0000
0030
0000
,
2000
0000
3000
0000
,
0200
0000
0300
0000
,
0020
0000
0030
0000
,
0002
0000
0003
0000
,
2000
0000
3000
0000
,
0001
0000
0100
0000
,
0010
0010
0010
0000
,
1000
0000
0100
0000
,
0010
0010
0010
0000
,
0001
0000
0100
0000
,
0001
0001
0001
0000
,
1000
0000
0001
0000
,
1000
0000
0001
0000
,
2002
0000
3003
0000
,
0220
0000
0330
0000
,
2002
0000
3003
0000
,
0220
0000
0330
0000
,
1000
1000
1000
0000
,
0001
0001
0001
0000
,
0010
0010
0100
0100
,
0020
0000
0030
0000
,
0001
0001
0100
0000
,
0010
0010
1000
0000
,
0001
0001
1000
0000
,
1000
1000
1000
0000
,
0001
0001
0010
0000
,
0100
0100
1000
0000
,
0010
0010
0010
0000
,
0100
0000
0010
0000
,
2002
0000
3003
0000
,
0001
0010
0001
0000
,
1000
0010
1000
0000
,
0001
0100
0002
0000
,
1003
1000
0100
0000
,
0010
0010
0001
0000
,
1000
0000
0001
0000
,
1000
1000
0001
0001
,
2000
0000
3000
0000
,
1001
0000
0110
0000
,
0010
0010
0010
0000
,
1000
0100
0010
0000
,
0001
0100
0010
0000
,
1000
1000
1000
0000
,
0001
0001
0001
0000
,
0010
0000
0100
0000
,
0010
0010
0010
0000
,
1001
0000
0110
0000
,
0010
0010
0010
0000
,
0001
0100
0010
0000
,
1000
0100
0010
0000
,
0001
0010
0001
0010
,
0001
0010
0001
0000
,
1000
0010
1000
0010
,
1000
0010
1000
0000
,
0200
0000
0000
0300
,
1001
0000
0000
0000
;

//--------------- dance-single - ----------------
#NOTES:
     dance-single:
     :
     Easy:
     8:
     0,0,0,0,0:
0000
0000
0000
0000
,
0000
0000
0000
0000
,
0000
0000
0000
0000
,
0000
0000
0000
0000
,
0000
0000
0000
0000
,
0000
0000
0000
0000
,
1000
0100
1000
0100
,
0010
0001
0010
0001
,
1000
1000
0001
0001
,
0100
0010
0220
0330
,
0010
1000
0001
0100
,
0010
0010
0100
0100
,
0001
0001
0010
0100
,
1000
1000
0010
0100
,
0001
0010
0100
1000
,
0010
0010
0100
0100
,
0001
1000
0001
1000
,
2002
0000
3003
0000
,
0001
0010
0100
0100
,
1000
0010
0100
0100
,
0001
0010
0001
0100
,
0001
0010
0110
0000
,
1000
0100
0010
0010
,
0001
0100
0010
0010
,
1000
0100
1000
0010
,
2000
0000
3002
0000
,
1003
0100
0010
0001
,
1000
1000
1000
0010
,
0100
0010
0110
1001
,
0001
0100
0010
0010
,
1000
0100
1000
0100
,
0010
0001
0010
0001
,
1000
0010
1000
0000
0001
0010
0001
0000
,
1000
0001
1000
0001
1000
0000
0000
0000
,
0120
0000
2030
0000
,
3002
0000
0023
0000
,
0230
0000
2300
0000
,
3002
0000
0203
0000
,
0320
2030
3020
2030
,
3002
0023
0032
0013
,
0220
0330
2002
3003
,
0220
0330
2002
3003
,
0001
0000
0100
0000
0001
0100
0001
0000
,
0100
0000
0010
0000
1000
0010
1000
0000
,
0100
1000
0100
0010
,
0001
0001
0001
0000
,
1000
0000
0010
0000
1000
0100
1000
0000
,
0100
0000
0010
0000
0001
0010
0001
0000
,
2002
3003
0220
0330
,
2002
3003
0220
0330
,
0101
0000
0110
0000
,
1010
0000
1000
1000
,
1100
0000
0110
0000
,
0011
0000
1001
0000
,
0001
0001
0010
0100
,
1000
1000
0010
0100
,
0001
1000
0001
1000
0001
1000
0001
0000
,
0220
0000
0000
0330
,
1000
0000
0100
0000
0010
0001
0010
0000
,
0001
0000
0100
0000
0010
1000
0010
0000
,
1000
0100
1000
0010
,
2000
3200
0320
0000
,
0031
0000
0100
0000
0001
0100
0001
0000
,
0100
0000
0010
0000
1000
0010
1000
0000
,
0001
0010
1000
0010
,
0002
0003
2000
3000
,
0220
0000
0000
0330
,
1000
0000
0100
0000
0010
0001
0010
0000
,
0001
0100
0001
0010
,
0100
1000
0100
0000
0020
0000
0000
0000
,
0031
0000
0100
0000
0001
0100
0001
0000
,
1000
0000
0010
0000
1000
0010
1000
0000
,
0100
0100
0010
0010
,
0001
1000
2002
0000
,
3003
0000
0000
0000
,
0001
0010
0100
1000
,
0100
1000
0100
0010
,
0001
0001
0100
0100
,
1000
1000
0100
0100
,
0001
0010
0100
1000
,
0020
0000
0230
0000
,
0310
1000
0100
1000
,
0010
0000
1000
0000
0100
1000
0100
0000
,
1000
0010
0100
0001
,
0100
0001
0100
0010
,
1000
1000
0100
0100
,
0001
0001
0100
0100
,
1000
0010
0100
0001
,
0020
0000
0230
0000
,
0310
0010
0100
1000
,
0010
0010
0100
0001
,
2000
0000
0000
0000
,
3001
0000
0000
0000
;

//--------------- dance-single - ----------------
#NOTES:
     dance-single:
     :
     Medium:
     12:
     0,0,0,0,0:
0000
0000
0000
0000
,
0000
0000
0000
0000
,
0000
0000
0000
0000
,
0000
0000
0000
0000
,
0000
0000
0000
0000
,
0000
0000
0000
0000
,
0001
0100
0001
0100
,
0010
1000
0010
1000
,
0001
0010
0001
0010
0100
1000
0100
1000
,
0001
0100
0010
1000
0001
0000
1001
0000
,
0012
0000
0100
0000
1003
0100
1000
0100
,
0010
0001
0100
0000
0010
1000
0100
0000
,
1000
0010
0010
0100
0001
0010
0010
0100
,
1000
0001
0100
0000
0010
0100
0010
0000
,
2010
0000
0100
0000
3001
0100
0001
0100
,
0010
1000
0100
0000
0010
0001
0100
0000
,
0001
0010
0001
0010
0100
1000
0100
1000
,
0002
0000
0000
0003
,
1000
0100
0001
0100
1000
0100
1000
0100
,
0010
0100
0010
0100
0001
0100
0001
0100
,
1000
0000
1010
0000
0001
0010
0001
0000
,
0001
0100
0001
0000
1000
0010
1000
0000
,
0001
0100
1000
0100
0001
0100
0001
0100
,
0010
0100
0010
0100
1000
0100
1000
0100
,
0001
0000
0011
0000
1000
0010
1000
0000
,
1000
0000
0100
0000
0000
0100
0000
0000
0010
0000
0000
0010
0000
0000
0001
0000
,
1000
0010
0100
0001
1000
0010
0100
0001
,
1000
0100
0010
0001
1000
1000
1000
0010
,
0100
0001
1000
0000
0100
1000
0001
0100
,
0010
0010
0010
0000
0100
0100
0100
0000
,
0001
0000
0011
0000
1010
0000
1000
0100
,
1000
1010
0011
0001
,
0100
0010
0100
0010
1000
0001
1000
0001
,
0010
0100
0010
0100
1000
0010
0100
0001
,
2000
0100
3100
0000
,
0002
0010
0013
0000
,
0200
0010
0310
0000
,
0020
0130
0002
1003
,
1000
0100
1000
0100
0010
0001
0010
0000
,
0001
0100
0001
0100
0010
1000
0010
0000
,
2002
3003
0220
0330
,
2002
3003
0220
0330
,
2000
0000
0100
0000
3100
0010
0001
0010
,
0000
1100
0000
0101
0000
0010
1000
0001
,
0000
0010
0001
0010
0001
0100
0020
0000
,
0030
0010
1000
0010
1000
0100
0020
0000
,
0032
0000
0100
0000
0103
0010
1000
0010
,
0000
1000
0001
1000
0000
0100
0010
0000
,
0022
0033
2020
3030
,
0202
0303
2200
3300
,
0120
0000
0100
0000
,
1000
0000
0000
0000
0000
0000
0031
0000
0001
1000
0000
1000
,
0020
0000
0001
0000
,
1000
0000
0200
0330
,
0001
0010
0001
0010
,
0100
1000
0100
1000
,
0001
0100
0001
0100
0010
1000
0010
1000
,
0100
0010
0001
0100
0010
0000
0110
0000
,
2001
0000
3020
0000
0130
1000
0100
1000
,
0100
0010
0100
0010
0100
0001
0100
0001
,
0020
0000
0230
0000
1300
0010
1000
0100
,
2000
3020
0032
0013
,
1002
0000
0023
0000
0130
0001
0100
0001
,
0100
0010
0100
0010
0100
1000
0100
1000
,
0020
0000
0230
0000
0301
0010
0001
0100
,
0002
0000
0103
0100
2000
0000
3200
0000
,
0301
0000
0110
1001
,
0001
0010
0001
0010
0100
0010
0100
0010
,
1000
0010
1000
0010
0100
0010
0100
0010
,
0001
0100
0001
0100
2000
0000
0000
0000
,
3100
0001
0100
0001
1000
0100
0010
0000
,
0100
1000
0100
1000
0001
0100
0010
0000
,
1000
0100
0010
0001
1000
0100
0010
0001
,
0100
0010
0100
0010
1000
0001
1000
0001
,
0100
0000
0000
0100
0000
0000
0010
0000
0000
0010
0000
0000
1001
0000
0000
0000
,
1100
0000
0101
0000
0001
0010
0100
1000
,
0000
1010
0000
0001
0100
0001
0010
0001
,
0000
0100
1000
0100
1000
0100
0001
0000
,
0010
0100
0001
0100
0001
0100
1000
0000
,
1010
0000
0110
0000
0001
0100
0001
0200
,
0000
0310
1000
0200
0000
0010
0310
0000
,
0011
0000
1010
0000
0011
0000
0001
0100
,
0010
1000
0001
1000
0001
0100
0010
0000
,
0101
0000
1100
0000
1000
0010
0100
0001
,
0000
0011
0000
1000
0100
1000
0010
1000
,
0000
0100
0001
0100
0001
0100
1000
0000
,
0010
0100
1000
0100
1000
0100
0001
0000
,
0001
0010
0001
0010
0100
1000
0001
0000
,
1000
0010
1000
0010
0100
0001
1000
0000
,
0001
0010
0001
0010
0100
0010
0100
0010
,
1000
0010
1000
0010
0100
0010
0100
0010
,
0001
0000
0100
0000
0000
0100
0000
0000
0010
0000
0010
0000
0010
0000
0000
0000
,
1001
0000
0000
0000
;

//--------------- dance-single - ----------------
#NOTES:
     dance-single:
     :
     Hard:
     16:
     0,0,0,0,0:
0000
0000
0000
0000
,
0000
0000
0000
0000
,
0000
0000
0000
0000
,
0000
0000
0000
0000
,
0000
0000
0000
0000
,
0000
0000
0000
0000
,
0001
0001
0100
0010
,
1000
1000
0100
0010
,
0001
0100
0001
0100
0010
1000
0010
1000
,
0001
0010
0001
0000
1000
0010
1000
0000
0001
1000
0001
1000
0001
0000
0000
0000
,
1001
0000
0000
0000
1000
0000
0010
0000
1000
0100
1000
0000
0100
0000
0010
0000
,
0001
0100
0001
0100
1000
0100
1000
0100
,
0001
0000
1000
0000
0001
0000
1000
0000
0100
0010
0100
0000
1000
0000
0001
0000
,
0100
0010
0100
0000
0001
0000
1000
0000
0100
0000
0100
0000
0100
0000
0000
0000
,
1001
0000
0000
0000
0001
0000
0010
0000
0001
0100
0001
0000
0100
0000
0010
0000
,
1000
0100
1000
0100
0001
0100
0001
0100
,
1000
0000
0001
0000
0100
0000
0010
0000
1000
0100
1000
0100
0010
0001
0010
0001
,
2000
0000
0000
0000
0000
0000
0000
0000
3010
0000
0010
0000
1000
0001
1000
0000
,
0100
0010
0001
0100
0001
1000
0010
1000
,
0001
0010
0100
0010
0001
0100
0010
0100
,
0010
1000
0001
0000
1000
0000
0100
0000
0010
0001
1000
0000
0001
0000
0100
0000
,
0010
1000
0001
0000
0010
0000
0100
0000
0010
0000
0010
0000
0010
0000
0000
0000
,
0001
0100
0010
1000
0100
1000
0001
0010
,
0001
1000
0010
0100
0010
1000
0100
0010
,
0100
1000
0001
0000
0100
0000
0010
0000
0100
0001
1000
0000
0100
0000
0010
0000
,
0001
0000
0001
0000
0000
0001
0000
0000
1000
0100
1000
0100
0010
0001
0010
0001
,
1000
0000
0010
0000
1000
0000
0010
0000
0100
0001
0100
0000
0010
0000
1000
0000
,
0001
0100
0001
0000
1000
0000
0010
0000
0100
0001
0100
0000
0010
0000
1000
0000
,
0100
0001
0100
0001
0100
1000
0100
1000
,
0010
0100
0010
0000
0100
0000
0001
0000
1000
0001
1000
0001
1000
0000
0100
0000
,
0010
0000
0010
0000
0001
0000
0001
0100
,
0010
0000
0010
0000
1000
0100
1000
0100
,
0010
0001
0010
0001
0100
0010
0100
0010
,
1000
0001
0100
0000
0001
1000
0100
0000
1000
0001
1000
0001
1000
0000
0000
0000
,
0001
0100
0020
0000
0130
1000
0100
2000
,
0000
3200
0000
0302
0000
1003
0010
1000
,
0100
0001
0100
0001
0100
1000
0001
0000
,
0100
1000
0100
1000
0100
0001
1000
0000
,
0001
0010
0001
0010
1000
0001
0100
2000
,
0000
3100
0010
0002
0000
0103
1000
0100
,
0002
0010
2003
0010
,
3200
0010
2300
0010
,
3001
0000
0100
0000
0001
0000
1000
0010
1000
0000
0100
0000
0010
0000
0001
0010
,
0001
0000
0100
0000
0010
0000
1000
0000
0001
0000
0010
0000
0100
0010
0100
0000
,
1000
0010
1000
0010
0001
0010
0001
0010
,
1000
0010
1000
0000
0001
0000
0100
0000
0001
0000
0010
0000
0001
0010
0001
0000
,
1000
0000
0100
0000
1000
0000
0100
0000
0001
0100
0001
0000
0100
0000
1000
0000
,
0100
1000
0100
0000
1000
0000
0010
0000
0001
0000
0010
0000
0001
0000
0010
0000
,
2000
0100
3002
0100
,
0023
0100
0032
0100
,
2003
3000
2200
3300
,
0022
0000
0000
0033
0000
0000
0001
0100
0010
0100
0010
1000
,
0002
0003
0202
0303
,
2020
3030
2002
3003
,
1000
0000
0100
0000
1000
0000
0100
0010
,
0001
0100
0001
0100
,
0010
0000
1000
0000
0001
0000
0010
0000
0100
1000
0100
1000
0001
0100
0001
0100
,
0020
0000
0030
1001
,
0001
0000
0100
0000
0010
0000
1000
0000
0001
0010
0001
0010
0001
0000
0100
0000
,
1000
0100
1000
0000
0100
0000
0001
0100
0001
0000
0010
0000
2000
0000
0000
0000
,
3010
0000
0001
0000
1000
0000
0010
0000
1000
0100
1000
0100
1000
0000
0001
0010
,
0002
0203
0302
0023
0032
0203
0320
0000
,
1030
0000
0100
0000
0010
0000
0001
0000
1000
0010
1000
0010
1000
0000
0100
0000
,
0001
0100
0001
0000
0100
0000
1000
0100
1000
0000
0010
0000
0002
0000
0000
0000
,
0013
0000
1000
0000
0001
0000
0100
0000
0001
0010
0001
0010
0001
0000
0100
0000
,
0020
0000
0000
0000
1030
0001
1000
0001
2000
0000
0000
0000
0002
0000
3003
0000
,
0220
0000
0000
0330
,
1000
0000
0010
1000
0010
0000
0100
0000
0001
0000
0010
0001
0010
0000
0100
0000
,
1000
0000
0010
1000
0010
0000
0100
0000
0001
0000
0010
0001
0010
0000
0100
0000
,
1000
0000
0001
0100
0010
0000
1000
0100
0020
0000
0000
0000
0000
0000
0000
0000
,
0031
0000
0100
0000
0001
0000
0100
0000
0010
1000
0010
1000
0010
0000
1000
0000
,
0100
1000
0100
0000
0010
0000
0001
0010
0001
0000
0010
0000
0200
0000
0000
0000
,
1300
1000
0010
0100
0001
0001
0100
0010
,
1000
0001
0100
0000
0001
1000
0100
0000
1000
0001
1000
0001
1000
0000
0000
0000
,
1000
0000
0000
0001
0000
0000
1000
0000
0001
0100
0010
0000
0100
0000
0010
1000
,
0001
0000
1001
0000
1000
0010
1000
0100
,
0010
0001
0100
0001
0010
0001
0100
0010
,
1000
0100
1000
0000
0100
0000
0001
0000
1000
0000
0010
0000
0002
0000
0000
0000
,
1003
0010
1000
0000
0010
0000
0001
0000
1000
0000
0100
0000
0002
0000
0000
0000
,
0103
0010
0100
0010
1000
0100
0001
1000
,
0010
0001
0010
1000
0010
0001
0010
0100
,
1000
0001
1000
0000
0100
0000
0010
0000
0001
1000
0001
0000
0100
0000
0010
0000
,
1000
0000
1000
0000
0001
0000
0001
0000
1000
0010
0100
0001
1000
0000
0000
0000
,
1000
0000
1001
0000
0001
0010
0001
0100
,
0010
1000
0100
1000
0010
1000
0100
0010
,
0001
0100
0001
0000
0100
0000
1000
0000
0001
0000
0010
0000
2000
0000
0000
0000
,
3001
0010
0001
0000
0010
0000
1000
0000
0001
0000
0100
0000
2000
0000
0000
0000
,
3100
0010
0100
0010
0001
0100
0001
0100
,
0010
1000
0010
1000
0100
0010
0100
0010
,
0001
0100
0010
0000
0100
0000
0010
0000
1000
0100
0010
0000
0100
0000
0010
0000
,
0001
1000
0001
1000
0001
1000
0001
1000
0001
1000
0001
1000
0001
0000
0000
0000
,
1000
0000
0010
0100
0000
0010
0100
0000
0001
0000
0010
0000
0100
0010
0100
0000
,
1000
0000
0000
0000
;
