#VERSION:0.83;
#TITLE:BAD LOVE;
#SUBTITLE:;
#ARTIST:KEY;
#TITLETRANSLIT:;
#SUBTITLETRANSLIT:;
#ARTISTTRANSLIT:;
#GENRE:;
#ORIGIN:;
#CREDIT:;
#BANNER:BAD LOVE.png;
#BACKGROUND:BAD LOVE-bg.png;
#PREVIEWVID:;
#JACKET:BAD LOVE-jacket.png;
#CDIMAGE:;
#DISCIMAGE:;
#LYRICSPATH:;
#CDTITLE:;
#MUSIC:BAD LOVE.ogg;
#OFFSET:0.000000;
#SAMPLESTART:58.014984;
#SAMPLELENGTH:18.803532;
#SELECTABLE:YES;
#BPMS:0.000=102.000;
#STOPS:;
#DELAYS:;
#WARPS:;
#TIMESIGNATURES:0.000=4=4;
#TICKCOUNTS:0.000=4;
#COMBOS:0.000=1;
#SPEEDS:0.000=1.000=0.000=0;
#SCROLLS:0.000=1.000;
#FAKES:;
#LABELS:0.000=Song Start;
#BGCHANGES:8.000=BAD LOVE-v.avi=1.000=0=0=1=====,
243.500=BAD LOVE-bg.png=1.000=1=0=1===CrossFade==,
99999=-nosongbg-=1.000=0=0=0 // don't automatically add -songbackground-
;
#KEYSOUNDS:;
#ATTACKS:
;

//---------------dance-single - Classic 9 | Modern 13----------------
#NOTEDATA:;
#CHARTNAME:;
#STEPSTYPE:dance-single;
#DESCRIPTION:Classic 9 | Modern 13;
#CHARTSTYLE:;
#DIFFICULTY:Hard;
#METER:13;
#RADARVALUES:0.529772,0.535782,0.294753,0.548377,0.555232,541.000000,498.000000,43.000000,80.000000,0.000000,0.000000,0.000000,0.000000,0.000000,0.529772,0.535782,0.294753,0.548377,0.555232,541.000000,498.000000,43.000000,80.000000,0.000000,0.000000,0.000000,0.000000,0.000000;
#CREDIT:DDRDAIKENKAI;
#NOTES:
// measure 0
0000
0000
0000
0000
,  // measure 1
0000
0000
0000
0000
,  // measure 2
0000
0000
0000
0000
,  // measure 3
0000
0000
0000
0000
0000
0000
0000
0000
0000
0000
0000
0000
1000
0001
1000
0001
,  // measure 4
1000
0000
0010
0000
1010
0000
0010
0000
1000
0000
0100
0000
1200
0000
0000
1300
,  // measure 5
0001
0000
0100
0000
0101
0000
0100
0000
0001
0000
0010
0000
0021
0000
0000
0031
,  // measure 6
1000
0010
1100
0001
1000
0100
1010
0001
,  // measure 7
1000
0001
1100
0002
0003
0000
0110
0110
,  // measure 8
1002
0000
0000
0000
1003
0010
1000
0010
0200
0000
0301
0000
0101
0000
0001
0000
,  // measure 9
0020
0000
0030
0000
0110
0000
0010
0001
0020
0000
0130
0000
1200
0000
0000
0000
,  // measure 10
1300
0000
0010
1000
0001
0000
0010
0001
0000
0001
1000
0000
1000
0010
1000
0002
,  // measure 11
0000
0000
0013
0000
0012
0000
0000
1003
0100
0000
1000
0010
0000
1000
0000
0001
,  // measure 12
0100
0000
0010
0000
0210
0000
0000
0310
1000
0010
0000
0200
0000
0000
0301
0000
,  // measure 13
0010
0100
1000
0010
1000
0000
1100
0100
,  // measure 14
1000
0000
0100
0000
0001
0000
0100
0010
0000
0000
0010
0001
1000
0001
1000
0200
,  // measure 15
0000
0000
1300
0000
1020
0000
0000
0130
0001
0000
0010
0001
0000
1000
0000
0100
,  // measure 16
2000
0000
0000
3200
0000
0000
0320
0000
0000
0000
0130
0000
0110
0000
1000
0010
,  // measure 17
2000
0000
0000
0000
3010
0000
0100
0000
0001
0000
0001
0010
0001
0000
0001
1000
,  // measure 18
0002
0000
0000
0203
0000
0000
0320
0000
0000
0000
1030
0100
1000
0000
0001
0010
,  // measure 19
0002
0000
0000
1000
0000
0000
0203
0000
0010
0000
0310
0000
1000
0000
1000
0001
,  // measure 20
2000
0000
0000
3002
0000
0000
0203
0000
0000
0000
0301
0000
0010
0000
0001
0100
,  // measure 21
0020
0000
0000
0000
2030
0000
0100
0000
0000
0000
3100
0010
0001
0000
0001
0100
,  // measure 22
0020
0000
0000
2030
0000
0000
3002
0000
0000
0000
1003
0000
1010
0000
0010
0001
,  // measure 23
0020
0000
1030
0000
0001
0000
0020
0000
0031
0000
0000
0000
1100
0000
0001
0010
,  // measure 24
0001
0000
1000
0010
1000
0000
0001
0100
0001
0000
1000
0100
0000
0010
0000
0002
,  // measure 25
0000
0000
1003
0000
1010
0000
1000
0001
0000
1000
0100
0000
0110
0000
0010
0001
,  // measure 26
0000
0100
0001
0000
0101
0000
0001
0010
0000
0001
2000
0000
3010
0100
0010
2000
,  // measure 27
0000
0000
3100
0000
0010
0001
0010
0200
0000
0000
0310
0000
0001
0000
1000
0010
,  // measure 28
1000
0000
0001
0100
0000
0000
0010
1000
0000
0000
0001
0010
0000
0100
0000
2000
,  // measure 29
0000
0000
3010
0000
1010
0000
1000
0001
0000
1000
0100
0000
1100
0000
0100
0010
,  // measure 30
0000
0100
1000
0000
1010
0000
0010
0100
0000
0010
1000
0000
0001
0100
0001
0020
,  // measure 31
0000
0000
0130
0000
0010
0001
0010
0200
0000
0000
1300
0000
0010
1000
0010
0000
,  // measure 32
1000
0100
1000
0000
1000
0010
1000
0000
0010
0100
0010
0100
0001
1000
0001
1000
,  // measure 33
0001
1000
0000
0100
1000
0000
0001
1000
0010
2000
0000
0000
,  // measure 34
3100
0000
0100
0010
0001
1000
0100
0010
0001
0200
0000
0000
,  // measure 35
0310
1000
0000
0010
1000
0000
0001
1000
0010
2000
0000
0000
,  // measure 36
3001
0010
0000
0010
0002
0000
1003
0010
2000
0000
0000
3001
0200
0000
0000
0000
,  // measure 37
0310
0000
0010
1000
0010
0000
1000
0002
0000
0000
1003
0000
0100
0000
0010
0000
,  // measure 38
0100
0000
0010
0001
0010
0000
0001
2000
0000
0000
3001
0000
0010
0000
0100
0000
,  // measure 39
1000
0010
0000
1000
0000
0001
0000
0020
0000
0000
0031
0000
0011
0000
1000
0000
,  // measure 40
0010
0000
1000
0000
0000
0000
1000
0000
0001
0000
0000
0000
0100
0000
0000
0000
0001
0000
0000
0010
0000
0000
0100
0000
1000
0000
0000
0000
0001
0000
0000
0000
,  // measure 41
1000
0000
0100
0000
1000
0000
0100
0000
0010
0000
0001
0000
0100
0000
0000
0010
0000
0000
1000
0000
0000
2000
0000
0000
,  // measure 42
0001
3002
0103
0002
0013
0002
0103
0002
,  // measure 43
0013
0100
0000
1000
0000
0100
0000
0020
0000
0000
0031
0000
1000
0000
0020
0000
,  // measure 44
0100
0230
1300
0200
0301
0200
1300
0200
,  // measure 45
0310
0000
1000
0000
1000
0000
1000
0000
2001
0000
0000
0000
3001
1000
0001
1000
,  // measure 46
0001
0000
1000
0000
1100
0000
0100
0010
0000
0100
1000
0000
1010
0000
0010
0100
,  // measure 47
0000
0010
1000
0000
1001
0000
0001
0010
0000
0001
0100
0000
0001
0010
0001
0020
,  // measure 48
0000
0000
0130
0000
1000
0010
1000
0020
0000
0000
0130
0000
0010
0000
1000
0000
,  // measure 49
2010
0000
3001
0000
0012
0000
1003
0100
1000
0000
0001
0010
0000
0001
0000
0200
,  // measure 50
0000
0000
0310
0000
0110
0000
0010
1000
0000
0001
1000
0000
1100
0000
0100
0010
,  // measure 51
0000
0001
0100
0000
0101
0000
0001
0010
0000
0001
1000
0000
0001
0100
0001
2000
,  // measure 52
0000
0000
3020
0000
1030
0100
1000
0002
0000
0000
1003
0020
0000
0130
0001
0000
,  // measure 53
1000
0010
1000
0010
0100
0010
0100
0010
0100
0001
0100
0001
1000
0001
1000
0001
,  // measure 54
0020
0000
0130
2000
0010
3010
0200
0000
,  // measure 55
0301
0010
0000
0000
0010
0100
0000
0000
0100
1000
0000
0000
0010
0000
0020
0000
,  // measure 56
0100
0000
0130
0000
0110
0000
1000
0001
0000
1000
0100
0000
0110
0000
0001
1000
,  // measure 57
0000
0001
0100
0000
0110
0000
1000
0100
0020
0000
0001
0000
0032
0000
0000
0000
,  // measure 58
1003
0000
0011
0200
0000
0310
2010
0000
,  // measure 59
3001
0000
1100
0020
0000
0130
0101
2000
,  // measure 60
0000
3000
0000
0000
0000
0000
0000
0000
;

//---------------dance-single - ----------------
#NOTEDATA:;
#CHARTNAME:;
#STEPSTYPE:dance-single;
#DESCRIPTION:;
#CHARTSTYLE:;
#DIFFICULTY:Medium;
#METER:11;
#RADARVALUES:0.374072,0.391533,0.219351,0.548377,0.198787,382.000000,350.000000,32.000000,80.000000,0.000000,0.000000,0.000000,0.000000,0.000000,0.374072,0.391533,0.219351,0.548377,0.198787,382.000000,350.000000,32.000000,80.000000,0.000000,0.000000,0.000000,0.000000,0.000000;
#CREDIT:DDRDAIKENKAI;
#NOTES:
0000
0000
0000
0000
,
0000
0000
0000
0000
,
0000
0000
0000
0000
,
0000
0000
0000
0000
0000
0000
0000
1000
,
0100
0010
0011
0000
0100
0000
1010
0001
,
0010
0100
1100
0000
0001
0000
0101
0100
,
0010
1000
1010
0000
0001
0000
0011
0001
,
1000
0100
1100
2000
3000
0000
0010
0010
,
2001
0000
3000
0100
1000
2000
3000
0001
,
0020
0000
0030
0001
0001
0010
0200
0300
,
0010
0001
0100
0100
0010
1000
0100
0100
,
1000
0001
1000
1000
0001
0001
1001
0000
,
0001
0000
0010
0000
0011
0000
0000
0001
1000
0000
0100
0000
1000
0000
0000
0000
,
0010
1000
0001
0100
0001
0000
0101
0001
,
1000
0010
1000
1000
0001
1000
0100
0100
,
0010
0001
0010
0010
0001
1000
1001
0000
,
1000
0000
1000
0000
0000
0010
0000
0000
0200
0000
0000
0000
0301
0000
1000
0000
,
2000
0000
3100
0010
0001
0001
0000
1001
,
0000
0000
1000
0000
0000
0010
0000
0000
1000
0000
0000
0000
1001
0000
0001
0000
,
0010
0000
0000
0100
0000
0000
1000
0000
0010
0000
0010
0000
0100
0000
0001
0000
,
0002
0000
0000
0023
0000
0000
0230
0000
0000
0000
1300
0000
0100
0000
0010
0000
,
0002
0000
0100
0200
0000
0303
0000
0010
,
0020
0000
0000
2030
0000
0000
3200
0000
0000
0000
0310
0000
0010
0000
0100
0000
,
1000
0000
0010
0000
0100
0000
0001
0000
1000
0000
0000
0000
1001
0000
0010
0100
,
0000
0000
0000
0000
1001
0000
0100
0010
0000
0000
0000
0001
0000
1000
0000
0002
,
0000
0000
0103
0000
0100
0000
0001
2000
0000
0000
3100
0000
0100
0000
1000
0020
,
0000
0000
0130
0000
0210
0000
0000
0302
0000
0000
1003
0000
0100
0000
0100
0020
,
0000
0000
0031
0000
0100
0000
0100
0002
0000
0000
0013
0000
0100
0000
1000
0000
,
0020
0000
0000
2030
0000
0000
3001
0000
0100
0000
0000
0010
0000
0010
0000
2000
,
0000
0000
0010
0000
3010
0000
0100
0002
0000
0000
0010
0000
0013
0000
0100
2000
,
0000
0000
3010
0000
1020
0000
0000
0130
0000
0000
0100
0000
0010
0000
0000
1000
,
0000
0000
0001
0000
0101
0000
0000
1000
0000
0000
0100
0000
1100
0000
0100
0000
,
0020
0000
0000
0002
0000
0000
0000
0000
0033
0000
0000
0000
1000
0001
1000
0001
,
2000
3020
0230
0302
,
0023
0000
0130
1000
0100
1000
0100
0000
,
0020
0032
0203
0320
,
1030
0000
0000
1000
0001
0000
1000
0000
0002
0000
0000
0000
2003
0000
0000
0000
,
3100
0000
0000
0100
0010
0000
0100
0000
0010
0000
0001
0000
1000
0000
0000
0000
,
0010
0000
0000
0010
0100
0000
0010
0000
0100
0000
0001
0000
1000
0000
0000
0000
,
0100
0000
0000
0100
0000
0000
0100
0000
0000
0000
0010
0000
0001
0000
0100
0000
,
0001
0000
0000
0001
1000
0000
0000
0000
0100
0000
0000
0100
1000
0000
0000
0000
,
0010
0000
0010
0000
0010
0010
1000
0002
,
0000
0000
0000
0000
1000
0000
0000
1000
0000
0000
0000
0000
1003
0000
0000
1000
,
0100
0010
0001
0100
1000
0100
0001
0020
,
0000
0000
0130
0000
0200
0000
0000
1300
0000
0000
0001
0000
0200
0000
0000
0301
,
0000
1000
0100
0010
0110
0000
2001
0000
,
3010
0000
0100
0000
0010
0000
1000
0002
0000
0000
0013
0000
0010
0000
0001
0200
,
0000
0000
0310
0000
0120
0000
0000
2030
0000
0000
3001
0000
0010
0000
0010
0200
,
0000
0000
1300
0000
0010
0000
0010
2000
0000
0000
3100
0000
0010
0000
0001
0000
,
1001
0000
0000
0000
0110
0000
1000
0000
0001
0000
0000
0100
0000
0100
0000
0002
,
0000
0000
0100
0000
0103
0000
0010
2000
0000
0000
0100
0000
3100
0000
0010
0002
,
0000
0000
0103
0000
0201
0000
0000
0320
0000
0000
0130
0000
0001
0000
0000
2000
,
0000
0000
3010
0000
1010
0000
0000
0002
0000
0000
0000
0013
0000
0000
0100
0000
,
2000
0000
0000
3020
0000
0000
0000
0000
0230
0000
0000
0000
0301
1000
0001
1000
,
0001
0000
1001
0200
0000
0310
1002
0000
,
2003
0000
3002
0000
2003
0000
3020
0230
,
0010
0000
0310
0000
0120
0000
0000
1030
0000
0000
0100
0000
0120
0000
0000
0031
,
0000
0000
0100
0000
0120
0000
0000
1030
0200
0000
0000
0000
2300
0000
0000
0000
,
3020
0000
0001
0032
0000
0000
0203
0000
,
2300
0000
0010
3020
0000
0000
1030
2000
,
0000
3000
0000
0000
0000
0000
0000
0000
;

//---------------dance-single - ----------------
#NOTEDATA:;
#CHARTNAME:;
#STEPSTYPE:dance-single;
#DESCRIPTION:;
#CHARTSTYLE:;
#DIFFICULTY:Easy;
#METER:6;
#RADARVALUES:0.261458,0.288498,0.137094,0.274189,0.003427,267.000000,247.000000,20.000000,40.000000,0.000000,0.000000,0.000000,0.000000,0.000000,0.261458,0.288498,0.137094,0.274189,0.003427,267.000000,247.000000,20.000000,40.000000,0.000000,0.000000,0.000000,0.000000,0.000000;
#CREDIT:DDRDAIKENKAI;
#NOTES:
0000
0000
0000
0000
,
0000
0000
0000
0000
,
0000
0000
0000
0000
,
0000
0000
0000
0000
,
0001
0101
0100
0010
,
1000
1100
0100
0010
,
0001
0011
0001
0100
,
0010
0000
1010
0000
1000
0000
0100
0100
,
0010
0000
1001
0000
0001
1000
0001
0000
,
0100
0000
0110
0000
0010
0100
0020
0000
,
1030
1100
0100
0110
,
0010
0011
0001
1001
,
1000
0001
1000
0000
0001
0100
0001
0000
,
1000
0001
1000
0000
0100
1000
0100
0000
,
1000
0000
0010
0100
0010
0000
1000
0001
,
1000
0100
0010
0010
,
0001
0001
1000
2000
,
3020
0000
0100
0000
0130
0100
0000
0010
,
0010
0000
1000
0000
0002
0000
0003
0010
,
0010
0100
2000
3000
,
0100
0010
0001
0100
,
0010
0000
2000
0000
0000
0000
3000
1000
,
0001
0000
0000
0001
0000
0000
0002
0000
0000
0000
0000
0000
0103
0000
0000
0000
,
0020
0000
1000
2030
0000
3100
0100
0000
,
0220
0000
0000
0330
,
1000
0001
1000
0001
,
1000
0000
0001
0000
1000
1000
1000
0000
,
0001
0100
1000
0100
,
0001
0000
0001
0000
0001
0000
1000
1000
,
1000
0001
1000
0001
,
1000
0000
0001
0000
1000
1000
1000
0000
,
0010
0000
0001
0000
0100
0000
1000
1000
,
2000
3020
0032
0203
,
1300
1000
1000
2000
,
3100
0000
0010
0001
0010
0001
0010
0000
,
0001
0001
0001
0002
,
0103
0000
0100
0010
0200
0000
0302
0000
,
1003
0000
0010
1000
0010
1000
0010
0000
,
0100
0000
0001
1000
0001
1000
0001
0000
,
0010
0010
1000
1000
,
0100
0100
0001
0001
,
0010
0001
0100
1000
,
0020
0001
0000
0031
,
1000
0001
1000
0001
,
2000
0010
0000
3010
,
0100
0100
0110
2001
,
3010
1000
0010
0000
1000
0100
1000
0000
,
0100
0001
0100
0000
0001
0010
0001
0000
,
0010
0010
1000
1000
,
0002
0000
0023
0000
0130
0000
1000
0100
,
1000
0100
1000
0000
0010
1000
0010
0000
,
0001
0010
0001
0000
0100
0001
0100
0000
,
1000
1010
0001
0101
,
0002
0023
0230
0320
,
0031
0101
1000
1100
,
0002
2003
3002
2003
,
3100
1001
0010
1001
,
0100
1001
0020
2030
,
3002
0000
0000
0023
0000
0000
0032
0000
,
2003
0000
0000
3020
0000
0000
1030
2000
,
0000
3000
0000
0000
0000
0000
0000
0000
;

//---------------dance-single - Classic 10 | Modern 15----------------
#NOTEDATA:;
#CHARTNAME:;
#STEPSTYPE:dance-single;
#DESCRIPTION:Classic 10 | Modern 15;
#CHARTSTYLE:;
#DIFFICULTY:Challenge;
#METER:15;
#RADARVALUES:0.618883,0.576996,0.150804,0.664907,0.788292,632.000000,610.000000,22.000000,97.000000,10.000000,3.000000,2.000000,0.000000,0.000000,0.618883,0.576996,0.150804,0.664907,0.788292,632.000000,610.000000,22.000000,97.000000,10.000000,3.000000,2.000000,0.000000,0.000000;
#CREDIT:DDRDAIKENKAI;
#NOTES:
0000
0000
0000
0000
,
0000
0000
0000
0000
,
0000
0000
0001
0000
0000
0000
0000
0000
0000
0001
0000
0000
0000
0000
0000
0000
0004
0000
0000
0000
0000
0000
0000
0000
0000
0000
0000
0000
0000
0000
0000
0000
0003
0000
1000
0000
0000
0000
0000
0000
0000
1000
0000
0000
0000
0000
0000
0000
4000
0000
0000
0000
0000
0000
0000
0000
0000
0000
0000
0000
0000
0000
0000
0000
,
3001
0001
0001
0001
0010
0010
0010
0010
0100
0100
0100
0100
0001
1000
0001
1000
,
0001
0000
0100
0010
0000
0100
0000
0001
1000
0000
0100
0010
0000
0100
0000
1000
,
0001
0000
0100
1000
0000
0100
0000
0001
1000
0000
0100
0001
0000
0100
0000
1000
,
0001
0000
0010
1000
0000
0010
0000
0001
1000
0000
0010
0001
0000
0010
0000
1000
,
0001
0000
0100
0010
0000
1000
0000
0100
0010
0000
0001
0010
0100
0000
0100
0000
,
1002
0000
1003
0100
0000
0100
1000
0001
0100
0000
0001
0000
1001
0000
0001
0000
,
0020
0000
0031
1000
0000
1000
0001
1000
0020
0000
0031
0000
0200
0000
030M
0000
,
1000
0000
0100
0010
0002
0000
1003
0002
1000
0000
1003
0000
0001
1000
0001
0020
,
0100
0000
0230
0000
1300
0010
1000
0000
0001
0000
0200
0000
0310
0000
0100
0001
,
1000
0000
0010
1000
0000
0100
0000
0100
1000
0010
1000
0002
0000
0013
0000
0010
,
0001
0000
0010
0100
1000
0010
0000
0010
1000
0000
0100
0010
0001
0100
0000
0100
,
0010
0000
1000
0001
0010
0000
0010
0002
0010
0000
0013
0001
0010
0100
1000
0020
,
1000
0000
2030
0000
3100
0010
0100
0000
1000
0000
2000
0000
3010
0000
0020
1000
,
1030
0001
0200
0001
0000
2300
0001
0000
3020
0000
0031
0001
2000
0000
3200
0320
,
0032
0003
1000
1000
0001
0000
0010
0000
0001
0000
0001
0001
1000
0010
0200
0310
,
2000
0000
3010
0200
0000
0301
0010
0001
2000
0000
0100
3100
1000
0000
0100
1000
,
0002
0000
1003
0020
0000
1030
0200
0000
1300
0100
0010
0010
0001
0100
0001
0001
,
2000
0000
3001
2000
0000
3100
2000
0010
0000
3010
0100
0100
0010
0000
0010
1000
,
0002
0000
0013
0001
1000
0000
0002
0000
0000
0000
0103
0100
0010
0100
0002
2003
,
3200
0000
1300
0020
0000
0130
0002
0000
0000
0000
1003
1000
0010
0000
0010
1000
,
0002
0000
0013
0001
0100
0000
0020
0000
1030
0000
0100
0100
2000
3100
0020
0032
,
1003
0000
0010
0010
2000
3000
0020
2030
3001
0000
0001
0002
0010
0023
0100
0230
,
1000
0000
1300
0001
0100
0000
010M
2000
0001
0000
3001
1000
0010
0000
M010
0002
,
1000
0000
1003
0010
0100
0000
M100
0010
0001
0000
2000
0000
3100
0010
0001
1000
,
0100
0000
1000
0001
0000
0001
1000
0001
0100
0000
0100
0001
0000
0001
1000
0100
,
1000
0000
0001
0001
1000
0000
0001
0001
0010
0000
0100
0200
0010
0320
0001
0032
,
1000
0000
1003
0010
0100
0000
01M0
2000
0001
0000
3001
1000
0010
0000
0M10
0002
,
1000
0000
1003
0001
0100
0000
M100
0010
0001
0000
0002
0000
1003
0010
0100
0001
,
0020
0000
0031
1000
0000
0010
0000
1000
0002
0000
1003
0000
0100
0010
0001
0000
,
1000
1000
1000
1000
0010
0010
0010
0010
0100
0100
0100
0100
1000
0001
1000
0001
,
0020
0000
0031
1000
0020
0000
1030
0000
0020
0000
1030
0001
0020
0000
0130
0000
,
0100
0000
0010
0001
1000
0100
0010
0001
1000
0200
0000
0000
,
0310
0000
0000
0010
0001
0000
1000
0000
0010
0000
1000
0000
1100
0000
0100
0000
,
1000
0001
0000
0001
0020
0000
0031
1000
0002
0000
0013
0001
0200
0000
0300
0000
,
0110
0000
0010
1000
0010
0000
0010
2000
0000
3001
1000
0000
0010
0000
0010
0000
,
1000
0000
0100
0010
0100
0000
0100
0020
0000
0031
1000
0000
0100
0000
0100
0000
,
1000
0001
0000
0001
1000
0001
0000
0002
0000
0000
0103
0000
0110
0000
0010
0000
,
1000
0000
0100
0000
0000
0000
0100
0000
0010
0000
0000
0000
0001
0000
0000
0000
1000
0000
0000
0010
0000
0000
0100
0000
0001
0000
0000
0000
1000
0000
0000
0000
,
0001
0000
0000
0000
0100
0000
0000
0000
0010
0000
0000
0000
0100
0000
0000
0000
0010
0000
0000
0000
1000
0000
0000
0000
0010
0000
0000
0100
0000
0000
0001
0000
0000
0000
0000
0000
0020
0000
0000
0000
0000
0000
0130
0000
0000
1000
0000
0000
,
0200
0010
0000
0010
0000
1000
0000
1300
,
0100
1000
0000
0001
0000
0100
0000
0020
0000
0000
0130
0000
0101
0000
0020
0000
,
0000
0000
1030
0000
1001
0000
0001
1000
0000
0100
1000
0000
1001
0000
1000
0010
,
0100
0000
0010
0000
0010
0000
0010
0000
0120
0000
0000
0000
1030
0001
1000
0001
,
1000
0000
0100
0000
0110
0000
0010
0001
0100
0000
0010
0000
0110
0000
0010
1000
,
0100
0000
0010
0000
0110
0000
0100
1000
0010
0000
1000
0000
0001
0010
0100
1000
,
0020
0000
1000
0000
1030
0100
0010
0001
0200
0000
0320
0000
2030
0000
3001
0000
,
1001
0000
0001
0001
1000
0000
0100
0100
1000
0000
0010
0020
1000
2030
0001
3002
,
0013
0000
0100
1000
0010
0000
M010
0002
1000
0000
1003
0001
0100
0000
010M
2000
,
0001
0000
3001
0100
0010
0000
001M
0200
1000
0000
1300
0000
1000
0001
0100
0010
,
1000
0000
0010
1000
0000
0100
0000
0010
0001
0000
1000
0010
0000
1000
0100
0000
,
0010
0010
0010
0010
1000
1000
1000
1000
0100
0100
0100
0100
0010
0100
0010
0100
,
2000
0000
3011
0200
0000
0310
0110
0001
,
1000
0100
0000
0000
0100
0010
0000
0000
0010
0001
0000
0000
1000
0000
2000
0000
,
0100
0000
3100
0000
0110
0000
1000
0001
0000
0100
0001
0000
0011
0000
0100
1000
,
0000
0001
1000
0000
1010
0000
0100
0001
0020
0000
0000
0000
0032
0000
0000
0000
,
2003
0000
3101
0020
0000
0031
1100
0000
,
0002
0000
1013
0200
0000
1300
0011
0200
,
0000
0300
0000
0000
0000
0000
0000
0000
;

//---------------dance-single - ----------------
#NOTEDATA:;
#CHARTNAME:;
#STEPSTYPE:dance-single;
#DESCRIPTION:;
#CHARTSTYLE:;
#DIFFICULTY:Beginner;
#METER:2;
#RADARVALUES:0.134157,0.204785,0.082257,0.171368,0.000000,137.000000,125.000000,12.000000,25.000000,0.000000,0.000000,0.000000,0.000000,0.000000,0.134157,0.204785,0.082257,0.171368,0.000000,137.000000,125.000000,12.000000,25.000000,0.000000,0.000000,0.000000,0.000000,0.000000;
#CREDIT:DDRDAIKENKAI;
#NOTES:
0000
0000
0000
0000
,
0000
0000
0000
0000
,
0000
0000
0000
0000
,
0000
0000
0000
0000
,
1000
1000
0000
0001
,
0000
1000
0000
0001
,
0000
0100
0000
0010
,
0000
0100
0000
0010
,
0010
0000
1000
0000
,
0001
0000
0010
0010
,
0000
0100
0000
0010
,
0000
0001
0000
1000
,
0000
0010
0000
0100
,
0000
0010
0010
0010
,
0000
1000
0000
0001
,
0000
0100
0000
0010
,
0020
0000
0030
0000
,
1000
0000
0100
0100
,
0200
0000
0300
0000
,
0020
0000
0030
0000
,
0001
0001
0000
1000
,
2000
3000
0000
0000
,
0010
0010
0010
0000
,
0100
0100
0000
0001
,
0000
1000
1000
1000
,
2000
3000
0002
0003
,
0200
0000
0300
0000
,
0010
0010
0010
0000
,
0110
0110
0000
1000
,
2000
3000
0002
0003
,
0200
0000
0300
0010
,
0010
0000
0100
0000
,
0110
0220
0330
0000
,
1000
1000
1000
1000
,
2000
0000
3000
0000
,
0001
0001
0001
0001
,
0002
0000
0003
0000
,
0000
0010
0010
0010
,
0000
1000
1000
1000
,
1000
0000
0001
0000
,
0100
0000
0010
0000
,
0100
0100
0100
0100
,
0200
0000
0000
0300
,
0020
0000
0030
0000
,
1000
1000
0000
1000
,
0000
0001
0001
0001
,
0002
0003
2000
3000
,
0020
0000
0030
0100
,
0100
0000
0010
0000
,
1001
1001
0000
0001
,
0002
0003
2000
3000
,
0020
0000
0030
0000
,
0100
0100
0100
0000
,
2002
0000
3003
0000
,
0020
0000
0030
0000
,
1000
1000
1000
0000
,
1001
1001
0000
0110
,
0000
1001
0000
0010
,
0010
0010
0000
1000
,
0000
0001
0000
1001
;
