#TITLE:BABY, SHOW ME YOUR BUTT;
#SUBTITLE:;
#ARTIST:JAG;
#TITLETRANSLIT:;
#SUBTITLETRANSLIT:;
#ARTISTTRANSLIT:;
#CREDIT:;
#BANNER:Baby, Show Me Your Butt.png;
#BACKGROUND:Baby, Show Me Your Butt-bg.png;
#LYRICSPATH:;
#CDTITLE:;
#MUSIC:Baby, Show Me Your Butt.ogg;
#OFFSET:-0.042;
#SAMPLESTART:33.080;
#SAMPLELENGTH:12.000;
#SELECTABLE:YES;
#BPMS:0.000=138.000;
#STOPS:;
#BGCHANGES:;

//---------------dance-single - ----------------
#NOTES:
     dance-single:
     :
     Hard:
     12:
     0.599,0.588,0.362,0.000,0.225: // measure 1
0000
0000
0000
0000
,  // measure 2
0000
0000
0000
0000
,  // measure 3
0000
0000
0000
0000
,  // measure 4
1001
0000
0000
0000
1000
0000
0000
0000
0100
0000
0000
0100
0000
0000
0010
0000
,  // measure 5
0001
0000
0100
0000
0100
0000
0000
0000
0010
0000
0000
0010
0000
0000
1000
0000
,  // measure 6
0100
0000
0010
0000
0001
0000
0010
0000
0100
0000
0000
1000
0000
0000
0010
0000
,  // measure 7
0000
0000
0010
0000
0100
0000
0000
0000
0001
0000
0000
0001
0000
0000
0010
0000
,  // measure 8
0110
0000
0000
0000
0100
0000
0000
0000
1000
0000
0000
1000
0000
0000
0010
0000
,  // measure 9
0100
0000
0001
0000
0001
0000
0000
0000
0010
0000
0000
0010
0000
0000
0100
0000
,  // measure 10
1000
0000
0001
0000
1000
0000
0010
0000
0100
0000
0000
0100
0000
0000
0001
0000
,  // measure 11
0000
0000
0001
0000
0010
0000
0000
0000
0100
0000
1000
0000
0010
0100
0001
0000
,  // measure 12
1001
0000
0000
0000
1000
0000
0000
0000
0100
0000
0000
0100
0010
0000
0001
0000
,  // measure 13
0100
0000
0010
0000
0010
0000
0000
0000
0010
0000
0000
0010
1000
0000
0001
0000
,  // measure 14
0010
0100
0010
0001
1001
0000
1001
0000
,  // measure 15
0101
0000
0100
0000
0010
0000
0000
0000
1000
0000
0100
1000
0100
0000
0010
0000
,  // measure 16
0011
0000
0000
0000
0001
0000
0000
0000
0001
0000
0000
0100
0010
0000
1000
0000
,  // measure 17
0000
0000
0100
0000
0010
0000
0000
0000
0100
0000
0000
0100
1000
0000
0001
0000
,  // measure 18
0100
0000
0010
0100
0000
0001
0100
0000
0000
0000
0010
0000
1000
0000
0100
0000
,  // measure 19
0010
0000
0100
0000
0001
0000
1000
0000
0010
0000
0001
0000
0100
0010
1000
0000
,  // measure 20
1010
0000
0000
0000
1001
0000
0000
0000
0011
0000
0000
0010
0100
0000
1000
0000
,  // measure 21
0010
0000
0100
0000
0110
0000
0000
0000
0101
0000
0000
0100
0001
0000
1000
0000
,  // measure 22
0100
0000
0010
0000
0100
0000
1000
0000
0100
0000
0001
0100
0000
0000
0010
0000
,  // measure 23
0011
0000
0001
0000
0101
0000
0000
0000
0100
0000
0010
0000
1000
0100
0010
0000
,  // measure 24
0110
0000
0000
0000
0011
0000
0000
0000
0001
0000
0000
0001
0100
0000
0010
0000
,  // measure 25
0110
0000
0010
0000
1010
0000
0000
0000
1000
0000
0000
1000
0100
0000
0010
0000
,  // measure 26
0001
0000
0100
0000
0010
0000
0100
0000
1000
0000
0100
0001
0000
0000
1000
0000
,  // measure 27
0100
0000
0010
0000
0100
0000
1000
0000
0001
0000
0100
0000
0010
1000
0001
0000
,  // measure 28
1001
0001
0010
0000
0100
1000
0001
0100
,  // measure 29
0010
1000
0100
0000
0010
0001
0100
0001
,  // measure 30
1000
0000
0100
0000
0010
0000
0100
0000
1000
0000
0000
1000
0000
0000
0001
0000
,  // measure 31
0100
1000
0100
0010
0100
0001
1000
0100
,  // measure 32
0110
0000
0011
0000
0001
1000
0010
0100
,  // measure 33
0001
0010
0010
0000
0100
1000
0010
1000
,  // measure 34
0001
0000
0010
0000
0100
0000
1000
0000
0010
0000
0000
0100
0000
0000
1000
0000
,  // measure 35
0100
0000
0010
0000
1000
0000
0100
0000
0001
0000
0100
0000
1000
0001
0100
0000
,  // measure 36
0101
0000
0000
0000
0110
0000
0100
0000
0010
0000
1000
0010
0000
1000
0001
0000
,  // measure 37
0011
0000
0000
0000
0110
0000
0010
0000
0100
0000
1000
0100
0000
1000
0001
0000
,  // measure 38
0100
0000
0010
0000
1000
0000
0001
0000
1000
0000
0100
0010
0000
0000
0100
0000
,  // measure 39
1000
0000
0001
0000
0101
0000
0000
0000
0100
0000
0010
0000
1000
0001
0010
0000
,  // measure 40
0110
0000
0000
0000
1100
0000
0100
0000
1000
0000
0001
0010
0000
0001
1000
0000
,  // measure 41
1010
0000
0000
0000
0110
0000
0010
0000
1000
0000
0100
1000
0000
0001
1000
0000
,  // measure 42
0100
0010
0001
0100
0010
0100
0000
0100
,  // measure 43
0001
0000
1000
0000
0100
0000
0010
0000
0100
0000
1000
0000
0001
1000
0100
0000
,  // measure 44
0010
0001
0010
0100
0010
1000
0010
0001
,  // measure 45
0100
1000
0100
0010
0100
0001
0100
1000
,  // measure 46
0100
0000
0001
0000
0010
0000
1000
0000
0010
0000
0001
0100
0000
0000
1000
0000
,  // measure 47
0100
0000
0010
0000
0001
0000
0010
0000
1000
0000
0100
0000
0010
0001
1000
0000
,  // measure 48
0010
0100
0010
0001
0010
0100
0010
1000
,  // measure 49
0100
0001
0100
0010
0100
1000
0100
0001
,  // measure 50
0100
0000
1000
0000
0010
0000
0001
0000
0010
0000
1000
0100
0000
0000
0010
0000
,  // measure 51
0011
0000
1100
0000
1000
0010
0010
0001
,  // measure 52
1001
0000
0000
0000
;

//---------------dance-single - ----------------
#NOTES:
     dance-single:
     :
     Medium:
     11:
     0.527,0.504,0.351,0.000,0.165: // measure 1
0000
0000
0000
0000
,  // measure 2
0000
0000
0000
0000
,  // measure 3
0000
0000
0000
0000
,  // measure 4
1001
0000
0000
0000
1000
0000
0000
0000
0100
0000
0000
0100
0000
0000
0010
0000
,  // measure 5
0001
0000
0000
0000
0100
0000
0000
0000
0010
0000
0000
0010
0000
0000
0100
0000
,  // measure 6
0001
0000
1000
0000
0100
0000
1000
0000
0001
0000
0000
0100
0000
0000
0010
0000
,  // measure 7
0000
0000
1000
0000
1000
0000
0000
0000
0100
0000
0000
0100
0000
0000
0010
0000
,  // measure 8
0110
0000
0000
0000
1001
0000
0000
0000
0001
0000
0000
0001
0000
0000
0100
0000
,  // measure 9
0010
0000
0000
0000
1000
0000
0000
0000
0100
0000
0000
0100
0000
0000
0010
0000
,  // measure 10
0001
0000
0100
0000
0001
0000
1000
0000
0001
0000
0000
0100
0000
0000
0010
0000
,  // measure 11
1000
0000
1000
0000
1000
0100
0010
0001
,  // measure 12
1001
0000
1000
0000
1000
0100
0010
0100
,  // measure 13
1000
0000
1001
0000
1000
0010
0100
0010
,  // measure 14
1000
0001
0010
0100
1100
0000
1100
0000
,  // measure 15
1001
0001
0100
0000
0010
0100
0001
0010
,  // measure 16
0001
0000
0100
0000
0010
0100
0001
1000
,  // measure 17
0100
0010
0010
0000
0100
1000
0010
0100
,  // measure 18
0001
0000
0000
0001
0000
0000
0010
0000
0000
0000
0100
0000
1000
0000
0001
0000
,  // measure 19
0100
0000
0010
1000
0100
0000
0001
0000
,  // measure 20
0101
0000
0000
0000
1100
0000
0000
0000
1000
0000
0000
1000
0000
0000
0010
0000
,  // measure 21
1010
0000
0000
0000
1001
0000
0000
0000
0001
0000
0000
0001
0000
0000
0010
0000
,  // measure 22
0100
1000
0010
0100
0010
1000
0000
0001
,  // measure 23
0010
0000
0100
0000
1000
0001
0100
0000
,  // measure 24
1100
0000
0000
0000
0101
0000
0000
0000
0001
0000
0000
0001
0000
0000
0010
0000
,  // measure 25
0011
0000
0000
0000
1001
0000
0000
0000
1000
0000
0000
1000
0000
0000
0010
0000
,  // measure 26
0100
0001
0010
0100
0010
0001
0000
0100
,  // measure 27
0010
0100
1000
0100
0000
0001
1000
0100
,  // measure 28
0110
0000
0010
0000
0001
0100
0010
0100
,  // measure 29
0001
0010
0010
0000
0100
1000
0010
1000
,  // measure 30
0001
0000
0010
0000
0100
0000
0010
0000
0001
0000
0000
0001
0000
0000
0100
0000
,  // measure 31
1000
0100
1000
0100
0010
1000
0001
0010
,  // measure 32
0011
0000
0110
0000
0100
1000
0001
0100
,  // measure 33
0010
1000
1000
0000
0100
0010
0100
1000
,  // measure 34
0001
0000
0100
0000
0010
0000
0100
0000
1000
0000
0000
0100
0000
0000
0001
0000
,  // measure 35
0000
0000
1000
0100
0001
0000
0100
0000
,  // measure 36
0101
0000
1100
0100
1000
0100
1000
0010
,  // measure 37
1010
0000
1001
0001
0100
0001
0100
0010
,  // measure 38
0100
0001
1000
0100
0010
0100
0000
0000
,  // measure 39
1000
0000
0010
0000
0100
0001
0001
0010
,  // measure 40
1010
0000
0011
0010
0001
0010
0001
0100
,  // measure 41
0101
0000
1001
1000
0010
1000
0010
1000
,  // measure 42
0100
0010
0001
1000
0001
0010
0000
0100
,  // measure 43
1000
0100
0010
0001
0100
1000
0100
0010
,  // measure 44
1010
0000
0000
0000
0010
1000
0000
0001
0000
0010
0000
0000
0100
0010
0100
0000
,  // measure 45
1000
0000
0000
0000
0010
1000
0000
0100
0000
0010
0000
0000
0001
0100
0001
0000
,  // measure 46
0100
1000
0100
0001
0100
0010
0000
0000
,  // measure 47
1000
0100
0001
0100
0010
0001
0000
0000
,  // measure 48
0011
0000
0000
0000
0010
0001
0000
0100
0000
0010
0000
0000
0100
0010
0100
0000
,  // measure 49
0001
0000
0000
0000
0010
0100
0000
1000
0000
0010
0000
0000
1000
0010
1000
0000
,  // measure 50
0100
0001
0100
1000
0100
0010
0000
0000
,  // measure 51
0011
0000
0101
0000
0001
0100
0100
0010
,  // measure 52
0110
0000
0000
0000
;

//---------------dance-single - ----------------
#NOTES:
     dance-single:
     :
     Beginner:
     3:
     0.149,0.196,0.022,0.000,0.000: // measure 1
0000
0000
0000
0000
,  // measure 2
0000
0000
0000
0000
,  // measure 3
0000
0000
0000
0000
,  // measure 4
0001
0001
0000
0000
,  // measure 5
1000
1000
0000
0000
,  // measure 6
0010
0000
0000
0000
,  // measure 7
0000
0000
0000
0000
,  // measure 8
1000
1000
0000
0000
,  // measure 9
0001
0001
0000
0000
,  // measure 10
0010
0000
0000
0000
,  // measure 11
0000
0000
0000
0100
,  // measure 12
0100
0000
0000
1000
,  // measure 13
1000
0000
0000
0000
,  // measure 14
0001
0000
0001
0000
,  // measure 15
0100
0000
0000
0010
,  // measure 16
0010
0000
0000
0100
,  // measure 17
0100
0000
0000
0000
,  // measure 18
0001
0000
0001
0000
,  // measure 19
1000
0000
0000
0000
,  // measure 20
0100
0100
0000
0000
,  // measure 21
0010
0010
0000
0000
,  // measure 22
0001
0000
0001
0000
,  // measure 23
1000
1000
0000
0000
,  // measure 24
0010
0010
0000
0000
,  // measure 25
0100
0100
0000
0000
,  // measure 26
0001
0000
0010
0000
,  // measure 27
0100
0100
0000
1000
,  // measure 28
1000
0000
0000
0001
,  // measure 29
0001
0000
0000
0000
,  // measure 30
0100
0000
0010
0000
,  // measure 31
1000
1000
1000
0000
,  // measure 32
0100
0100
0000
0010
,  // measure 33
0010
0000
0000
0000
,  // measure 34
0001
0000
0001
0000
,  // measure 35
0100
0000
0000
0000
,  // measure 36
0010
0010
0000
0000
,  // measure 37
1000
1000
0000
0000
,  // measure 38
0001
0000
0010
0000
,  // measure 39
0100
0100
0000
0000
,  // measure 40
0010
0010
0000
0000
,  // measure 41
0001
0001
0000
0000
,  // measure 42
1000
0000
0010
0000
,  // measure 43
0100
0100
0000
0000
,  // measure 44
0110
0000
0010
0000
,  // measure 45
1000
0000
0100
0000
,  // measure 46
0001
0001
0001
0000
,  // measure 47
1000
1000
1000
0000
,  // measure 48
0010
0000
0001
0000
,  // measure 49
0100
0000
1000
0000
,  // measure 50
0100
0100
0100
0000
,  // measure 51
0001
0001
0000
1000
,  // measure 52
1001
0000
0000
0000
;

//---------------dance-single - ----------------
#NOTES:
     dance-single:
     :
     Easy:
     6:
     0.285,0.336,0.285,0.000,0.005: // measure 1
0000
0000
0000
0000
,  // measure 2
0000
0000
0000
0000
,  // measure 3
0000
0000
0000
0000
,  // measure 4
0011
0100
0000
0000
,  // measure 5
1010
0001
0000
0000
,  // measure 6
0001
0010
0100
0000
,  // measure 7
1000
1000
0010
0000
,  // measure 8
1010
0100
0000
0000
,  // measure 9
0011
1000
0000
0000
,  // measure 10
0001
0100
0010
0000
,  // measure 11
1000
1000
0001
0001
,  // measure 12
0110
0000
1000
0001
,  // measure 13
0100
0000
0010
1000
,  // measure 14
0001
0010
0100
0100
,  // measure 15
1001
0000
0001
0100
,  // measure 16
0010
0000
0010
0100
,  // measure 17
1000
0000
1000
0100
,  // measure 18
0001
0000
0000
0001
0000
0000
0010
0000
0000
0000
0000
0000
0100
0000
0000
0000
,  // measure 19
0010
0001
1000
0100
,  // measure 20
0101
0110
0000
0000
,  // measure 21
0110
1100
0000
0000
,  // measure 22
0001
0100
1000
0000
,  // measure 23
1000
0100
0010
0000
,  // measure 24
1010
1100
0000
0000
,  // measure 25
1100
0110
0000
0000
,  // measure 26
0010
0001
0100
0000
,  // measure 27
0100
0010
1000
0100
,  // measure 28
0110
0000
0010
0001
,  // measure 29
0100
0000
0100
1000
,  // measure 30
0100
0001
0010
1000
,  // measure 31
0010
0010
0100
1000
,  // measure 32
0010
0001
0000
0010
,  // measure 33
0100
0001
0000
0000
,  // measure 34
1000
0100
0010
0100
,  // measure 35
1000
0001
0001
0100
,  // measure 36
1100
0110
0010
0100
,  // measure 37
0101
0011
0010
0100
,  // measure 38
1000
0010
0100
0000
,  // measure 39
0001
0010
1000
0000
,  // measure 40
1010
0110
0100
0010
,  // measure 41
0011
0101
0100
0010
,  // measure 42
1000
0100
0010
0000
,  // measure 43
0100
1000
0001
0100
,  // measure 44
0110
1000
0010
0001
,  // measure 45
0100
1000
0100
0001
,  // measure 46
0010
1000
0001
0000
,  // measure 47
0010
0100
1000
0000
,  // measure 48
1100
1000
0100
0001
,  // measure 49
0010
1000
0010
0001
,  // measure 50
0100
1000
0010
0000
,  // measure 51
0100
0000
0100
0000
0001
1000
1000
0000
,  // measure 52
1001
0000
0000
0000
;
