#VERSION:0.83;
#TITLE:At Atelier;
#SUBTITLE:;
#ARTIST:FAKE TYPE.;
#TITLETRANSLIT:;
#SUBTITLETRANSLIT:;
#ARTISTTRANSLIT:;
#GENRE:;
#ORIGIN:;
#CREDIT:;
#BANNER:At Atelier.png;
#BACKGROUND:At Atelier-bg.png;
#PREVIEWVID:;
#JACKET:At Atelier-jacket.png;
#CDIMAGE:;
#DISCIMAGE:;
#LYRICSPATH:;
#CDTITLE:CDtitle.png;
#MUSIC:At Atelier.ogg;
#OFFSET:1.358000;
#SAMPLESTART:44.791000;
#SAMPLELENGTH:14.768000;
#SELECTABLE:YES;
#BPMS:0.000=130.012;
#STOPS:179.500=0.923;
#DELAYS:;
#WARPS:;
#TIMESIGNATURES:0.000=4=4;
#TICKCOUNTS:0.000=4;
#COMBOS:0.000=1;
#SPEEDS:0.000=1.000=0.000=0;
#SCROLLS:0.000=1.000;
#FAKES:;
#LABELS:0.000=Song Start;
#BGCHANGES:4.000=At Atelier.mp4=1.000=0=0=1=====,
99999=-nosongbg-=1.000=0=0=0 // don't automatically add -songbackground-
;
#KEYSOUNDS:;
#ATTACKS:
;

//---------------dance-single - PANVAS----------------
#NOTEDATA:;
#CHARTNAME:;
#STEPSTYPE:dance-single;
#DESCRIPTION:PANVAS;
#CHARTSTYLE:;
#DIFFICULTY:Beginner;
#METER:4;
#RADARVALUES:0.136545,0.210127,0.022757,0.000000,0.000000,126.000000,123.000000,3.000000,0.000000,0.000000,0.000000,0.000000,0.000000,0.000000,0.136545,0.210127,0.022757,0.000000,0.000000,126.000000,123.000000,3.000000,0.000000,0.000000,0.000000,0.000000,0.000000,0.000000;
#CREDIT:PANVAS;
#NOTES:
0000
0000
0000
0000
,
0000
0000
0000
0000
,
0000
0000
0000
0000
,
0000
0000
0000
0000
,
0000
0000
0000
0000
,
0001
0000
0000
0000
,
1000
0000
0000
0000
,
0010
0000
0000
0000
,
0100
0000
0010
0000
,
1000
0000
1000
0000
,
1000
0000
0000
0000
,
0001
0000
0001
0000
,
0001
0000
0000
0000
,
0100
0000
0000
0000
,
0010
0000
0000
0000
,
1000
0000
0000
0000
,
0100
0000
0010
0000
,
0001
0000
0000
0000
,
1000
0000
0000
0000
,
0010
0000
0000
0000
,
0100
0000
0000
0000
,
0001
0000
0001
0000
,
1000
0000
1000
0000
,
0010
0000
0100
0000
,
0010
0010
0010
0000
,
1001
0000
0001
0000
,
1000
1000
1000
0000
,
0010
0000
0100
0000
,
0010
0010
0010
0000
,
1000
0000
0100
0000
,
1000
1000
1000
0000
,
0000
0000
0001
0000
,
0100
0000
0010
0000
,
0100
0000
0000
0000
,
0001
0000
0000
0000
,
0010
0000
0000
0000
,
0100
0000
0000
0000
,
1000
0000
0000
0000
,
0010
0000
0000
0000
,
0100
0000
0000
0000
,
0001
0000
0000
0000
,
0010
0000
0001
0000
,
0100
0000
0010
0010
,
1000
0000
0001
0000
,
0100
0010
1001
0000
,
0000
0000
1000
0000
,
0001
0000
1000
0001
,
1000
0000
0010
0000
,
0100
0000
0010
0100
,
0010
0000
0100
0000
,
0001
0000
0100
0001
,
0100
0000
0000
0000
,
0010
0000
1000
0010
,
1000
0000
0001
0000
,
1000
0000
0010
0010
,
0010
0000
0100
0000
,
0001
0000
1000
1000
,
0001
0001
1000
0000
,
0100
0000
0010
0010
,
0100
0000
0010
0000
,
0001
0000
0100
0100
,
0010
0010
1001
0000
,
0100
0000
0010
0010
,
0010
0000
1000
0000
,
0000
0000
0001
0000
,
0000
0000
0010
0000
,
0100
0000
1000
1000
,
1000
0000
0001
0000
,
1000
0000
0010
0000
,
0100
0100
0000
0000
;

//---------------dance-single - PANVAS----------------
#NOTEDATA:;
#CHARTNAME:;
#STEPSTYPE:dance-single;
#DESCRIPTION:PANVAS;
#CHARTSTYLE:;
#DIFFICULTY:Easy;
#METER:7;
#RADARVALUES:0.285010,0.395411,0.144130,0.128959,0.003793,263.000000,244.000000,19.000000,17.000000,0.000000,0.000000,0.000000,0.000000,0.000000,0.285010,0.395411,0.144130,0.128959,0.003793,263.000000,244.000000,19.000000,17.000000,0.000000,0.000000,0.000000,0.000000,0.000000;
#CREDIT:PANVAS;
#NOTES:
0000
0000
0000
0000
,
0000
0000
0000
0000
,
0000
0000
0000
0000
,
0000
0000
0000
0000
,
0000
0000
0000
0000
,
0001
0001
1000
0001
,
1000
1000
0001
1000
,
0010
0000
0010
0000
0100
0000
0001
0010
,
0100
0010
0001
1000
,
1010
0010
1010
1000
,
0001
0000
0010
0010
0010
0000
0100
0000
,
1100
0100
1100
1000
,
0001
0100
0001
0000
,
0010
0000
0001
0000
0100
0010
0100
0000
,
0010
0000
1000
0000
0100
0010
0100
0000
,
0010
0001
0100
0010
,
1000
0000
0001
0010
0001
0000
0000
0000
,
0020
0032
0203
0320
,
1030
0100
0010
0001
,
2000
3200
0320
0230
,
1300
0100
1000
0010
,
0000
0100
0000
0001
,
1000
0010
1000
0001
,
0010
0100
1000
0100
,
1000
0000
1000
0000
1000
0001
1000
0000
,
0001
0100
0010
1000
,
0001
0010
0100
1000
,
1001
0010
1001
0100
,
1001
0000
0110
0000
1001
0001
1000
0000
,
0001
0001
1000
1000
,
0001
1000
1001
0110
,
0100
0010
1000
0001
,
0010
0000
0100
1000
0100
0000
0000
0000
,
1000
0000
0001
0000
,
0100
0000
0010
0000
,
1000
0000
0100
0000
,
0010
0000
0100
0000
,
1000
0100
1000
0100
,
0001
0100
0001
0100
,
1000
0100
0001
0100
,
1000
0000
0000
0000
0010
0000
0000
0000
0200
0000
0000
0300
0000
0000
0000
0000
,
0002
0023
0230
2300
,
3200
0000
0320
0000
0031
1000
0001
1000
,
0001
0100
0001
1000
,
0001
0000
0010
0000
0220
0000
0000
0330
,
0000
0000
1000
0001
,
0100
0100
0001
1000
,
0010
0010
1010
0010
,
0110
0100
0101
0011
,
0010
0100
0010
0000
0100
0000
0100
0000
,
1000
1000
0001
1000
,
0100
0100
0000
0000
,
0010
0000
0100
0000
1000
0000
0001
0100
,
0001
0000
0100
0010
,
1000
0001
0010
0100
,
0010
0001
1000
0010
,
1000
0001
0010
0100
,
1000
0001
1000
0000
0001
0000
0100
0000
,
0001
0010
0001
0100
,
0010
1000
0001
0010
,
0100
1000
0100
1000
,
0010
0100
0001
0001
,
1000
1000
0001
1000
,
0110
0000
0010
0000
,
0100
0000
0001
0000
,
1000
0000
0100
0100
,
1000
1000
0001
1000
,
0110
0000
0010
0000
,
0100
0000
0001
0100
,
0010
1000
1001
0000
;

//---------------dance-single - PANVAS----------------
#NOTEDATA:;
#CHARTNAME:;
#STEPSTYPE:dance-single;
#DESCRIPTION:PANVAS;
#CHARTSTYLE:;
#DIFFICULTY:Medium;
#METER:10;
#RADARVALUES:0.378207,0.473639,0.250332,0.136545,0.102408,349.000000,316.000000,33.000000,18.000000,0.000000,0.000000,0.000000,0.000000,0.000000,0.378207,0.473639,0.250332,0.136545,0.102408,349.000000,316.000000,33.000000,18.000000,0.000000,0.000000,0.000000,0.000000,0.000000;
#CREDIT:PANVAS;
#NOTES:
0000
0000
0000
0000
,
0000
0000
0000
0000
,
0000
0000
0000
0000
,
0000
0000
0000
0000
,
0000
0000
0000
0000
,
1000
0000
0000
0001
0010
0000
0000
0010
0100
0000
0000
0100
0000
0000
0000
0000
,
0010
0000
0000
0010
0100
0000
0000
0100
1000
0000
0000
1000
0000
0000
0001
0000
,
1000
0000
0010
0000
0100
0000
0001
0010
,
0100
0000
0000
0010
0000
0000
0001
0000
1000
0000
0000
0000
0001
0000
0100
0000
,
0001
0000
0001
0100
0001
0000
0100
0000
,
0010
0000
1000
1000
1000
0000
0100
1000
,
0100
0000
1000
1000
0100
0000
1000
0100
,
0010
0000
0100
0010
0001
0000
0000
0000
,
0010
0000
0001
0000
0100
0010
1000
0000
,
0001
0000
1000
0000
0001
0100
0010
0000
,
0100
0000
0001
0000
0010
0000
0001
0010
,
0100
0000
0010
0001
0100
0000
0000
0000
,
0010
1010
0011
1010
,
1000
0100
0010
0000
0100
1000
0010
0000
,
0100
0101
1100
0101
,
0001
0100
0010
0000
0100
0001
1000
0001
,
0000
0010
0100
1000
0000
0100
0010
0000
,
0100
0000
0000
0000
1000
0000
0010
0000
0000
0000
0100
0000
0001
0000
0000
0001
,
0000
0010
0001
0000
0100
0010
1000
0001
,
0010
0000
0010
0000
0010
0100
1001
0000
,
0101
0101
1100
1100
,
1000
0100
0010
0001
0011
0000
1010
0000
,
2001
3100
1002
0103
,
0012
0000
0103
0000
0010
0200
0002
0303
,
1010
1010
0011
0011
,
0010
0100
1000
0001
0101
0000
1001
0000
,
0000
0000
1000
0100
,
0001
0000
0100
1000
0001
0000
0000
0000
,
0100
0000
0000
0000
0001
0000
0000
0000
0010
0000
0000
0000
0100
0000
0000
0100
,
0000
0000
0000
0000
0100
0000
0000
0100
0000
0000
0000
0000
0000
0000
0000
0000
,
1000
0000
0000
0000
0100
0000
0000
0000
1000
0000
0000
0000
0001
0000
0000
0001
,
0000
0000
0000
0000
1000
0000
0000
1000
0000
0000
0000
0000
0000
0000
0000
0000
,
0010
0000
1000
0000
0001
0000
0010
0001
,
0100
0000
0010
0000
1000
0000
0100
1000
,
0010
0000
0100
0000
0001
0000
0010
0100
,
1000
0000
0000
0000
0001
0000
0100
0000
0020
0000
0000
0030
0000
0000
0000
0000
,
0200
0320
2030
3002
,
0023
0000
0230
0000
1300
0100
0010
0001
,
1000
0000
0000
0010
0000
0000
1000
0000
0001
0000
0000
0010
0000
0000
0001
0000
,
0100
0000
0010
1000
0000
0000
0002
0000
2000
0000
0000
0000
0000
0000
3003
0000
,
0000
0000
0101
0101
,
1100
0000
1100
0000
1000
0100
0010
0001
,
0011
0000
0000
0000
1010
0000
0000
0000
0002
0000
0000
0103
0000
0000
0010
0000
,
2000
0000
0000
3100
0000
0000
0010
0000
0200
0000
0000
1300
0000
0000
0001
0000
,
0100
0010
0200
0000
0310
0000
0110
0000
,
1010
0000
1010
0000
1000
0010
0100
0001
,
0010
0000
0000
0110
0000
0000
0000
0000
0000
0000
0000
0000
0000
0000
0000
0000
,
0010
0000
0001
0000
0100
0000
0010
1000
,
0001
1000
0001
0100
,
0010
0000
1000
0010
0000
0100
0001
0010
,
0100
1100
0100
1000
,
0001
0000
0100
0001
0000
0010
0100
1000
,
0001
0100
0100
0000
0001
0000
1000
0000
,
0010
0000
1000
0001
0000
0010
0100
0000
,
0010
0001
0100
0010
,
1000
0000
0001
0010
0000
0001
0010
0100
,
1000
0010
0010
0000
0100
0000
0001
0000
,
0010
0000
0000
0000
0000
0100
0000
0000
0000
1000
0000
0000
0000
0000
0000
0100
0000
0000
1000
0000
0000
0010
0000
0000
,
0100
0000
0000
0000
0000
0001
0000
0000
0000
0000
0000
0000
1000
0000
0000
0000
0000
0000
0001
0000
0000
0000
0000
0000
,
0010
0001
0100
0010
,
1000
0001
0010
0100
,
1000
0000
0000
0000
0000
0100
0000
0000
0000
0010
0000
0000
0000
0000
0000
0100
0000
0000
1000
0000
0000
0010
0000
0000
,
0100
0000
0000
0000
0000
0001
0000
0000
0000
0000
0000
0000
0010
0000
0000
0000
0000
0000
0001
0000
0000
0000
0000
0000
,
0100
0000
0000
0000
0010
0000
0000
0000
0000
0000
1000
0000
0001
0000
1000
0001
,
0000
1000
0000
0001
1000
0000
1000
0000
0000
0000
0000
0000
0000
0000
0000
0000
;

//---------------dance-single - PANVAS----------------
#NOTEDATA:;
#CHARTNAME:;
#STEPSTYPE:dance-single;
#DESCRIPTION:PANVAS;
#CHARTSTYLE:;
#DIFFICULTY:Hard;
#METER:13;
#RADARVALUES:0.488743,0.526266,0.333776,0.348947,0.276882,451.000000,407.000000,44.000000,46.000000,13.000000,0.000000,0.000000,0.000000,0.000000,0.488743,0.526266,0.333776,0.348947,0.276882,451.000000,407.000000,44.000000,46.000000,13.000000,0.000000,0.000000,0.000000,0.000000;
#CREDIT:PANVAS;
#NOTES:
// measure 0
0000
0000
0000
0000
,  // measure 1
0000
0000
0000
0000
,  // measure 2
0000
0000
0000
0000
,  // measure 3
0000
0000
0000
0000
,  // measure 4
0000
0000
0000
0000
,  // measure 5
1000
0000
0001
0100
0001
0000
1000
0100
2000
0000
0000
3001
0000
0000
0000
0000
,  // measure 6
1000
0000
0001
0010
0001
0000
1000
0010
2000
0000
0000
3001
0000
0000
0010
0000
,  // measure 7
0001
0000
0001
0000
0100
0000
0010
0000
1000
0000
1000
0000
0010
0100
0010
0000
,  // measure 8
1000
0000
0000
0001
0000
0000
0100
0000
0020
0000
0000
0000
0130
0000
0100
0000
,  // measure 9
0101
0000
0100
0100
0101
0000
0001
0010
,  // measure 10
0100
0010
0001
0001
0011
0000
1000
0010
,  // measure 11
0110
0000
1000
1000
0110
0000
0100
0010
,  // measure 12
1000
0000
0001
2000
0020
3000
0030
0000
,  // measure 13
1000
0000
0000
0100
0000
0000
0010
0000
0000
0100
0000
1000
0000
0000
0000
0010
0000
0000
1010
0000
0000
0000
0000
0000
,  // measure 14
0001
0000
0000
0000
0000
0000
0100
0000
0000
0010
0000
0000
0100
0000
0000
0000
0000
0000
0001
0000
0000
0000
0100
0000
0000
0000
0000
0000
0000
0000
0001
0000
0000
0000
0000
0000
0011
0000
0000
0000
0000
0000
0000
0000
0000
0000
0000
0000
,  // measure 15
0010
0000
0001
0000
1000
0000
0010
1000
0000
0000
0100
0000
0010
0000
0100
0000
,  // measure 16
1000
0000
0001
0200
0002
0300
0003
0000
,  // measure 17
1000
0100
0010
0010
0100
0100
1000
1000
,  // measure 18
0100
0010
0001
0100
0010
1000
0001
0000
,  // measure 19
1000
0001
0010
0010
0001
0001
0100
0100
,  // measure 20
0010
1000
0001
0010
0100
0010
0001
1000
,  // measure 21
0000
0001
1000
0010
0000
0100
0010
1000
,  // measure 22
0001
0000
0010
0000
0100
0000
0010
0000
0000
0000
0001
0000
0001
0000
0000
0100
,  // measure 23
0000
0000
0010
1000
0010
0000
0100
0000
0001
0010
0100
0010
0100
0000
1000
0000
,  // measure 24
0010
0000
0010
0000
0010
0100
1001
0000
,  // measure 25
1020
0000
0000
0000
0100
0000
0000
0000
1000
0000
0000
1030
0000
0000
0100
0010
,  // measure 26
0001
0000
0001
0000
1000
0000
1000
0000
0002
0000
0000
0013
0000
0000
0001
0000
,  // measure 27
0201
0000
0000
0310
0000
0000
0001
0010
0200
0000
0000
0310
0000
0000
0010
0001
,  // measure 28
2000
0000
0000
3001
0000
0000
0010
0000
0200
0000
2300
0000
0020
0000
3030
0000
,  // measure 29
0201
0000
0000
0000
0000
0000
0000
0000
0000
0000
0000
0000
0010
0000
0000
0000
0000
0000
0000
0000
0000
0000
0000
0000
0001
0000
0000
0000
0000
0000
0000
0000
0000
0301
0000
0000
0000
0000
0000
0000
1000
0000
0000
0000
0000
0001
0000
0000
,  // measure 30
1000
0000
1000
0000
0001
0000
0100
0000
0002
0000
0000
0013
0000
0000
M000
0000
,  // measure 31
0M00
0000
M000
0000
0M00
0000
0000
0000
0001
0000
0010
0000
0100
0000
0010
0001
,  // measure 32
0000
1000
0010
0200
0020
0300
0030
0000
,  // measure 33
1000
0000
0000
0000
0100
0000
0000
0000
1000
0000
0000
0010
0100
0000
0000
0101
,  // measure 34
0000
0000
0000
0010
0100
0000
0000
0101
0000
0000
0000
0000
0000
0000
0000
0000
,  // measure 35
0001
0000
0000
0000
0010
0000
0000
0000
0001
0000
0000
0000
1020
0000
0000
0130
,  // measure 36
0000
0000
0001
0000
0102
0000
0000
2000
0000
0000
0003
0000
3000
0000
0001
0000
,  // measure 37
0001
0010
0100
1000
0000
0100
1000
0010
,  // measure 38
0100
0010
0100
0001
0000
0010
0001
0010
,  // measure 39
0100
0000
0010
0000
0100
0000
1000
0000
0000
0000
0001
0000
0010
0000
0100
1000
,  // measure 40
0010
0000
0000
0100
0000
0000
0010
0000
1000
0000
0000
MMMM
0000
0000
0000
0000
,  // measure 41
2000
3200
0302
0203
,  // measure 42
0320
0000
0032
0000
0203
0320
0230
0320
,  // measure 43
0230
0000
0000
0301
0000
0000
0010
0000
0200
0000
0000
1300
0000
0000
0100
0000
,  // measure 44
0010
0000
0010
0200
0000
0000
1000
0000
2000
0000
0000
0000
0000
0000
0000
0000
,  // measure 45
3000
0300
1002
0100
,  // measure 46
1000
0000
0000
1003
0000
0000
0001
1000
0100
0000
1000
0000
0001
0000
0100
0000
,  // measure 47
0002
0000
0000
0103
0000
0000
0010
0000
1020
0000
0000
0130
0000
0000
0001
0010
,  // measure 48
0002
0000
0000
0013
0000
0000
0100
0010
0002
0000
0000
1003
0000
0000
0010
0000
,  // measure 49
2000
3200
0020
0330
0021
0000
0001
0000
,  // measure 50
0100
0000
0000
0000
0000
0000
0000
0000
0000
0130
0000
0000
0000
0000
0000
0000
1000
0000
0000
0000
0000
0100
0000
0000
1000
0000
0000
0000
0000
0000
0010
0000
0000
0000
0000
0000
0100
0000
0000
0000
0000
0000
0001
0000
0000
0000
0000
0000
,  // measure 51
2000
0000
0000
3010
0000
0000
000M
0000
M000
0000
000M
M000
000M
0000
0000
0000
,  // measure 52
1000
0000
0100
0000
1000
0000
0001
0100
0000
0000
0010
0000
1000
0000
0001
0000
,  // measure 53
1000
0000
0110
1001
,  // measure 54
1010
0000
0000
0000
0000
0001
0100
0000
0000
0010
0000
0000
0000
0000
0000
0100
0000
0000
0010
0000
0000
1000
0000
0000
,  // measure 55
0001
0000
0000
0010
0000
0001
0000
0000
0001
0100
0000
0000
0110
0000
0000
0000
0000
0000
1010
0000
0000
0000
0000
0000
,  // measure 56
1100
0000
0000
0000
0000
0000
0000
0000
0000
0000
1000
0000
0100
0000
0000
0000
0000
0000
0010
0000
0000
0000
0000
0000
0000
0000
0000
0000
0000
0000
0100
0000
0000
1000
0000
0000
0001
0000
0000
0000
0000
0000
0100
0000
0000
0000
0000
0000
,  // measure 57
0010
1000
1000
0000
1010
0000
0101
0000
,  // measure 58
1001
0000
0000
0000
0000
0001
1000
0000
0000
0010
0000
0000
0000
0000
0000
0100
0000
0000
0001
0000
0000
0010
0000
0000
,  // measure 59
0100
0000
0000
1000
0000
0100
0000
0000
0100
0010
0000
0000
0011
0000
0000
0000
0000
0000
1001
0000
0000
0000
0000
0000
,  // measure 60
0101
0000
0000
0000
0000
0000
0000
0000
0000
0000
0001
0000
0010
0000
0000
0000
0000
0000
0100
0000
0000
0000
0000
0000
1000
0000
0000
0000
0000
0000
1000
0000
0000
0100
0000
0000
0010
0000
0000
0000
0000
0000
0100
0000
0000
0000
0000
0000
,  // measure 61
1000
0001
0100
0010
1010
0000
0101
0000
,  // measure 62
0011
0000
0000
0000
0000
0110
0000
0000
0000
1100
0000
0000
0000
0000
0000
0010
0000
0000
0001
0000
0000
0100
0000
0000
,  // measure 63
0110
0000
0000
0000
0000
1001
0000
0000
0000
0000
0000
0000
0001
0000
0000
0000
0000
0000
0100
0000
0000
0000
0000
0000
,  // measure 64
0010
1000
0100
1000
0000
0100
0010
0001
,  // measure 65
0000
0010
0100
1000
1100
0000
0110
0000
,  // measure 66
0011
0000
0000
0000
0000
0101
0000
0000
0000
0110
0000
0000
0000
0000
0000
0010
0000
0000
0100
0000
0000
0100
0000
0000
,  // measure 67
0110
0000
0000
0000
0000
0000
0000
0000
0000
0000
1010
0000
0000
0000
0000
0000
0000
0000
0000
0000
0000
0000
0000
0000
0001
0000
0000
0000
0000
0000
1000
0000
0000
0010
0000
0000
1000
0000
0000
0000
0000
0000
0010
0000
0000
0000
0000
0000
,  // measure 68
0100
0000
0001
0000
1000
0000
0001
0000
0000
0000
1000
0000
0001
0000
0010
0100
,  // measure 69
0000
0010
0000
0001
0100
0000
0100
0000
0000
0000
0000
0000
0000
0000
0000
0000
;
