#VERSION:0.83;
#TITLE:阿修羅ちゃん;
#SUBTITLE:;
#ARTIST:Ado;
#TITLETRANSLIT:Ashura-chan;
#SUBTITLETRANSLIT:;
#ARTISTTRANSLIT:;
#GENRE:;
#CREDIT:;
#MUSIC:Ashura-chan.ogg;
#BANNER:Ashura-chan.png;
#BACKGROUND:Ashura-chan-bg.png;
#JACKET:Ashura-chan-jacket.png;
#CDTITLE:;
#SAMPLESTART:45.474;
#SAMPLELENGTH:24.615;
#SELECTABLE:YES;
#OFFSET:0.093;
#BPMS:0.000=156.000;
#STOPS:;
#SCROLLS:0.000=1.000;
#BGCHANGES:;
#FGCHANGES:;

//--------------- dance-single - FS+ XO+ ----------------
#NOTEDATA:;
#STEPSTYPE:dance-single;
#DESCRIPTION:FS+ XO+;
#DIFFICULTY:Hard;
#METER:15;
#RADARVALUES:0,0,0,0,0;
#NOTES:
0000
0000
0000
0000
,
1001
0000
0000
0000
1010
0000
0000
1000
0001
0000
0010
0100
0000
1000
0020
0000
,
0000
0000
0000
0000
0000
0000
0000
0030
1010
0000
0000
0000
0000
0000
0000
0000
,
0000
0000
0000
0000
,
0001
0000
0000
1000
0000
0000
0000
0000
0000
0100
0000
0000
0000
0000
0000
1000
0000
0000
0010
0000
0000
0000
0000
0000
0100
0000
0000
0000
0000
0000
0000
0000
0000
0000
MMMM
0000
0000
0000
0000
0000
0000
0000
2100
0000
0000
0000
0000
0000
,
0000
0000
3001
0000
0100
0000
0010
0000
0002
0000
0000
0013
0000
1000
0001
0000
,
0010
0100
0010
0000
0001
0000
0100
0000
2000
0000
0000
3100
0000
0001
0010
0000
,
0100
1000
0100
0000
0010
0000
0100
0000
0002
0000
0000
0103
0010
0100
1000
0000
,
0100
0001
0000
0000
0100
1000
0001
0010
0100
0000
1000
0010
0000
0000
0102
0000
,
0000
0000
1003
0000
0100
0000
0010
0000
2000
0000
0000
3010
0000
0001
1000
0000
,
0010
0100
0010
0000
1000
0000
0100
0000
0002
0000
0000
0103
0000
1000
0010
0000
,
0100
0001
0100
0000
0010
0000
0100
0000
2000
0000
0000
3100
0010
0100
0001
0000
,
0010
1000
0000
0000
0010
0001
1000
0010
0100
0000
0001
0010
0000
0000
2100
0000
,
0000
0000
0000
3001
0101
0100
0001
0012
,
0000
1003
0100
1000
0001
0100
0010
1000
,
0100
0000
1000
0000
0100
00M0
0100
0000
0001
0000
0011
0000
0010
0000
0100
1000
,
0002
0103
0001
1000
0100
1000
0010
0100
,
0001
0000
1000
0000
0001
0100
00M0
0100
1000
0010
1000
0000
1000
0010
0100
0001
,
0020
0130
1000
0100
0001
0100
1000
0001
,
0100
0000
0001
0000
0010
0M00
0010
0000
1000
0000
0100
0000
0010
0000
0001
1000
,
0020
0000
0130
0000
1000
0000
0100
0001
0100
0000
0010
0000
1000
0000
0001
0000
,
0010
0000
0100
0000
1000
0010
0100
0000
0001
0100
0010
1000
0100
0000
1000
0000
,
1001
0000
0000
0101
0000
0000
0021
0000
0000
0000
0031
0100
0001
0000
1000
0100
,
1000
0000
0100
1000
0000
0001
0200
0000
0000
0000
0301
1000
0100
0000
0010
0000
,
0110
0000
0100
1000
0001
0000
0100
0000
0010
0000
0100
0000
0001
0000
0010
0000
,
1000
0000
0010
0001
0000
0001
0200
0000
0000
0000
0301
1000
0100
0010
0001
1000
,
0010
0000
0000
0110
0000
0000
0200
0000
0000
0000
0301
0100
0001
0000
0100
0001
,
0010
0000
0001
0100
0000
0001
0010
0000
0000
0000
0100
0010
1000
0000
1020
0000
,
0000
0031
0010
0100
1000
0001
0100
1000
,
0100
0001
0000
0010
0000
1000
0010
0000
0001
0000
1000
0000
0100
0000
0001
0000
,
0201
0000
0000
0000
0010
0000
0000
0000
1300
0000
0001
0000
0100
00M0
0100
0000
,
0010
0000
0001
0000
0100
00M0
0100
0000
1000
0000
0001
0000
0010
0000
1000
0000
,
1020
0000
0000
0000
0100
0000
0000
0000
0031
0000
1000
0000
0010
0M00
0010
0000
,
0100
0000
1000
0000
0010
0M00
0010
0000
0001
0000
0100
0000
0010
0000
0001
0000
,
0011
0010
1000
0100
1000
0001
0100
1000
,
1001
0000
0001
0000
0010
0000
1000
0000
0100
0000
1000
0001
0100
0000
2010
0000
,
0000
0000
3001
0000
0010
0000
0001
0000
0100
0000
0010
0000
1000
0100
0010
0100
,
0001
0000
0000
0000
1200
0000
0000
0000
1300
0000
0001
0100
0001
0000
0100
0020
,
0001
0000
0000
0000
0100
0000
0000
0000
1030
0000
0001
0000
0010
0M00
0010
0000
,
0100
0000
0001
0000
0010
0M00
0010
0000
1000
0000
0001
0000
0100
0000
1000
0000
,
1200
0000
0000
0000
0010
0000
0000
0000
0301
0000
1000
0000
0100
00M0
0100
0000
,
0010
0000
1000
0000
0100
00M0
0100
0000
0001
0000
0010
0000
0100
0000
0001
0000
,
0101
0100
1000
0010
1000
0001
0010
1000
,
1001
0000
0001
0000
0100
0000
1000
0000
0010
0000
1000
0001
0010
0000
2100
0000
,
0000
0000
3001
0000
0100
0000
0001
0000
0010
0000
0100
0000
1000
0010
0100
0010
,
0001
0000
0000
0000
2010
0000
0000
0000
3010
0100
0001
0010
0200
0000
0000
0300
,
1100
0000
0000
0000
0101
0000
0000
0001
0010
0000
0001
0100
0000
0001
0020
0000
,
0000
0000
0000
0000
0000
0000
0000
0030
0011
0000
0000
0000
0000
0000
2010
0000
,
0000
0000
3001
0000
0010
0000
0100
0000
0002
0000
0000
0103
0000
1000
0001
0000
,
0100
0010
0100
0000
0001
0000
0010
0000
2000
0000
0000
3010
0000
0001
0100
0000
,
0010
1000
0010
0000
0100
0000
0010
0000
0002
0000
0000
0013
0100
0010
1000
0000
,
0010
0001
0000
0000
0010
1000
0001
0100
0010
0000
1000
0100
0000
0000
0012
0000
,
0000
0000
1003
0000
0010
0000
0100
0000
2000
0000
0000
3100
0000
0001
1000
0000
,
0100
0010
0100
0000
1000
0000
0010
0000
0002
0000
0000
0013
0000
1000
0100
0000
,
0010
0001
0010
0000
0100
0000
0010
0000
2000
0000
0000
3010
0100
0010
0001
0000
,
0100
1000
0000
0000
0100
0001
1000
0100
0010
0000
0001
0100
0000
0000
2010
0000
,
0000
0000
0000
3000
,
1001
0000
0000
0000
0000
0000
0001
0000
0100
00M0
0100
0000
1000
0000
0100
00M0
0100
0000
0001
0000
0100
00M0
0100
0000
,
1000
0000
0010
0M00
0010
0000
0100
0000
0000
1000
0000
0000
0010
0000
0100
0000
0001
0000
1000
0000
0000
0100
0000
0000
,
1200
0000
0000
1300
0010
0100
2000
0000
3100
0001
0010
0001
,
0100
00M0
0100
0000
1000
0000
0010
0M00
0010
0000
0001
0000
0100
00M0
0100
0000
1000
0000
0001
0000
0000
0100
0000
0000
,
0201
0000
0000
0000
0000
0000
0301
0000
0100
00M0
0100
0000
1000
0000
0010
0M00
0010
0000
0001
0000
0010
0000
0100
0000
,
0002
0000
0000
0000
0103
0000
1000
0000
0100
00M0
0100
0000
0001
0000
0010
0M00
0010
0000
1000
0000
0000
0001
0000
0000
,
1001
0000
0000
0000
0000
0000
1000
0000
0100
0000
1000
0000
0001
0000
0100
0000
0001
0000
0010
0000
0000
0000
0001
1000
,
0010
0000
1000
0100
0000
1000
0010
0000
1000
0001
0010
0000
0000
0000
0100
1000
,
0010
0000
0000
0100
0000
0000
0201
0000
0000
0000
0301
0010
0001
0000
0010
0001
,
0100
0010
0000
1000
0100
0000
0020
0000
0000
0000
0031
1000
0010
0000
0100
0000
,
0110
0000
0010
1000
0000
1000
0200
0000
0000
0000
0310
0000
0001
0000
0100
0000
,
1000
0000
0100
0001
1000
0000
0200
0000
0000
0000
0310
0001
0010
0000
0001
0100
,
0010
0000
0000
0110
0000
0000
0020
0000
0000
0000
1030
0010
1000
0000
0010
1000
,
0100
0000
1000
0010
0000
1000
0100
0000
0000
0000
0010
0100
0001
0000
0201
0000
,
0000
1300
0100
0010
0001
1000
0010
0002
,
0000
0000
0000
0000
0000
0000
0000
0000
0003
0000
0000
0000
1020
0000
0000
0000
0000
0000
0000
0000
0000
0000
0000
0000
1030
0000
0000
0000
0000
0000
0001
0000
0000
0100
0000
0000
0001
0000
0000
0000
0000
0000
0010
0000
0000
0001
0000
0000
,
0100
0000
0001
0010
0000
0100
1000
0000
0010
1000
0000
0100
0020
0000
0000
0000
,
1030
0010
0000
0001
0000
0100
1000
0000
0100
0000
0001
0000
0010
0000
0001
0000
,
1000
0020
0001
0000
0100
0000
0000
0000
1030
0000
0000
0000
0100
00M0
0100
0000
,
0001
0000
0010
0M00
0010
0000
1000
0000
0000
0000
0000
0000
1000
0000
0100
00M0
0100
0000
0001
0000
1000
0000
0000
0000
0100
0000
0000
0000
0001
0000
0000
0000
,
0201
0000
0000
0000
0010
0000
0000
0000
1300
0000
0000
0000
0100
00M0
0100
0000
,
0010
0000
1000
0001
0010
0000
0010
0001
1000
0000
0010
0000
0100
0000
1000
0000
,
1100
0000
0100
0000
0001
0010
0100
0000
1000
0000
0001
0100
0010
0000
0001
0000
,
1000
0100
0001
0000
0010
0001
1000
0001
0100
0000
0000
1000
0000
0000
1200
0000
,
0000
0301
0010
0001
0100
0100
0001
0010
,
1000
0000
0000
0000
0021
0000
0000
0000
0000
0000
0031
0010
0001
0000
0010
0200
,
0001
0000
0000
0000
0010
0000
0000
0000
1300
0000
0001
0000
0100
00M0
0100
0000
,
0010
0000
0001
0000
0100
00M0
0100
0000
1000
0000
0001
0000
0010
0000
1000
0000
,
1020
0000
0000
0000
0100
0000
0000
0000
0031
0000
1000
0000
0010
0M00
0010
0000
,
0100
0000
1000
0000
0010
0M00
0010
0000
0001
0000
0100
0000
0010
0000
0001
0000
,
0011
0010
1000
0100
1000
0001
0100
1000
,
1001
0000
0001
0000
0010
0000
1000
0000
0100
0000
1000
0001
0100
0000
2010
0000
,
0000
0000
3001
0000
0010
0000
0001
0000
0100
0000
0010
0000
1000
0100
0010
0100
,
0001
0000
0000
0000
2100
0000
0000
0000
0000
0000
3100
1000
0010
0000
0100
0001
,
0010
0000
0000
0000
0110
0000
0000
0000
1001
0000
0001
0010
0000
0001
0100
0000
,
0000
0000
0010
0100
0002
0000
0000
0000
0103
0010
0100
0000
0100
0010
0001
0010
,
1000
0000
0000
0000
0100
0000
1000
0000
1100
0000
1000
0010
0000
1000
0200
0000
,
0000
0000
0000
0000
0000
0000
0310
0001
0100
0000
0000
0000
0000
0000
0000
0000
;

//--------------- dance-single - FS+ XO+ JA BU- ----------------
#NOTEDATA:;
#STEPSTYPE:dance-single;
#DESCRIPTION:FS+ XO+ JA BU-;
#DIFFICULTY:Challenge;
#METER:16;
#RADARVALUES:0,0,0,0,0;
#NOTES:
0000
0000
0000
0000
,
1001
0000
0000
0000
1010
0000
0000
1000
0100
0000
1000
0010
0000
1000
0200
0000
,
0000
0000
0000
0000
0000
0000
0000
0300
1100
0000
0000
0000
0000
0000
0000
0000
,
0000
0000
0000
0000
0000
0000
0000
0000
0000
0000
0000
0000
0000
0000
0001
0010
,
0001
0000
0000
0001
0000
0000
0000
0000
0000
0100
0000
0000
0000
0000
0000
0001
0000
0000
0001
0000
0000
0000
0000
0000
0010
0000
0000
0000
0000
0000
0000
0000
0000
0000
MMMM
0000
0000
0000
0000
0000
0000
0000
0102
0000
0000
0000
0000
0000
,
0000
0000
1003
0000
0100
0000
0010
0000
2000
0000
0000
3010
0000
0001
1000
0000
,
0010
0100
0010
0000
1000
0000
0100
0000
0002
0000
0000
0103
0000
1000
0010
0000
,
0100
0001
0100
0000
0010
0000
0100
0000
2000
0000
0000
3100
0010
0100
0001
0000
,
0010
0M00
0010
0000
1000
0000
0001
0000
0100
00M0
0100
0000
1000
0000
0010
0000
0100
0000
0000
0000
0001
0000
0010
0000
0000
0000
0000
0000
2100
0000
0000
0000
,
0000
0000
3001
0000
0100
0000
0010
0000
0002
0000
0000
0013
0000
1000
0001
0000
,
0010
0100
0010
0000
0001
0000
0100
0000
2000
0000
0000
3100
0000
0001
0010
0000
,
0100
1000
0100
0000
0010
0000
0100
0000
0002
0000
0000
0103
0010
0100
1000
0000
,
0010
0M00
0010
0000
0001
0000
1000
0000
0100
00M0
0100
0000
0001
0000
0010
0000
0100
0000
0000
0000
1000
0000
0010
0000
0000
0000
0000
0000
0102
0000
0000
0000
,
0000
0000
0000
1003
1100
0100
1000
2010
,
0000
3001
0100
0001
1000
0100
0010
0001
,
0100
0000
0001
0000
0100
00M0
0100
0000
1000
0000
1010
0000
0010
0000
0100
0001
,
2000
3100
1000
0001
0100
0001
0010
0100
,
1000
0000
0000
0000
0000
0000
0001
0000
0000
0000
0000
0000
1000
0000
0000
0100
0000
0000
00M0
0000
0000
0100
0000
0000
0001
0000
0100
0000
0010
0000
1000
0000
0000
0000
0000
0000
0001
0000
0000
0010
0000
0000
0100
0000
0000
1000
0000
0000
,
0020
0130
0001
0100
1000
0100
0001
1000
,
0100
0000
1000
0000
0010
0M00
0010
0000
0001
0000
0100
0000
0010
0000
1000
0001
,
0020
0000
0130
0000
0001
0000
0100
1000
0100
0000
0010
0000
0001
0000
1000
0000
,
0010
0000
0100
0000
0001
0010
0100
1000
0001
0100
0010
1000
0100
0000
1000
0000
,
1001
0000
0000
0101
0000
0000
0021
0000
0000
0000
0031
0100
0001
1000
0100
1000
,
0010
0000
0100
0001
0000
1000
0200
0000
0000
0000
1300
0001
0100
0000
0010
0000
,
0110
0000
0100
0001
1000
0000
0100
0000
0010
0000
0100
0000
1000
0000
0010
0000
,
0001
0000
0010
1000
0001
0010
0200
0000
0000
0000
1300
0001
0100
0010
1000
0001
,
0010
0000
0000
0110
0000
0000
0200
0000
0000
0000
1300
0100
1000
0001
0100
0001
,
0010
0000
0001
0100
0000
0001
0010
0000
0000
0000
0100
0010
1000
0000
1020
0000
,
0000
0031
0010
0100
1000
0001
0100
1000
,
0100
0100
0000
0001
0000
0010
0010
0000
0100
0000
1000
0000
0100
0000
0001
0000
,
0201
0000
0000
0000
0010
0000
0000
0000
1300
0000
0001
0000
0100
00M0
0100
0000
,
0010
0000
0001
0000
0100
00M0
0100
0000
1000
0000
0001
0000
0010
0000
1000
0000
,
1020
0000
0000
0000
0100
0000
0000
0000
0031
0000
1000
0000
0010
0M00
0010
0000
,
0100
0000
1000
0000
0010
0M00
0010
0000
0001
0000
0100
0000
0010
0000
0001
0000
,
0011
0010
1000
0100
1000
0001
0100
1000
,
1001
0000
0001
0000
0010
0000
1000
0000
0100
0000
1000
0001
0100
0000
2010
0000
,
0000
0000
3001
0000
0010
0000
0001
0000
0100
0000
0010
0000
1000
0100
0010
0100
,
0001
0000
0000
0000
0000
0000
0000
0000
0100
0000
1000
0000
0002
0000
0000
0000
0000
0000
0000
0000
0000
0000
0000
0000
0103
0000
0000
0000
0000
0000
0001
0000
0000
0010
0000
0000
0001
0000
0000
1000
0000
0000
0010
0000
0000
0200
0000
0000
,
1000
0000
0000
0000
0010
0000
0000
0000
0301
0000
1000
0000
0100
00M0
0100
0000
,
0010
0000
1000
0000
0100
00M0
0100
0000
0001
0000
1000
0000
0010
0000
0001
0000
,
0021
0000
0000
0000
0100
0000
0000
0000
1030
0000
0001
0000
0010
0M00
0010
0000
,
0100
0000
0001
0000
0010
0M00
0010
0000
1000
0000
0100
0000
0010
0000
1000
0000
,
1010
0010
0001
0100
0001
1000
0100
0001
,
1001
0000
1000
0000
0010
0000
0001
0000
0100
0000
0001
1000
0100
0000
0012
0000
,
0000
0000
1003
0000
0010
0000
1000
0000
0100
0000
0010
0000
0001
0100
0010
0100
,
1000
0000
0000
0000
0000
0000
0000
0000
0100
0000
0001
0000
2000
0000
0000
0000
0000
0000
0000
0000
0000
0000
0000
0000
3100
0000
0000
0010
0000
0000
0001
0000
0000
0100
0000
0000
0020
0000
0000
0000
0000
0000
0000
0000
0000
0030
0000
0000
,
1010
0000
0000
0000
0011
0000
0000
0001
0100
0000
0001
0010
0000
0001
0200
0000
,
0000
0000
0000
0000
0000
0000
0000
0300
0101
0000
0000
0000
0000
0000
2010
0000
,
0000
0000
3001
0000
0010
0000
0100
0000
0002
0000
0000
0103
0000
1000
0001
0000
,
0100
0010
0100
0000
0001
0000
0010
0000
2000
0000
0000
3010
0000
0001
0100
0000
,
0010
1000
0010
0000
0100
0000
0010
0000
0002
0000
0000
0013
0100
0010
1000
0000
,
0100
00M0
0100
0000
0001
0000
1000
0000
0010
0M00
0010
0000
0001
0000
0100
0000
0010
0000
0000
0000
1000
0000
0100
0000
0000
0000
0000
0000
0012
0000
0000
0000
,
0000
0000
1003
0000
0010
0000
0100
0000
2000
0000
0000
3100
0000
0001
1000
0000
,
0100
0010
0100
0000
1000
0000
0010
0000
0002
0000
0000
0013
0000
1000
0100
0000
,
0010
0001
0010
0000
0100
0000
0010
0000
2000
0000
0000
3010
0100
0010
0001
0000
,
0100
00M0
0100
0000
1000
0000
0001
0000
0010
0M00
0010
0000
1000
0000
0100
0000
0010
0000
0000
0000
0001
0000
0100
0000
0000
0000
0000
0000
2010
0000
0000
0000
,
0000
0000
0000
3000
,
2001
0000
0000
0000
0000
0000
3001
0000
0100
00M0
0100
0000
1000
0000
0100
00M0
0100
0000
0001
0000
0100
00M0
0100
0000
,
1000
0000
0010
0M00
0010
0000
0100
0000
0000
1000
0000
0000
0010
0000
0100
0000
0001
0000
1000
0000
0000
0100
0000
0000
,
1200
0000
0000
1300
0010
0100
2000
0000
3100
0001
0010
0001
,
0100
00M0
0100
0000
1000
0000
0010
0M00
0010
0000
0001
0000
0100
00M0
0100
0000
1000
0000
0001
0000
0000
0100
0000
0000
,
0201
0000
0000
0000
0000
0000
0301
0000
0100
00M0
0100
0000
1000
0000
0010
0M00
0010
0000
0001
0000
0010
0000
0100
0000
,
0002
0000
0000
0000
0103
0000
1000
0000
0100
00M0
0100
0000
0001
0000
0010
0M00
0010
0000
1000
0000
0000
0001
0000
0000
,
1001
0000
0000
0000
0000
0000
1000
0000
0100
0000
1000
0000
0001
0000
0100
0000
0001
0000
0010
0000
0000
0000
0001
1000
,
0010
0000
1000
0100
0000
1000
0010
0000
1000
0001
0010
0000
0000
0000
0100
1000
,
0010
0000
0000
0100
0000
0000
0201
0000
0000
0000
0301
0010
0001
1000
0010
1000
,
0100
0010
0000
0001
0100
0000
0020
0000
0000
0000
1030
0001
0010
0000
0100
0000
,
0110
0000
0010
0001
1000
0001
0200
0000
0000
0000
0310
0000
1000
0000
0100
0000
,
0001
0000
0100
1000
0001
0000
0200
0000
0000
0000
0310
1000
0010
0100
0001
1000
,
0100
0000
0000
0110
0000
0000
0020
0000
0000
0000
0031
0010
0001
1000
0010
1000
,
0100
0000
1000
0010
0000
1000
0100
0000
0000
0000
0010
0100
0001
0000
0201
0000
,
0000
1300
0100
0010
0001
1000
0010
0002
,
0000
0000
0000
0000
0000
0000
0000
0000
0013
0000
1000
0000
0200
0000
0000
0000
0000
0000
0000
0000
0000
0000
0000
0000
1300
0000
0000
0000
0000
0000
0001
0000
0000
0100
0000
0000
0001
0000
0000
0100
0000
0000
0010
0000
0000
1000
0000
0000
,
0100
0000
1000
0010
0000
0100
0001
0000
0010
0001
0000
0100
0020
0000
0000
0000
,
1030
1000
0000
0001
0000
0010
0010
0000
0100
0000
1000
0000
0010
0000
1000
0000
,
0001
0020
1000
0000
0100
0000
0000
0000
0031
0000
0000
0000
0100
00M0
0100
0000
,
1000
0000
0010
0M00
0010
0000
0001
0000
0100
0000
00M0
0000
0100
0000
1000
0000
0010
0M00
0010
0000
0001
0000
0000
0000
0100
0000
0000
0000
1000
0000
0000
0000
,
1200
0000
0000
0000
0010
0000
0000
0000
0301
0000
0000
0000
0100
00M0
0100
0000
,
0010
0000
0001
1000
0010
0100
0010
1000
0001
0000
0010
0000
0100
0000
0001
0000
,
0101
0000
0100
0000
1000
0010
0100
0000
0001
0000
1000
0100
0010
0000
1000
0000
,
0001
0100
1000
0000
0010
1000
0001
1000
0100
0000
0000
0001
0000
0000
0201
0000
,
0000
1300
0010
1000
0100
0100
1000
0010
,
0001
0000
0000
0000
0000
0000
0000
0000
0010
0000
1000
0000
0002
0000
0000
0000
0000
0000
0000
0000
0000
0000
0000
0000
0000
0000
0000
0000
0000
0000
1003
0000
0000
0010
0000
0000
1000
0000
0000
0001
0000
0000
0010
0000
0000
0200
0000
0000
,
0001
0000
0000
0000
0010
0000
0000
0000
1300
0000
0001
0000
0100
00M0
0100
0000
,
0010
0000
0001
0000
0100
00M0
0100
0000
1000
0000
0001
0000
0010
0000
1000
0000
,
1020
0000
0000
0000
0100
0000
0000
0000
0031
0000
1000
0000
0010
0M00
0010
0000
,
0100
0000
1000
0000
0010
0M00
0010
0000
0001
0000
0100
0000
0010
0000
0001
0000
,
0011
0010
1000
0100
1000
0001
0100
1000
,
1001
0000
0001
0000
0010
0000
1000
0000
0100
0000
1000
0001
0100
0000
2010
0000
,
0000
0000
3001
0000
0010
0000
0001
0000
0100
0000
0010
0000
1000
0100
0010
0100
,
0001
0000
0000
0000
0000
0000
0000
0000
0100
0000
1000
0000
0002
0000
0000
0000
0000
0000
0000
0000
0000
0000
0000
0000
0000
0000
0000
0000
0000
0000
0103
0000
0000
0001
0000
0000
0010
0000
0000
0001
0000
0000
0100
0000
0000
1000
0000
0000
,
0001
0000
0000
0000
0000
0000
0000
0000
0000
0000
0000
0000
0110
0000
0000
0000
0000
0000
0000
0000
1000
0000
0001
0000
0010
0000
0000
0000
0000
0000
1000
0000
0000
0010
0000
0000
0000
0000
0000
0001
0000
0000
0100
0000
0000
0000
0000
0000
,
0000
0000
0010
0100
2000
0000
0000
0000
3100
0010
0100
1000
0100
0010
1000
0100
,
0001
0000
0000
0000
0000
0000
0000
0000
0000
0000
0000
0000
0100
0000
0000
0000
0000
0000
0000
0000
1000
0000
0001
0000
0100
0000
0000
0000
0000
0000
0001
0000
0000
0010
0000
0000
0000
0000
0000
0001
0000
0000
0200
0000
0000
0000
0000
0000
,
0000
0000
0000
0000
0000
0000
0310
1000
0100
0000
0000
0000
0000
0000
0000
0000
;

//--------------- dance-single - FS+, SS+, BR+, XO, BU, SJ, DS- ----------------
#NOTEDATA:;
#STEPSTYPE:dance-single;
#DESCRIPTION:FS+, SS+, BR+, XO, BU, SJ, DS-;
#DIFFICULTY:Edit;
#METER:12;
#RADARVALUES:0,0,0,0,0;
#CREDIT:now we're DDDAAAncing;
#NOTES:
0000
0000
0000
0000
,
0011
0000
0000
0000
0000
0000
0000
0000
1010
0000
0000
0000
0000
0000
1000
0001
0100
0000
0000
0000
0000
0000
0101
0000
0000
0000
0000
0000
2200
0000
0000
0000
,
0000
0000
0000
0000
0000
0000
0000
0000
0000
0000
0000
0000
0000
0000
0000
0000
0000
0000
0000
0000
0000
3000
0000
0000
1300
0000
0000
0000
0000
0000
0000
0000
0000
0000
0000
0000
0000
0000
0000
0000
0000
0000
0000
1000
0000
0100
0000
0010
,
0000
0000
0000
0000
0001
0000
0000
0000
0000
0000
0000
0000
0000
0000
0000
1000
0000
0000
0000
0000
0000
0000
0000
0000
0000
0000
0000
0010
0000
0000
0000
0000
0000
0000
0000
0000
0000
0000
0000
0000
0000
0000
0000
0000
0000
0000
0000
0000
0000
0000
0000
1000
0000
0000
0000
0000
0000
0000
0000
0000
0000
0000
0000
0001
0000
0000
0000
0000
0000
0000
0000
0000
0000
0000
0000
0000
0000
0000
0000
0000
0000
0000
0000
0000
0000
0000
0000
0010
0000
0000
0000
0000
0000
0000
0000
0000
0000
0000
0000
0000
0000
0000
0000
0000
0000
0000
0000
0000
0000
0000
0000
0001
0000
0000
0000
0000
0000
0000
0000
0000
0000
0000
0000
0010
0000
0000
0000
0000
0000
0000
0000
0000
0000
0000
0000
0000
0000
0000
0000
0000
0000
0000
0000
0000
0000
0000
0000
0001
0000
0000
0000
0000
0000
0000
0000
0000
0000
0000
0000
0100
0000
0000
0000
0000
0000
0000
0000
0000
0000
0000
0000
0010
0000
0000
0000
0000
0000
0000
0000
0000
1000
0000
0000
0000
0000
0000
0001
0000
0000
0000
0000
0000
,
0100
0000
0000
0000
0000
0000
0000
0000
0000
0000
0000
0000
0000
010M
0000
0000
0000
0000
0000
0000
0000
0000
0000
0000
0000
0000
0000
0000
0000
0000
0000
0000
0000
0000
0000
0000
0000
0000
0000
0000
1000
0000
0000
0000
0000
0000
0000
0000
0000
0000
0000
0000
0000
0000
0000
0000
0000
0000
0000
0000
0000
0000
0000
0100
0000
0000
0000
0000
0000
0000
0000
0000
0000
0000
0000
M100
0000
0000
0000
0000
0000
0000
0000
0000
0000
0000
0000
0000
0000
0000
0000
0000
0000
0000
0000
0000
0000
0000
0001
0000
0000
0000
0000
0000
0000
0000
0000
0000
0000
0000
0000
0000
0000
0000
0000
0000
0000
0000
0000
0000
0000
0000
0000
0000
0000
0000
0000
0000
0000
0000
0000
0000
0000
0000
0000
0000
0101
0000
0000
0000
0000
0000
0000
0000
0000
0000
0000
0000
0000
0000
0000
0000
0000
0000
0000
0000
0000
0000
0000
0000
0000
0000
0000
0000
0000
0000
0000
0000
0111
0000
0000
0000
0000
0000
0000
0000
0000
0000
0000
0000
0000
0000
0000
0000
0000
0000
0000
0000
0000
0000
0000
0000
,
0000
0000
0000
0000
1M00
0000
0000
0000
0010
0000
0000
0000
0100
0000
0000
0000
2000
0000
0000
00M0
3000
0000
1000
0000
0000
0000
0100
0000
0010
0000
0000
0000
,
0001
0000
0010
0000
0100
0000
0000
0000
1000
0000
0000
0000
0010
0000
0000
0000
0002
0000
0000
0M00
0003
0000
0001
0000
0000
0000
1000
0000
0100
0000
0000
0000
,
0010
0000
0001
0000
1000
0000
0000
0000
0001
0000
0000
0000
0010
0000
0000
0000
2000
0000
0000
0M00
3000
0000
1000
0000
0100
0000
0010
0000
0100
0000
1000
0000
,
0010
M010
0001
1000
0100
M100
0001
0010
0011
0000
0001
0011
0000
0000
0111
0000
,
0000
0000
0000
0000
0001
0000
0000
0000
0010
0000
0000
0000
0100
0000
0000
0000
0002
0000
0000
00M0
0003
0000
0001
0000
0000
0000
0100
0000
0010
0000
0000
0000
,
1000
0000
0010
0000
0100
0000
0000
0000
0001
0000
0000
0000
0010
0000
0000
0000
2000
0000
0000
0M00
3000
0000
1000
0000
0000
0000
0001
0000
0100
0000
0000
0000
,
0010
0000
1000
0000
0001
0000
0000
0000
1000
0000
0000
0000
0010
0000
0000
0000
0002
0000
0000
0M00
0003
0000
0001
0000
0010
0000
0100
0000
0010
0000
0001
0000
,
0100
010M
1000
0001
0010
001M
1000
0100
1100
0000
0000
1001
0000
0000
2021
0000
,
0000
0000
0000
0000
3131
1000
0010
1020
,
0000
0030
M010
0000
0001
0000
0100
0000
0010
0000
1000
0000
0010
0000
1000
0000
,
0100
0000
1000
0000
0001
0000
0010
0000
0100
0000
0110
0000
0010
0000
0100
1000
,
0010
M010
0001
0010
0100
1000
0001
0100
,
0001
0000
0000
0000
0000
0000
0010
0000
0000
0000
0000
0000
0001
0000
0000
0100
0000
0000
0010
0000
0000
1000
0000
0000
0001
0000
0010
0000
0100
0000
1000
0000
0000
0000
0000
0000
0100
0000
0000
1000
0000
0000
0010
0000
0000
1000
0000
0000
,
0101
M100
0001
0100
0001
0100
0010
1000
,
0100
0000
0010
0000
0001
0000
0100
0000
0001
0000
1001
0000
1000
0000
0100
1000
,
0011
0000
M010
0000
0001
0000
1000
0100
0010
0000
0001
0000
0100
0000
0010
0000
,
1000
0000
0001
0000
0010
0100
1000
0001
1000
0010
0100
0001
1010
0000
001M
0000
,
1010
0000
0000
0110
0000
0000
0102
0000
0000
0003
0001
0100
0001
1000
0100
1000
,
0011
0000
1000
0101
0000
1000
0021
0000
0000
0030
001M
1000
0010
0000
0100
0000
,
0110
0000
0010
1000
0010
0000
1001
0000
1000
0000
0100
0000
0010
0000
0001
0000
,
0100
0000
010M
1000
0000
M100
0002
0000
0000
0003
0001
1000
0100
0010
0100
1000
,
0011
0000
0000
1100
0000
0000
0011
0000
0000
0000
M010
0001
1000
0001
0010
0001
,
1100
0000
0001
1010
0000
0001
2100
0000
0000
3000
1000
0001
0010
0000
0022
0000
,
0000
0033
0001
0000
0010
0000
0001
0000
1000
0000
0100
0000
1000
0000
0001
0000
,
0010
001M
0000
1000
0000
0010
M010
0000
0001
0000
1000
0000
0010
0000
0200
0000
,
1000
M000
0010
00M0
0301
0000
1000
0010
,
0100
0001
0010
001M
1000
0001
0010
0200
,
0001
000M
0010
00M0
1300
0000
0001
0010
,
0100
0000
1000
0000
0010
0000
M010
0000
0001
0000
1000
0000
0100
0000
0001
00M0
,
0001
0000
1000
0000
0001
0000
0100
0000
010M
0000
1000
0000
0010
0000
0001
0M00
,
0001
0000
1000
0000
0010
0000
M010
0000
0001
0000
1000
0010
0100
0000
0220
0000
,
0000
0030
0310
0000
1000
0000
0001
0010
0100
0000
1000
0000
0010
1000
0001
1000
,
0010
0000
0000
0000
0000
0000
0000
0000
1000
0000
0001
0000
2000
0000
0000
0000
0000
0000
0000
0000
0000
0000
0000
0000
3010
0000
0000
0000
0000
0000
0100
0000
0000
0001
0000
0000
1000
0000
0000
0010
0000
0000
0100
0000
0000
0020
0000
0000
,
0001
000M
0100
0M00
1030
0000
0001
0100
,
0010
1000
0100
M100
0001
1000
0100
0020
,
1000
M000
0100
0M00
0031
0000
1000
0100
,
0010
0000
0001
0000
0100
0000
010M
0000
1000
0000
0001
0000
0100
0000
1000
00M0
,
1000
0000
0001
0000
1000
0000
0100
0000
M100
0000
0001
0000
0010
0000
1000
0M00
,
1000
0000
0001
0000
0010
0000
001M
0000
1000
0000
1000
0100
0010
0000
0220
0000
,
0000
0300
0130
0000
1000
0000
0010
0000
0100
0000
0001
0000
0100
0001
1000
0001
,
0100
0000
0000
0000
0000
0000
0000
0000
0001
0000
1000
0000
0002
0000
0000
0000
0000
0000
0000
0000
0000
0000
0000
0000
1003
0000
0000
0010
0000
0000
0100
0000
0000
0001
0000
0000
0020
0000
0000
0000
0000
0000
0000
0000
0000
0030
0000
0000
,
0011
0000
0000
0000
1010
0000
0000
0001
0100
0000
0000
1100
0000
0000
0202
0000
,
0000
0000
0000
0000
0000
0000
0000
0000
0000
0000
0000
0000
0000
0000
0000
0000
0000
0000
0000
0000
0000
0003
0000
0000
0301
0000
0000
0000
0000
0000
0000
0000
0000
0000
0000
0000
0000
0000
0000
0000
0000
1101
0000
0000
0000
0000
0000
0000
,
0000
0000
0000
0000
0000
0000
0000
0000
0000
0000
1000
0000
0000
0000
0000
0000
0000
0000
0000
0000
0000
0000
0000
0000
0100
0000
0000
0000
0000
0000
0000
0000
0000
0000
0000
0000
0010
0000
0000
0000
0000
0000
0000
0000
0000
0000
0000
0000
2000
0000
0000
0000
0000
0000
0000
0000
0000
0M00
0000
0000
3000
0000
0000
0000
0000
0000
1000
0000
0000
0000
0000
0000
0000
0000
0000
0000
0000
0000
0010
0000
0000
0000
0000
0000
0100
0000
0000
0000
0000
0000
0000
0000
0000
0000
0000
0000
,
0001
0000
0100
0000
0010
0000
0000
0000
1000
0000
0000
0000
0100
0000
0000
0000
0002
0000
0000
00M0
0003
0000
0001
0000
0000
0000
1000
0000
0010
0000
0000
0000
,
0100
0000
0001
0000
1000
0000
0000
0000
0001
0000
0000
0000
0100
0000
0000
0000
2000
0000
0000
00M0
3000
0000
1000
0000
0010
0000
0100
0000
0010
0000
1000
0000
,
0100
M100
0001
1000
0010
M010
0001
0100
0101
0000
0001
0101
0000
0000
0111
0000
,
0000
0000
0000
0000
00M1
0000
0000
0000
0100
0000
0000
0000
0010
0000
0000
0000
0002
0000
0000
0M00
0003
0000
0001
0000
0000
0000
0010
0000
0100
0000
0000
0000
,
1000
0000
0100
0000
0010
0000
0000
0000
0001
0000
0000
0000
0100
0000
0000
0000
2000
0000
0000
00M0
3000
0000
1000
0000
0000
0000
0001
0000
0010
0000
0000
0000
,
0100
0000
1000
0000
0001
0000
0000
0000
1000
0000
0000
0000
0100
0000
0000
0000
0002
0000
0000
00M0
0003
0000
0001
0000
0100
0000
0010
0000
0100
0000
0001
0000
,
0010
001M
1000
0001
0100
010M
1000
0010
1010
0000
1000
1010
0000
0000
2210
0000
,
0000
0000
0000
3300
,
1001
0000
0000
0004
0013
001M
1000
0010
M010
0001
0100
010M
,
1000
0000
0100
0000
M100
0000
0001
0000
0000
1000
0000
0000
0004
0000
1003
0000
0100
0000
0040
0000
0030
0100
0000
0000
,
1100
0000
0000
4000
3010
0100
1000
00M0
1000
0001
0010
001M
,
1000
0000
0100
0000
M100
0000
0001
0000
0100
0000
010M
0000
4000
0000
3010
0000
0100
0000
0004
0000
0003
0100
0000
0000
,
0101
0000
0000
0004
0013
001M
1000
0010
M010
0001
0010
0100
,
0001
0000
00M0
0000
0001
0000
1000
0000
0100
0000
0100
0000
0004
0000
0103
0000
0100
0000
4000
0000
3000
0001
0000
0000
,
1001
0000
0000
0000
0000
0000
0001
0000
0100
0000
0010
0000
1000
0000
0100
0000
0010
0000
1000
0000
0M00
0000
1000
0001
,
0100
0000
0001
0101
0000
0000
1100
0000
1000
0100
1000
0000
0000
0000
0100
1000
,
0010
0000
0000
M010
0000
0000
0012
0000
0000
0003
0001
0010
0001
1000
0010
1000
,
0101
0010
0000
0M11
0100
0000
0201
0000
0000
0300
0100
0001
0100
0000
0010
0000
,
1010
0000
M010
0001
0000
001M
2000
0000
0000
3000
1000
0000
0001
0000
0010
0000
,
0100
0000
0000
M100
0001
0000
0101
0000
0000
0000
0001
0100
0001
0010
0100
1000
,
0011
0000
0000
1100
0000
0000
0011
0000
0000
0000
M010
0001
1000
0001
0010
0001
,
1100
0000
0001
1010
0000
0001
2100
0000
0000
3000
1000
0001
0010
0000
0022
0000
,
0000
0033
0001
0000
0010
0000
0001
0000
1000
0000
0010
0000
0100
0001
0020
0000
,
0000
0000
0000
0000
0030
0000
0000
0000
0010
0000
0001
0000
0100
0000
0000
0000
0000
0000
0000
0000
0000
0000
0000
0000
0000
0100
0000
0000
0000
0000
0000
0000
0000
0100
0000
0000
0001
0000
0000
1000
0000
0000
0100
0000
0000
1000
0000
0000
,
0011
0000
M010
0101
0000
01M0
0011
0000
0M10
0101
0000
01M0
0011
0000
0000
0000
,
001M
0010
0000
1000
0000
0010
M010
0000
0001
0000
1000
0000
0010
0000
0100
0000
,
0001
0200
1000
0000
M010
0000
00M0
0000
0301
0000
0000
0000
1000
0000
0001
0000
,
1000
0100
M100
0001
0000
0000
0001
0100
010M
1000
0001
0000
0010
0000
0200
0000
,
0001
000M
0010
00M0
1310
0000
0001
0100
,
0011
0000
1000
0100
1000
0001
0100
0001
1000
0000
0001
0010
0100
0000
0001
00M0
,
0001
0000
1000
0000
0001
0010
0100
0000
M100
0000
0001
0100
0010
0000
0001
0M00
,
0001
1000
0100
0000
1000
0001
0010
0001
0100
0000
0000
1001
0000
0000
2112
0000
,
0000
3003
1000
0000
0001
0000
0010
0000
0001
0000
1000
0000
0010
0000
1000
0000
,
0100
0000
0000
0000
0000
0000
0000
0000
1000
0000
0001
0000
2000
0000
0000
0000
0000
0000
0000
0000
0000
0000
0000
0000
3000
0000
0000
0000
0000
0000
0100
0000
0000
1000
0000
0000
0001
0000
0000
0010
0000
0000
0100
0000
0000
0020
0000
0000
,
1000
M000
0100
0M00
0031
0000
1000
0100
,
0010
0001
0100
010M
1000
0001
0100
0020
,
0001
000M
0100
0M00
1030
0000
0001
0100
,
0010
0000
1000
0000
0100
0000
M100
0000
0001
0000
1000
0000
0100
0000
0001
00M0
,
0001
0000
1000
0000
0001
0000
0100
0000
010M
0000
1000
0000
0010
0000
0001
0M00
,
0001
0000
1000
0000
0010
0000
M010
0000
0001
0000
0001
0010
0100
0000
0220
0000
,
0000
0030
0310
0000
0001
0000
0100
0000
0010
0000
1000
0000
0010
1000
0001
1000
,
0010
0000
0000
M010
0002
0000
0000
0000
0000
0000
1003
0100
0010
0001
0100
0001
,
1010
0000
0000
0000
0101
0000
0100
1000
0011
0000
M010
0101
0000
01M0
0011
0000
,
0000
0000
1000
0001
2010
0000
0000
0000
0001
0010
0100
0010
0001
0010
0100
0010
,
3001
0000
0000
0000
0000
0000
0000
0000
0000
0000
0000
0000
0011
0000
0000
0000
0000
0000
0000
0000
0010
0000
0001
0000
1100
0000
0000
0000
0000
0000
010M
0000
0000
1010
0000
0000
0000
0000
0000
0M10
0000
0000
2200
0000
0000
0000
0000
0000
,
0000
0000
0000
0000
0000
0000
3310
1000
0101
0000
0000
0000
0000
0000
0000
0000
;
