#VERSION:0.83;
#TITLE:All Clear!!;
#SUBTITLE:;
#ARTIST:sky_delta;
#TITLETRANSLIT:;
#SUBTITLETRANSLIT:;
#ARTISTTRANSLIT:;
#GENRE:;
#CREDIT:;
#MUSIC:All Clear!!.ogg;
#BANNER:All Clear!!-bn.png;
#BACKGROUND:All Clear!!-bg.png;
#CDTITLE:;
#SAMPLESTART:35.679;
#SAMPLELENGTH:15.000;
#SELECTABLE:YES;
#OFFSET:0.906;
#BPMS:0.000=164.000;
#STOPS:;
#SPEEDS:0.000=1.000=0.000=0;
#SCROLLS:0.000=1.000,
148.000=0.750,
150.500=1.000,
224.000=0.750,
226.500=1.000
;
#BGCHANGES:;
#FGCHANGES:;

//--------------- dance-single - ----------------
#NOTEDATA:;
#STEPSTYPE:dance-single;
#DESCRIPTION:;
#DIFFICULTY:Hard;
#METER:14;
#RADARVALUES:0,0,0,0,0;
#CREDIT:Talkion;
#NOTES:
0000
0000
0000
0000
,
0000
0000
0000
0000
,
0000
0000
0000
0000
,
0000
0000
0000
0000
,
0000
0000
0000
0000
,
1100
0000
0000
0000
0101
0000
0000
0000
1200
0000
0000
0310
0000
0000
0210
0000
,
0000
0000
1300
0000
0001
0000
0001
0000
0200
0000
0000
0310
0000
0000
2010
0000
,
0000
0000
3001
0000
0010
0000
0100
0000
0020
0000
0000
1030
0000
0000
0120
0000
,
0000
0032
0000
0000
0000
0103
2001
0000
,
3002
0010
0000
0010
,
0000
0013
2001
3100
,
1002
0100
0000
0100
,
0000
0103
2001
3010
,
1002
0010
0000
0013
,
2001
0100
3002
0100
,
2003
0001
3020
0100
,
2030
0000
3001
0010
0100
1000
1001
0000
,
0101
0000
0100
0000
0010
0000
0000
0000
1000
0000
0000
1000
0000
0000
2000
0000
,
0000
0000
0100
0000
3001
0000
0000
0000
0010
0000
0000
0010
0000
0000
0010
0000
,
0200
0000
1000
0000
0310
0000
0000
0000
0001
0000
0000
0001
0000
0000
0002
0000
,
0000
0000
0100
0000
1003
0000
0000
0000
0010
0000
0000
0010
0000
0000
0010
0000
,
0100
0000
0001
0000
1000
0000
0001
0000
0010
0000
0000
0010
0000
0100
1000
0000
,
0001
0000
0100
0000
0010
0000
0100
0000
0001
0000
0000
0001
0000
1000
0100
0000
,
0010
0000
0001
1000
0001
0000
0100
0010
0100
0000
0001
1000
0000
0001
1000
0100
,
0020
0000
0000
2030
3002
0203
1300
0000
,
1002
0000
0000
0103
00M0
0100
1000
0000
2001
0000
0000
3100
00M0
0100
0001
0000
,
0200
0000
0000
1300
00M0
1000
0020
0000
0000
0000
0130
0000
0010
0000
2000
0000
,
0000
3100
0010
0002
0000
0013
0100
2000
,
0000
0000
3001
0000
0000
0000
0100
0010
0100
0000
0001
1000
0000
0001
0010
0M00
,
0010
0000
1000
0010
000M
0010
0200
0000
0000
0000
1300
0000
0000
0000
0100
0010
,
0001
0000
1000
0100
00M0
0100
0002
0000
0000
0000
0103
0000
0000
0110
0000
0000
,
2001
0000
0000
3010
000M
0010
0100
0000
1000
0000
0001
0000
1000
0000
0010
0000
,
0200
0000
0000
1300
000M
1000
0010
0000
0200
0000
0000
0000
0301
0000
0000
0000
,
2100
0000
0000
3010
000M
0010
0001
0000
0102
0000
0000
0013
M000
0010
1000
0000
,
0200
0000
0000
0301
00M0
0001
0020
0000
0000
0000
0130
0000
0010
0000
0002
0000
,
0000
0103
0010
0002
0000
0013
0100
0002
,
0000
0000
1003
0000
0000
0000
0100
0010
0100
0000
1000
0001
0000
1000
0020
0000
,
010M
0000
0000
0100
0000
0000
0230
0000
0000
0000
0301
0000
1002
0000
0000
0000
,
0013
0000
0100
0001
00M0
0001
0020
0000
0000
0000
0130
0000
0000
1100
0000
0000
,
1002
0000
0000
0013
M000
0010
0100
0000
0001
0000
1000
0000
0001
0000
0010
0000
,
0200
0000
0000
2300
0000
3010
0010
0200
,
0001
0000
0000
0000
0310
0000
0000
0000
1010
0000
0000
0101
0000
0000
1002
0000
,
0000
0000
0013
0000
0100
0000
0000
0000
1100
0000
0000
0011
0000
0000
2001
0000
,
0000
0000
3010
0000
0100
0000
0010
0000
1000
0000
0000
1001
0000
0000
0021
0000
,
0000
0000
0230
0000
0000
0000
0000
0000
0000
0000
0300
0000
1000
0001
1000
0001
,
0100
0000
0000
0000
0001
0000
0000
0000
1001
0000
0000
1000
0100
0000
0020
0000
,
0000
0000
0130
0000
1000
0000
0000
0000
0001
0000
0000
0100
0010
0000
2000
0000
,
0000
0000
3001
0000
0010
0000
0001
0000
1000
0000
0010
0100
0000
0000
2001
0000
,
0000
0000
0000
0000
0000
3100
1001
0000
,
1000
0000
0000
1000
0000
0000
1000
0000
0001
0000
0000
0001
0000
0000
0001
0000
,
0100
0000
0000
0110
0000
0000
2001
0000
0000
0000
3100
0000
0010
0000
0002
0000
,
0000
0103
0010
0002
0000
0013
0100
0002
,
0000
0000
1003
0000
0000
0000
0001
0010
0100
0000
0000
0100
0000
0000
1000
0000
,
1002
0000
0000
0203
0000
0000
2300
0000
0000
0000
3100
0000
0001
0000
0000
0000
,
2001
0000
0000
3200
0000
0000
0302
0000
0000
0000
0103
0000
1000
0000
0000
0000
,
1001
0000
0001
0100
0001
0000
1000
0100
1000
0000
0001
0100
0000
0001
0100
0010
,
200M
0000
0000
3002
0000
0013
0100
1000
,
0040
0000
0000
0000
0000
0030
1002
0000
,
0103
0000
0010
0001
M000
0001
0100
0000
0001
0000
1000
0100
0010
0000
2000
0000
,
0000
3001
0100
2000
0000
3001
0100
2000
,
0000
0000
3100
0000
0001
0000
1000
0100
0010
0000
0001
0000
1000
0000
0010
0000
,
0120
0000
0000
0031
M000
0001
0100
0000
0000
0000
0100
0000
0001
1000
0001
0010
,
0200
0000
0000
0301
M000
0001
0010
0000
0000
0000
0010
0000
0100
0010
0001
0000
,
2001
0000
0000
3100
000M
0100
0010
0000
1000
0000
0001
0000
1000
0000
0100
0000
,
0020
0000
0130
0002
0000
0103
0010
0000
,
0021
0000
0000
0000
0130
0000
0000
0000
1000
0000
0001
0010
0001
0000
1000
0000
,
0000
0000
1000
0000
0010
0000
0100
0000
0101
0000
0000
1001
0000
0000
1200
0000
,
0000
0310
0100
2000
0000
3010
0100
2000
,
0000
0000
3100
0000
0010
0000
1000
0000
0001
0000
0010
0100
0010
0000
0001
0000
,
1000
0000
0000
0000
0010
0000
0000
0000
1010
0000
0000
0101
0000
0000
1002
0000
,
0000
0000
0013
0000
0100
0000
0000
0000
1100
0000
0000
0011
0000
0000
2001
0000
,
0000
0000
3010
0000
0100
0000
0010
0000
1000
0000
0001
0010
0000
0000
0021
0000
,
0000
1030
0000
0000
0000
0000
0000
0000
;

//--------------- dance-single - ----------------
#NOTEDATA:;
#STEPSTYPE:dance-single;
#DESCRIPTION:;
#DIFFICULTY:Challenge;
#METER:16;
#RADARVALUES:0,0,0,0,0;
#CREDIT:Talkion;
#NOTES:
0000
0000
0000
0000
,
0000
0000
0000
0000
,
0000
0000
0000
0000
,
0000
0000
0000
0000
,
0000
0000
0000
1001
,
1000
0000
0100
0010
0001
0000
0100
0010
1000
0000
0001
0010
0000
0000
0021
0000
,
0000
0000
0130
0000
1000
0000
0100
0010
0001
1000
0000
0010
0100
0010
2000
0000
,
0000
0000
3100
0000
1000
0000
0100
0000
0010
0100
1000
0001
0000
0000
0201
0000
,
0000
0000
2300
0000
0000
0000
3400
0040
0000
0000
0000
0300
2030
0000
0000
0000
,
3002
0010
0000
0010
,
0000
0013
2001
3100
,
1002
0100
0000
0100
,
0000
0103
2001
3010
,
1002
0010
0000
0013
,
2001
0100
3002
0100
,
2003
0001
3020
0100
,
2030
0000
0000
0000
3001
0000
0010
0100
1000
0001
1000
0010
0100
0000
0000
0000
,
0201
0000
0310
0000
1000
0000
0000
0000
0001
0000
0000
0001
0000
0010
0100
0000
,
2000
0000
0100
0000
3001
0000
0000
0000
1000
0000
0000
1000
0000
0010
0100
0000
,
0002
0000
0100
0000
1003
0000
0000
0000
0100
0000
0000
0100
0000
0010
0001
0000
,
0020
0000
0100
0000
0031
0000
0000
0000
1000
0000
0000
1000
0000
0010
0100
0000
,
0201
0000
0310
0000
0001
0000
0010
0000
0100
0000
0001
1000
0000
1000
0100
0000
,
1200
0000
0310
0000
1000
0000
0010
0000
0100
0000
1000
0001
0000
0001
0100
0000
,
0110
0000
0010
0100
0001
0000
0010
0100
1000
0000
0100
0010
0001
1000
0001
0100
,
0020
0000
0000
0032
2003
3200
0301
0000
,
1001
0000
1000
0100
00M0
0100
0001
0000
1000
0000
0001
0100
00M0
0100
1000
0000
,
0100
0000
0010
1000
000M
1000
0200
0000
0000
0000
1300
0000
0001
0100
0020
0000
,
0000
0000
0130
0000
0001
0010
0200
0000
0000
0000
0310
0000
0001
0100
0020
0000
,
0000
0000
0130
0000
0001
0000
1000
0100
0010
0000
0001
1000
0000
0001
0100
M000
,
0100
0000
0010
1000
000M
1000
0100
0000
1000
0000
0001
0010
0000
0001
1000
0001
,
0100
0000
0010
0001
M000
0001
0100
0000
0010
0000
1010
0000
0000
1002
0000
0000
,
0013
0000
0001
0010
M000
0010
0100
0000
1000
0000
0100
0010
1000
0000
0001
0000
,
0010
0000
0100
0001
M000
0001
0010
0000
0012
0000
0000
0000
1003
0000
0000
0000
,
1001
0000
0001
0100
M000
0100
0010
0000
0001
0000
0010
0100
M000
0100
0001
0000
,
1000
0000
0010
0001
0M00
0001
0200
0000
0000
0000
0301
0000
1000
0100
0002
0000
,
0000
0000
0103
0000
0001
0100
2000
0000
0000
0000
3001
0000
1000
0010
0002
0000
,
0000
0000
0013
0000
1000
0000
0001
0010
0100
0000
1000
0001
0000
1000
0020
0000
,
010M
0000
0000
0100
0000
0000
0230
0000
0000
0000
0301
0000
1001
0000
1000
0100
,
0010
0000
0100
0001
M000
0001
0010
0000
0100
0000
1100
0000
0000
1002
0000
0000
,
0103
0000
0001
0100
M000
0100
0010
0000
1000
0000
0010
0100
1000
0000
0001
0100
,
0020
0000
0000
0000
0000
0000
2030
0000
0000
0000
3001
1000
0001
0000
0010
0000
,
0100
0000
0000
0000
1000
0000
0000
0000
1001
0000
0000
0101
0000
0000
2010
0000
,
0000
0000
3001
0000
0010
0000
0000
0000
0011
0000
0000
1100
0000
0000
1002
0000
,
0000
0000
0103
0000
0010
0000
0100
0000
0001
0000
0000
1001
0000
0000
1200
0000
,
0000
0000
0340
0000
0000
0000
0000
0000
0000
0000
0030
0000
0001
1000
0001
0100
,
0010
0000
0000
0000
1000
0000
0000
0000
1001
0000
0000
0001
0010
0000
0200
0000
,
0000
0000
0310
0000
0001
0000
0000
0000
1000
0000
0000
0010
0100
0000
0002
0000
,
0000
0000
1003
0000
0100
0000
1000
0000
0001
0000
0100
0010
0000
0000
1020
0000
,
0000
0000
0032
0000
0000
0000
0043
0400
0000
0000
0000
0030
0301
0000
0000
0000
,
1001
0000
1000
0100
1000
0000
0001
0000
1000
0000
0010
0100
0010
0000
1000
0000
,
0001
0000
0010
0100
0010
0000
2000
0000
0000
0000
3010
0000
0100
0000
2000
0000
,
0000
3010
0100
2000
0000
3100
0010
2000
,
0000
0000
3001
0000
1000
0000
0001
0010
0100
0000
0000
0100
0000
0000
1000
0000
,
1001
0000
0001
0100
0010
0000
1000
0000
0001
0010
0001
1000
0100
0010
1000
0010
,
0100
0000
1000
0100
0010
0000
0001
0000
1000
0001
0100
0010
0000
0002
0000
0000
,
0013
0000
0100
0010
1000
0000
0100
0010
0001
0000
0010
0100
1000
0001
1000
0010
,
020M
0000
0301
0002
0000
0013
0100
1000
,
0001
0100
0010
1000
0001
1000
0100
0010
0100
1000
0001
0100
0010
0001
0010
0100
,
0001
0000
0100
1000
00M0
1000
0020
0000
0000
0000
1030
0000
0001
0010
2000
0000
,
0000
0000
3001
0000
1000
0010
0002
0000
0000
0000
1003
0000
0001
0100
2000
0000
,
0000
0000
3001
0000
0010
0000
1000
0010
0100
0010
1000
0001
1000
0100
0010
0000
,
0021
0000
0130
0001
M000
0001
0010
0000
0000
0000
0110
0000
0100
0010
0001
0100
,
0020
0000
0130
1000
000M
1000
0010
0000
0000
0000
0110
0000
0100
0010
1000
0100
,
0010
0000
0001
0010
M000
0010
0100
0000
1000
0100
0010
1000
0001
1000
0100
0010
,
0002
0000
0013
2000
0000
3010
0001
0000
,
1002
0000
0000
0000
0103
0000
0000
0000
0001
0000
0100
0010
0100
0000
0001
0000
,
1000
0000
0100
0000
1000
0000
0001
0000
0010
0100
1000
0001
1000
0000
0020
0000
,
0000
0000
1030
0000
0001
0010
2000
0000
0000
0000
3010
0000
1000
0010
0002
0000
,
0000
0000
1003
0000
0001
0000
0100
0000
0010
0100
0001
1000
0001
0000
0010
0000
,
0100
0000
0000
0000
1000
0000
0000
0000
1001
0000
0000
0101
0000
0000
2010
0000
,
0000
0000
3001
0000
0010
0000
0000
0000
0011
0000
0000
1100
0000
0000
1002
0000
,
0000
0000
0103
0000
0010
0000
0100
0000
0001
0000
1000
0100
0000
0000
1200
0000
,
0000
0301
0000
0000
0000
0000
0000
0000
;
