#TITLE:Tentaclar Aliens' Epic Extraterretterrestrial Jungle Dance Party Inside Of A Super-Ultra-Mega-Gigantic U.F.O. (It Maybe U.U.F.O.) Silently Flying Over Illinois St.;
#SUBTITLE:;
#ARTIST:Camellia;
#TITLETRANSLIT:;
#SUBTITLETRANSLIT:;
#ARTISTTRANSLIT:;
#GENRE:;
#CREDIT:D0omsday;
#MUSIC:Alien Jungle Dance Party.ogg;
#BANNER:SC2022-bn.png;
#BACKGROUND:SC2022-bg.png;
#CDTITLE:;
#SAMPLESTART:49.500;
#SAMPLELENGTH:15.000;
#SELECTABLE:YES;
#OFFSET:-0.010;
#BPMS:0.000=160.000
,92.000=80.000
,96.000=160.000
,220.000=80.000
,226.000=160.000
,281.000=80.000
,290.500=160.000
,296.500=80.000
,297.500=160.000
,303.500=80.000
,304.500=160.000
,310.500=80.000
,311.500=160.000
,323.500=80.000
,324.500=160.000
,330.500=80.000
,331.500=160.000
,337.500=80.000
,338.500=160.000
;
#STOPS:;
#BGCHANGES:;
#FGCHANGES:;

//--------------- dance-single - D0omsday (spins optional) ----------------
#NOTES:
     dance-single:
     D0omsday (spins optional):
     Medium:
     14:
     0,0,0,0,0:
0000
0000
0000
0000
,
0000
0000
0000
0000
,
0000
0000
0000
0000
,
0000
0000
0000
0000
,
0000
0000
0000
0000
,
0001
0000
0100
0000
0010
0001
0000
0010
,
0000
0000
1000
0000
0001
0000
0000
0000
0010
0000
0000
0100
0000
0000
0010
0000
,
0100
0000
1000
0000
0010
0100
0000
1000
,
0000
0100
0001
0000
0000
0000
0000
0000
,
1000
0100
0010
0001
0100
1000
0100
0001
,
0010
0100
0010
0001
1000
0010
1000
0000
,
0001
0010
0100
1000
0100
0001
0100
0010
,
0001
0100
0010
1000
0100
0010
1000
0000
,
0010
0100
1000
0001
0100
0010
0001
0010
,
0100
0001
1000
0001
0010
0100
1000
0000
,
0010
1000
0001
0010
1000
0010
0001
1000
,
0001
0100
1000
0001
0010
1000
0000
0000
,
1010
0000
0000
0000
1000
0000
0100
0010
0100
0000
1000
0000
0000
0000
0000
0000
,
0011
0000
0000
0000
0001
0000
1000
0100
1000
0000
0001
0000
0000
0000
0000
0000
,
1001
0000
0000
0000
1000
0000
0010
0100
0010
0000
1000
0000
0000
0000
0000
0000
,
0101
0000
0000
0000
0001
0000
0010
0100
0010
0000
0001
0000
0000
0000
0000
0000
,
0010
0000
0000
0001
1000
0000
0000
0010
1000
0000
0000
0100
0010
0000
0000
0001
,
0100
0000
0000
0010
1000
0000
0000
0100
0010
0000
0000
0001
1000
0000
0000
0000
,
0000
0000
0000
0000
0000
0000
0000
0000
0000
0000
0000
0000
1000
0100
0010
0001
,
0011
0000
0000
0000
1000
0000
0000
0001
0000
0000
0100
0000
0000
1000
0000
0000
,
0100
0000
0000
0010
0000
0000
1000
0000
0000
0001
0000
0000
0000
0000
0010
0100
,
0010
0000
0000
0000
0001
0000
0000
0100
0000
0000
0010
0000
0000
0001
0000
0000
,
0010
0000
0000
1000
0000
0000
0100
0000
0110
0000
0000
0000
0001
0010
0100
1000
,
0001
0000
0000
0000
1000
0000
0000
0010
0000
0000
0100
0000
0000
1000
0000
0000
,
0100
0000
0000
0001
0000
0000
0010
0000
0000
0100
0000
0000
0000
0000
1000
0001
,
1000
0000
0000
1000
0000
0000
0010
0000
0000
0010
0000
0000
0001
0000
0000
0001
,
0000
0000
0100
0000
0000
0100
0000
0000
1000
0000
0000
0000
0000
0000
0000
0000
,
1001
0000
0000
0000
0011
0000
0000
0010
0001
0000
1000
0000
0001
1000
0000
0000
,
0101
0000
0000
0100
0001
0000
0010
0000
0001
0010
0000
0000
0000
0000
0100
0010
,
0100
0000
0000
0000
1100
0000
0000
0100
1000
0000
0010
0000
1000
0010
0000
0000
,
1001
0000
0000
0001
1000
0000
0100
0000
1100
0000
1000
0100
1000
0000
0000
0000
,
1010
0000
0000
0000
0110
0000
0000
0100
0010
0000
1000
0000
0010
1000
0000
0000
,
0110
0000
0000
0100
0010
0000
0001
0000
0010
0001
0000
0000
0010
0000
0000
0010
,
0000
0000
1000
0000
0000
1000
0000
0000
0100
0000
0000
0100
0000
0000
0001
0000
,
0000
0001
0000
0000
0010
0000
0000
0010
0000
0000
1000
0000
0000
0000
0000
0000
,
2001
0000
3100
0000
1000
0010
0100
0000
,
0102
0000
0013
0000
0100
0001
0100
0000
,
0120
0000
0031
0000
1000
0001
0100
0000
,
2010
0000
0000
0000
3100
1000
0100
1000
0100
0000
0010
0000
0002
0000
0000
0000
,
0203
0000
1000
0000
0301
1000
0100
1000
,
0020
0000
0001
0000
0130
0001
1000
0100
,
0020
0000
1000
0000
0130
1000
0001
0010
,
0110
0000
0000
0110
0000
0000
0110
0000
0000
0000
0000
0000
0000
0000
0000
0000
,
0001
0100
1000
0100
0001
0100
1000
0100
,
0001
0010
1000
0010
0001
0010
1000
0010
,
0001
0000
0000
0000
0100
0000
0000
0000
0010
0000
0000
0000
1000
0000
0000
0000
0100
0000
0000
0000
0010
0000
0000
0000
0001
0000
0000
1000
0000
0000
0000
0000
0000
0000
0000
0000
1010
0000
0000
0000
0000
0000
0000
0000
0000
0000
0000
0000
,
1000
0000
0010
0000
0100
0010
0100
0010
0100
0000
0001
0000
0020
0000
0000
0000
,
0031
0000
0000
1000
0000
0000
0200
0000
0010
0000
0010
0000
0010
0000
0310
0000
,
0001
0000
0000
0100
0000
0000
0002
0000
0010
0000
1000
0000
0103
0000
0000
0000
,
0101
0000
0000
0101
0000
0000
0000
0000
0011
0000
0000
0011
0000
0000
0000
0000
,
0020
0000
0000
0000
0000
0000
0000
0000
0031
0000
0100
0000
0010
1000
0000
0100
,
0000
0000
0010
0000
1000
0000
0000
0000
0010
0000
0000
0001
0000
0000
1000
0000
0010
0000
0000
0000
0100
0000
0000
0000
0001
0000
0000
0000
1000
0000
0000
0000
,
0100
0010
1000
0010
0100
1000
0001
0100
,
0010
0000
0000
0100
0000
0000
0010
0000
2000
0000
0000
0000
3100
0000
0000
1000
,
0001
0000
0100
0000
0000
0000
0010
0000
0100
0000
0001
0010
0001
0000
0000
0000
,
1000
0000
0000
0100
0000
0000
0010
0000
0001
0000
0100
0000
0010
0000
1000
0000
,
0100
0010
1000
0010
0100
1000
0010
0100
,
0000
0000
0000
0000
0001
1000
0100
0010
,
0100
0001
0100
0010
0001
0100
0010
1000
,
0001
0000
0000
0001
0000
0000
0001
0000
0000
0010
0000
0000
0010
0000
0100
0000
,
1000
0001
0100
0010
0001
0010
1000
0001
,
0010
0000
0000
0010
0000
0000
0010
0000
0100
0000
0000
0100
0000
0000
0100
0000
,
1000
0000
0000
1000
0000
0000
1000
0000
0010
0000
0000
0010
0000
0000
0010
0000
,
0001
0000
0000
0001
0000
0000
0001
0000
0100
0000
0000
0100
0000
0000
1000
0000
,
0000
1000
0000
0000
0010
0000
0000
0010
0000
0000
0001
0000
0000
0001
0000
0000
,
0100
0100
0000
2000
0002
0000
0000
0000
,
0000
0000
3000
0020
0000
0000
0000
0000
,
0000
0000
0000
0000
0003
0000
0130
1000
0010
0100
0001
0000
1000
0001
0000
1000
,
0001
0000
1000
0000
0001
1000
0000
0001
1000
0000
0001
0000
1000
0001
0000
1000
,
0001
0000
0020
0000
0000
0000
0130
0000
0010
0100
0000
0010
0100
0000
0010
0000
,
0100
0010
0000
0100
0010
0000
0100
0000
0010
0100
0000
0010
0100
0000
0020
0000
,
0000
0000
0031
0000
0010
0001
0000
0010
0001
0000
0100
0000
0001
0100
0000
0001
,
0100
0000
0010
0000
0100
0010
0000
0100
0010
0000
2000
0000
0000
0000
3001
0000
,
0010
0001
0010
0000
0001
1000
0001
0000
1000
0010
1000
0000
0100
0000
0001
0000
,
1000
0000
0010
0000
0001
0000
0100
0000
0000
0100
0000
0000
0001
0000
0000
0001
,
0000
0000
0010
0000
0000
0010
0000
0000
1000
0000
0000
1000
0000
0000
0200
0000
,
0000
0000
0301
0000
0000
0001
0000
0000
0100
0000
0000
0100
0000
0000
1000
0000
,
0000
1000
0000
0000
0010
0000
0000
0010
0000
0000
0002
0000
0000
0000
1003
0000
,
0000
1000
0000
0000
0010
0000
0000
0010
0000
0000
0001
0000
0000
0001
0000
0000
,
0100
0000
0000
0000
0000
0000
0000
0000
0000
0100
0000
0000
0000
0000
0000
0000
0000
0000
2000
0000
0000
0000
0000
0000
0000
0000
0000
0000
0000
0000
3001
0000
0000
0000
0000
0000
0000
0000
0100
0000
0000
0000
0000
0000
0000
0000
1000
0000
,
0000
0000
0000
0001
0000
0000
0000
0100
0000
0000
0000
1000
0000
0000
0000
0001
0000
0000
0000
0100
0000
0000
0000
1000
,
0000
0010
0000
0000
0000
0001
0000
0000
;

//--------------- dance-single - D0omsday (FS+) ----------------
#NOTES:
     dance-single:
     D0omsday (FS+):
     Hard:
     17:
     0,0,0,0,0:
0000
0000
0000
0000
,
0000
0000
0000
0000
,
0000
0000
0000
0000
,
0000
0000
0000
0000
,
0000
0000
0000
0000
,
1000
0000
1000
0000
1000
0010
0000
0010
,
0000
0000
0100
0000
0100
0000
0000
0000
1000
0000
0000
1000
0000
0000
1000
0000
,
0100
0000
0100
0000
0100
0001
0000
0001
,
0000
0010
0010
0000
0000
0000
0000
0000
,
0002
0003
0100
0002
0003
2000
3000
0000
0200
1300
0001
0020
0030
0010
1000
0000
,
0002
0003
0100
0001
0010
0200
2300
3000
0020
0030
0100
0200
0000
0000
0300
0000
,
1000
0001
0100
0020
0030
0010
0200
0000
0300
1000
0100
0010
0002
0000
0003
0000
,
0100
0100
1000
0010
0000
0100
0002
1003
0200
0300
0100
0002
0000
0003
0000
0000
,
0000
0000
0010
0100
2000
3000
0001
0100
0020
0030
1000
0010
0020
0032
0003
0000
,
0000
0100
0001
0010
0200
0300
0100
0010
2000
3000
0001
0020
0000
0030
0000
0000
,
0001
0100
0010
2000
3001
0010
0200
0300
0100
0010
1000
0020
0000
0000
0030
0000
,
0100
0100
1000
0002
0013
0100
2000
3020
0230
0302
0023
0031
0000
0000
0000
0000
,
2000
0000
3000
0000
1010
0000
0000
1000
0001
0000
0011
0000
0010
0001
1000
0001
,
0020
0030
0000
0000
0110
0000
0000
0100
1000
0000
1001
0000
0001
0100
0010
0100
,
0002
0000
0003
0000
0011
0000
0000
0010
0100
0000
1100
0000
1000
0010
0100
0001
,
0020
0030
0000
0000
0011
0000
0000
0001
1000
0000
1010
0000
0010
1000
0001
1000
,
0010
0000
0000
0010
0100
0000
0000
0100
1000
0000
0000
1000
0100
0000
0000
0100
,
0001
0000
0000
0001
0010
0000
0000
0010
0100
0000
0000
0100
1000
0000
0000
0000
,
0000
0000
0000
0000
0000
0000
0000
0000
0000
0000
0000
0000
0000
0000
0000
0000
0000
0000
0000
0000
0000
0000
0000
0000
0001
0000
0010
0100
0001
0100
0010
0000
,
0011
0000
0001
0000
0010
0000
0100
1000
0010
0000
0100
0000
0010
0001
0010
0000
,
1000
0000
0001
0010
0100
0000
1000
0000
0010
1000
0001
0100
0000
0000
0010
0010
,
0001
0000
0000
0000
0000
0000
1000
0000
0000
0000
0000
0000
0100
0000
0000
0000
0000
0000
0010
0000
0000
0001
0000
0000
1000
0000
0000
0000
0000
0000
0010
0000
0000
0000
0000
0000
0100
0000
0000
0000
0000
0000
0001
0000
0010
0000
0100
0000
,
1000
0000
0000
0000
0000
0000
0001
0000
0000
0100
0000
0000
0010
0000
0000
0000
0000
0000
0100
0000
0000
0000
0000
0000
1001
0000
0000
0000
0000
0000
0000
0000
0000
0000
0000
0000
0001
0000
1000
0000
0001
0000
1000
0000
0000
0001
0000
0000
,
1000
0000
0010
0000
0100
0000
0001
0010
0100
0000
0001
0000
0100
1000
0001
0000
,
0100
0000
0000
0010
0000
0000
1000
0000
0000
0000
0000
0000
0100
0000
0000
0000
0000
0000
0010
0000
0000
0000
0000
0000
0001
0000
0000
1000
0000
0000
0010
0000
0000
0100
0000
0000
0000
0000
0000
0000
0000
0000
0010
0000
1000
0000
0001
0000
,
0010
0000
0000
0011
0000
0000
0110
0000
0000
0110
0000
0000
1100
0000
0000
1100
,
0000
0000
1010
0000
0000
1010
0000
0000
0220
0000
0000
0000
0000
0000
0330
0000
,
1000
0000
0001
0010
0100
0000
1000
0010
0000
0010
0001
0000
1000
0100
0000
0100
,
0001
0000
0010
0100
0010
0000
0001
0000
1000
0010
0100
0001
0000
0000
0010
0010
,
1000
0000
0000
0000
0000
0000
0001
0000
0000
0010
0000
0000
0100
0000
0000
0000
0000
0000
0010
0000
0000
0001
0000
0000
0000
0000
0000
1000
0000
0000
0010
0000
0000
0000
0000
0000
1000
0000
0000
0000
0000
0000
0001
0000
0100
0000
0010
0000
,
1000
0000
0100
0000
0010
0000
0100
0000
2001
0000
3010
0010
0002
0000
0003
0000
,
0011
0000
0010
0100
1000
0000
0001
0100
0000
0100
1000
0000
0001
0010
0000
0010
,
1000
0000
0100
0010
0000
0001
0100
0000
0010
1000
0000
0000
1100
0000
0000
1100
,
0000
0000
0110
0000
0000
0110
0000
0000
1001
0000
0000
1001
0000
0000
0101
0000
,
0000
0101
0000
0000
0011
0000
0000
0011
0000
0000
0220
0000
0000
0000
0330
0000
,
0100
0000
1000
0100
1000
0000
0010
0000
0100
0000
0001
0000
0011
0000
0000
0000
,
0010
0000
0001
1000
0001
0000
1000
0000
0001
0000
0100
0000
0110
0000
0000
0000
,
2000
0000
3010
0001
0010
0100
0101
0000
,
0100
0000
0001
0000
0010
0001
1000
0001
0010
0001
1000
0000
2010
0000
0000
0000
,
3100
0000
0010
0000
0001
0100
0000
0001
0000
1000
0100
0000
0010
0000
0000
0000
,
0100
0000
1000
0000
0001
0100
0000
0010
0000
1000
0001
0000
0010
0000
0000
0000
,
0200
0000
0000
0000
0000
0000
0000
0000
0000
0000
0000
0000
1300
0000
0000
0001
0000
0000
0000
0000
0000
0100
0000
0000
0000
0000
0000
0010
0000
0000
1000
0000
0000
0000
0000
0000
0001
0000
0000
0000
0000
0000
1000
0000
0100
0000
0010
0000
,
0001
0000
0000
1001
0000
0000
1200
0000
0020
0000
0000
0000
0000
0000
0330
0000
,
0010
0100
1000
0100
0010
0100
1000
0100
0010
0000
0001
0000
1000
0000
0010
0010
,
0001
0100
0010
0000
0100
0000
0001
0000
0010
0000
1000
0000
0010
0000
0001
0000
,
1000
0000
0000
0000
0010
0000
0000
0000
0100
0000
0000
0000
1000
0000
0000
0000
0100
0000
0000
0000
0010
0000
0000
0000
1000
0000
0000
0100
0000
0000
0010
0000
0000
0001
0000
0000
1000
0000
0000
0000
0000
0000
0100
0000
0000
0100
0000
0000
,
0001
0000
0100
0000
0010
1000
0100
1000
0010
0100
0001
0000
0020
0000
0000
0000
,
0031
0000
0100
0010
0000
0000
2010
0000
0100
0000
0100
0000
0100
0000
3100
0000
,
1000
0000
0001
0100
0000
0000
0110
0000
0020
0000
2030
0000
3002
0000
0003
0000
,
0011
0000
0000
1010
0000
0000
0100
0000
0110
0000
0000
1001
0000
0000
0001
0000
,
0020
0000
0000
0000
0000
0000
0000
0000
0130
0000
0100
0000
0100
1000
0000
1000
,
0000
0000
0010
0000
0010
0000
0000
0000
0100
0000
0000
0100
0000
0000
0100
0000
0001
0000
0000
0000
0010
0000
0001
0000
0100
0000
0000
0000
0001
0000
1000
0000
,
0010
0000
1000
0100
0010
0000
0001
1000
0100
0000
1000
0010
0100
0000
0001
0010
,
0100
0000
0000
0100
0000
0000
0100
0000
1000
0000
0010
0010
0001
0000
0010
0000
,
0100
0000
1000
0000
0000
0000
0001
0100
0010
0000
0001
0000
0010
0000
0100
0000
,
0001
0000
0000
0001
0000
0000
0001
0000
1000
0000
0100
0010
0001
0000
0100
0001
,
1000
0000
0001
1000
0010
0000
1000
0100
0010
0000
0001
1000
0010
0000
0100
0000
,
0020
0000
0000
0000
2030
0000
0000
0000
3002
0003
0100
0002
0003
2000
3000
0000
,
0200
1300
0001
0020
0030
0010
1000
0000
0002
0003
0100
0001
0010
0200
2300
3000
,
1010
0000
0000
1010
0000
0000
1010
0000
0000
0101
0000
0000
0101
0000
0000
0000
,
0001
1000
0100
0010
0002
0000
0003
0000
0100
0100
1000
0000
1100
0000
1100
0000
,
0110
0000
0000
0110
0000
0000
0110
0000
0011
0000
0000
0101
0000
0000
1001
0000
,
1010
0000
0000
1100
0000
0000
1001
0000
0011
0000
0000
0110
0000
0000
1100
0000
,
0101
0000
0000
0110
0000
0000
1010
0000
1100
0000
0000
1100
0000
0000
0110
0000
,
0000
0110
0000
0000
0011
0000
0000
0011
0000
0000
0101
0000
0000
0101
0000
0000
,
0110
0110
0000
1000
0001
0010
0100
1000
,
0010
0000
0100
0000
1000
0000
0200
0300
0001
0000
0020
0030
1000
0000
0020
0030
,
0001
0000
0000
0000
2000
0000
3000
0000
0200
0000
0000
0000
0310
0000
0100
0010
0001
0100
0010
1000
0002
0000
0003
0000
0010
0000
0010
0000
0000
0000
0100
0000
,
0200
0300
2000
3000
0010
0010
0000
0100
0200
0300
0002
0003
0010
0010
0000
0100
,
0200
0000
0300
0000
2000
3000
0010
0000
1000
0100
0010
0001
2000
0000
3000
0000
0100
0000
0100
0000
0000
0000
0010
0000
0020
0000
0030
0000
0002
0000
0003
0000
,
0100
0000
0100
0000
0000
0000
0010
0000
0020
0000
0030
0000
2000
0000
3000
0000
0100
0000
0100
0000
0000
0000
0010
0000
0020
0000
0030
0000
0002
0003
0010
0000
,
0100
1000
0001
0100
0020
0000
0030
0000
0100
0000
0100
0000
0000
0000
0010
0000
0020
0000
0030
0000
0200
0000
0300
0000
0010
0000
0010
0000
0000
0000
0100
0000
,
0200
0000
0300
0000
0020
0000
0030
0000
0100
0000
0100
0000
0000
0000
0010
0000
0020
0000
0030
0000
0200
0300
0010
0000
1000
0100
0010
0001
1000
0000
0100
0000
,
0100
0001
1000
0100
0100
0001
1000
0100
0100
0001
0010
0100
1000
0001
0100
0001
,
1000
0010
0100
0001
0010
0001
1000
0000
0000
1010
0000
0000
0110
0000
0000
0110
,
0000
0000
0000
0000
0101
0000
0000
0000
0000
0000
0101
0000
0000
0000
0000
0000
0011
0000
0000
0000
0000
0000
0011
0000
0000
0000
0000
0000
0010
0001
1000
0100
,
0000
0000
0110
0000
0000
0110
0000
0000
0011
0000
0000
0011
0000
0000
0101
0000
,
0000
0000
0101
0000
0000
0000
0000
0000
1001
0000
0000
0000
0000
0000
1001
0000
0000
0000
0000
0000
2010
0000
3010
0100
0001
1000
0100
0010
0001
0000
0000
0000
,
0000
0011
0000
0000
0101
0000
0000
0101
0000
0000
0110
0000
0000
0110
0000
0000
,
1010
0000
0000
0000
0000
0000
0000
0000
0000
0000
0000
0000
0000
0000
0000
0000
0000
0000
1010
0000
0000
0000
0000
0000
0000
0000
0000
0000
0000
0000
0000
0000
0000
0000
0000
0000
1100
0000
0000
0000
0000
0000
0000
0000
0000
0000
0000
0000
0100
0000
0000
0010
0000
0000
0001
0000
0000
0100
0000
0000
0010
0000
0000
0000
0000
0000
0000
0000
0000
0000
0000
0000
0000
0000
0000
0000
0110
0000
0000
0000
0000
0000
0000
0000
0000
0000
0000
0000
0000
0000
0000
0000
1010
0000
0000
0000
,
0000
0000
0000
1010
0000
0000
0000
1001
0000
0000
0000
1001
0000
0000
0000
0011
0000
0000
0000
0011
0000
0000
0000
0110
,
0000
0220
0000
0000
0330
1001
0000
0000
;
