#TITLE:Albireo;
#SUBTITLE:;
#ARTIST:BlackY;
#TITLETRANSLIT:;
#SUBTITLETRANSLIT:;
#ARTISTTRANSLIT:;
#GENRE:;
#CREDIT:;
#BANNER:Albireo.png;
#BACKGROUND:Albireo-bg.png;
#LYRICSPATH:;
#CDTITLE:cdtitle.png;
#MUSIC:Albireo.ogg;
#OFFSET:0.000000;
#SAMPLESTART:72.302002;
#SAMPLELENGTH:13.813000;
#SELECTABLE:YES;
#BPMS:0.000000=139.000000
;
#STOPS:
;
#BGCHANGES:;
#KEYSOUNDS:;
#ATTACKS:;

//---------------dance-single - MEGAtive----------------
#NOTES:
     dance-single:
     :
     Beginner:
     3:
     0.161128,0.280769,0.134962,0.125322,0.000000,117.000000,103.000000,14.000000,13.000000,0.000000,0.000000,0.161128,0.280769,0.134962,0.125322,0.000000,117.000000,103.000000,14.000000,13.000000,0.000000,0.000000:
0000
0000
0000
0000
,
0000
0000
0000
0000
,
0000
0000
0000
0000
,
1001
0000
0000
0000
,
0020
0000
0030
0000
,
1001
0000
0000
0000
,
0000
0000
0000
0000
,
0100
0000
0000
0000
,
2000
0000
0000
0000
,
3002
0000
0000
0000
,
1003
0000
1000
0000
,
0001
0000
0001
0000
,
0010
0000
0010
0000
,
0100
0000
0200
0000
,
1300
0000
1000
0000
,
0001
0000
0001
0000
,
0100
0000
0000
0000
0100
0000
0000
0220
,
0000
0000
0330
0000
,
1001
0000
1000
0000
,
0100
0000
0010
0000
,
0001
0000
0001
0000
,
0100
0000
0010
0000
,
1000
0000
1000
0000
,
0100
0000
0010
0000
,
0002
0000
0000
0000
,
2003
0000
3000
0000
,
1001
0000
0000
0000
0000
0000
0000
0100
,
0000
1001
0000
0000
,
0001
0000
0010
0000
,
0100
0100
0100
0000
,
1000
0000
0001
0000
,
0100
0100
0100
0000
,
0010
0000
1000
0000
,
0001
0001
0001
0000
,
0010
0000
0100
0000
,
0010
0000
0001
0001
,
1000
0000
0010
0000
,
0100
0000
0010
0010
,
1000
0000
0001
0000
,
0010
0000
0001
0000
,
2001
0000
0000
0000
,
3010
0000
0000
0000
0000
0000
0000
1001
,
0000
1000
0000
0000
,
0010
0000
0100
0000
,
0001
0001
0001
0000
,
1000
1000
1000
0000
,
0100
0000
0010
0000
,
0100
0000
1000
0000
,
0001
0001
0001
0000
,
1000
0000
1000
0000
1000
0000
0000
0010
,
0000
1000
0000
0000
,
0001
0000
0010
0000
,
0100
0000
1000
0000
,
0001
0000
0100
0000
,
0110
0000
1001
0000
,
0110
0000
1001
0000
,
0220
0330
0000
0000
,
0000
0000
0000
0000
,
2002
3003
0000
0000
;

//---------------dance-single - MEGAtive----------------
#NOTES:
     dance-single:
     :
     Easy:
     6:
     0.271301,0.308846,0.125322,0.356685,0.009640,197.000000,184.000000,13.000000,37.000000,0.000000,0.000000,0.271301,0.308846,0.125322,0.356685,0.009640,197.000000,184.000000,13.000000,37.000000,0.000000,0.000000:
0000
0000
0000
0000
,
0000
0000
0000
0000
,
0000
0000
0000
0000
,
2002
0000
3003
0000
,
0001
0001
0100
0100
,
0220
0330
0000
0000
,
1001
0000
0000
0000
,
1002
0000
0000
0000
,
2003
0000
0000
3020
0000
0000
0230
0000
,
0000
0302
0000
0000
2000
0000
3003
0000
,
1000
0100
0010
0100
,
1000
0100
0010
0100
,
1000
0010
0100
0010
,
1000
0000
0010
0000
0100
0020
0000
0000
,
0130
0001
1000
0001
,
0100
0001
1000
0001
,
0010
0000
0100
0000
0010
0000
0001
0020
,
0000
0002
0000
0000
0033
0000
0000
0000
,
0001
0001
0100
0010
,
1000
0100
0001
0100
,
1000
1000
0010
0100
,
0001
0010
1000
0010
,
0001
0001
0100
0100
,
0010
0010
1000
1000
,
0002
0023
0230
2300
,
3001
1000
2002
3003
,
1001
0000
0000
0000
0110
0000
0000
1001
,
0000
1000
0001
0000
0010
0000
0100
0000
,
1000
0010
0100
0001
,
0010
1000
0010
0001
,
1000
1000
0001
0001
,
0100
0100
0010
0010
,
1000
0100
0010
0100
,
1000
1000
0002
0000
,
0103
0010
1000
0001
,
0010
0100
0010
0001
,
1000
0001
0100
0010
,
2000
0000
3002
0000
,
2003
0000
3020
0000
,
0230
0000
0302
0000
,
1003
1000
0001
0001
,
0200
0000
0000
0000
0000
0000
0000
0000
0020
0000
0000
0330
0000
0000
1001
0000
,
0000
0001
1000
0000
0100
0000
0010
0000
,
0001
0100
0010
0001
,
0010
0100
0001
1000
,
0100
0010
0100
1000
,
1000
0001
0100
0010
,
0001
0010
0100
0001
,
1000
1000
0100
0010
,
0001
0000
0001
0000
0200
0000
0300
0110
,
0000
0010
0100
0000
0001
0000
1000
0000
,
0100
0010
0001
0100
,
0100
0001
1000
0100
,
0010
0100
1000
0001
,
0200
0000
0320
0000
,
2030
0000
0000
0000
3002
0000
0000
0003
,
2002
3003
0000
0000
,
0000
0000
0000
0000
0000
0000
0000
0000
0000
0000
0000
0110
0000
0000
0000
0000
,
0220
0330
0000
0000
;

//---------------dance-single - MEGAtive----------------
#NOTES:
     dance-single:
     :
     Medium:
     9:
     0.404886,0.420701,0.125322,0.154242,0.077121,294.000000,281.000000,13.000000,16.000000,5.000000,0.000000,0.404886,0.420701,0.125322,0.154242,0.077121,294.000000,281.000000,13.000000,16.000000,5.000000,0.000000:
0000
0000
0000
0000
,
0000
0000
0000
0000
,
0000
0000
0000
0000
,
1000
0010
0000
0010
0000
0010
0000
0010
,
0200
0302
2003
3200
,
0310
0000
0000
0010
0000
0000
0000
0000
0000
0000
0000
0000
0000
0000
0000
0000
,
2000
0000
0000
0000
,
3002
0000
0000
0000
,
1003
0010
0100
0001
1000
0000
0100
0000
,
0010
0001
1000
0001
0100
0000
0010
0000
,
1000
0010
1000
0000
0001
0010
0001
0000
,
1000
0010
1000
0000
0001
0010
0001
0000
,
0100
0010
0100
0000
0001
1000
0001
0000
,
0010
0100
0010
0000
0001
1000
0000
0000
,
1000
0001
0100
0000
0010
1000
0001
0000
,
0010
0100
1000
0000
0001
0100
0010
0000
,
1000
0001
0010
0000
0100
0010
0000
2001
,
0000
0002
0000
3003
0000
0000
0000
0000
,
0001
0100
0010
1000
0001
0000
1000
0000
,
0100
0010
0100
1000
0001
0000
1000
0000
,
0010
0100
0010
1000
0001
0000
0010
0000
,
0100
1000
0001
1000
0010
0000
0100
0000
,
0010
0110
1000
1001
,
0001
0000
0000
0000
0011
0000
0000
0000
1000
0000
0000
1000
0000
0000
0000
0000
,
0001
0010
0001
0010
0100
1000
0100
1000
,
0002
0000
0103
0000
0010
1000
0010
0100
,
0010
0000
0000
0000
0000
0000
0000
0000
0220
0000
0000
0330
0000
0000
0110
0000
,
0000
0010
1000
0000
0001
0010
0001
0000
,
1000
0100
0010
0000
0100
1000
0001
0000
,
0100
0010
0100
0010
1000
0000
0001
0000
,
1000
0100
0010
0000
0001
1000
0010
0000
,
0100
0010
1000
0000
0001
1000
0100
0000
,
0010
0001
0010
0001
1000
0000
0010
0000
,
1010
1000
1001
0001
,
0010
0100
0010
0000
0001
1000
0001
0000
,
0100
0010
0100
0010
1000
0000
0001
0000
,
1000
0100
1000
0000
0001
0100
0010
0000
,
1000
1010
0001
0011
,
1000
0000
0000
1000
0000
0000
0000
0000
0001
0000
0000
0001
0000
0000
0000
0000
,
0100
0000
0000
0010
0000
0000
0000
0000
1000
0000
0000
0001
0000
0000
0000
0000
,
0010
0100
0010
0100
1000
0001
1000
0001
,
2000
0000
0000
0000
0000
0000
0000
0000
0002
0000
0000
3003
0000
0000
1001
0000
,
0000
1000
0010
1000
0001
0000
0010
0100
,
0010
0000
0100
1000
0001
0000
0100
0010
,
0100
0000
0001
0010
0100
0010
0001
0000
,
1000
0010
0100
0010
1000
0000
0001
0000
,
1000
0000
0001
0010
0001
0000
1000
0010
,
0100
0000
0010
1000
0001
0000
0010
0100
,
0010
0000
0001
1000
0001
1000
0010
0000
,
0100
0000
0001
0000
0100
0000
0001
0000
2000
0000
0000
3000
0000
0000
1001
0000
,
0000
0001
0100
0001
1000
0000
0100
0010
,
0100
0000
1000
0001
0100
0000
0010
1000
,
0001
0000
0010
0100
0010
0000
0001
1000
,
0010
0000
0100
0001
1000
0000
0100
0010
,
0100
0000
0000
1000
0000
0000
0000
0000
0001
0000
0000
0100
0000
0000
0000
0000
,
0010
0000
0000
1000
0000
0000
0000
0000
0001
0000
0000
0010
0000
0000
0000
0000
,
2002
0000
0000
3003
0000
0000
0000
0000
0M00
0000
0000
0000
0M00
0000
0000
0000
,
0M00
0000
0000
0000
0M00
0000
0000
0000
0M00
0000
0000
0001
0000
0000
0001
0000
,
1000
0000
0000
0010
0000
0000
0000
0000
0000
0000
0000
0000
0000
0000
0000
0000
;

//---------------dance-single - MEGAtive----------------
#NOTES:
     dance-single:
     :
     Hard:
     13:
     0.618346,0.617029,0.231363,0.106041,0.674809,449.000000,425.000000,24.000000,11.000000,5.000000,0.000000,0.618346,0.617029,0.231363,0.106041,0.674809,449.000000,425.000000,24.000000,11.000000,5.000000,0.000000:
0000
0000
0000
0000
,
0000
0000
0000
0000
,
0000
0000
0000
0000
,
1000
0100
0000
0100
0000
0010
0000
0010
,
1001
0101
1001
1100
,
0110
0000
0000
0110
0000
0000
0002
0000
0000
0000
0000
0000
0000
0000
0000
0000
,
2003
0000
0000
0000
,
3020
0000
0000
0000
,
1030
0010
0100
0001
0010
0100
1000
0010
,
0100
0000
0001
0000
1000
0000
0100
0000
0010
0000
0001
0010
0001
0010
0001
0000
,
1000
0100
0000
0100
1000
0000
0010
0000
0100
0001
0000
0001
0100
0000
0010
0000
,
1000
0100
0000
0100
1000
0000
0010
0000
0100
0000
1000
0000
0100
0000
0001
0000
,
0010
0001
0000
0001
0010
0000
0100
0000
1000
0010
0000
0010
1000
0000
0100
0000
,
0010
0001
0000
0001
0010
0000
0100
0000
1000
0000
2000
0000
0000
0000
3001
0000
,
0001
0100
0000
0100
0001
0000
0010
0000
0100
1000
0000
1000
0100
0000
0010
0000
,
0001
0100
0010
1000
0100
0001
1000
0010
,
0001
0000
0000
0100
0010
0000
1000
0000
0001
0000
0010
0001
0000
0000
0210
0000
,
0000
1000
1000
1300
0000
0000
0000
0000
,
1000
0001
0000
0100
0000
0100
0000
0100
0010
0000
1000
0100
1000
0000
0001
0000
,
0010
0000
0100
1000
0100
0000
0010
0000
0001
0000
0100
0010
0000
0010
0100
0000
,
0001
1000
0000
0100
0000
0100
0000
0100
0010
0000
0001
0100
0001
0000
1000
0000
,
0010
0000
0100
0001
1000
0000
0100
0000
0100
0000
1000
0000
0010
0000
0100
0000
,
0001
0000
0100
0001
0000
1000
0000
1000
0001
0000
0010
0100
0000
1000
0000
1000
,
0100
0000
0010
0001
0000
0100
0000
0100
0000
0010
1000
0001
0000
0001
1000
0000
,
1000
0100
0010
0001
0100
0010
1000
0001
,
0020
0000
0230
0000
0310
0010
0001
1000
,
2020
0000
0000
3030
0000
0000
0000
0000
1100
0000
0000
0001
0000
0000
1001
0000
,
0000
0000
0001
0100
0010
0000
1000
0000
0001
0000
1000
0000
0100
0000
0010
0000
,
0001
0000
0100
0010
0000
1000
0001
0000
0010
0000
0100
1000
0000
0001
0010
0000
,
0100
0010
0100
0001
1000
0010
0001
1000
,
0001
0000
0001
0100
0000
0100
0000
0010
1000
0001
0000
0001
0000
0010
0100
0000
,
1000
0000
1000
0100
0000
0100
0000
0010
0001
0100
0000
0100
0000
0010
0100
0000
,
0001
0010
0100
0010
1000
0001
0100
0010
,
0001
0000
0001
0000
1000
0000
1000
0000
0010
0000
0100
0001
1000
0000
0100
0010
,
0100
0000
1000
0100
0000
0010
0000
0100
1000
0000
0010
0100
0000
1000
0000
0100
,
0010
0000
1000
0001
0000
0010
0100
0000
1000
0000
0001
0000
0100
0000
0010
0000
,
1000
0000
0001
0100
0000
0100
0000
0001
0000
0010
0100
0010
0000
0100
1000
0000
,
0001
0000
0000
0101
0000
0000
1000
0000
1000
0000
0001
0010
0000
0100
0010
0000
,
0001
0000
1000
0010
0000
0000
0100
0000
0100
0000
0001
0010
0000
0000
0100
0000
,
0100
0000
0000
1000
0001
0000
0100
0000
0100
0000
0010
1000
0000
0000
0001
0000
,
1000
0100
0001
1000
0010
0001
1000
1000
,
2002
0000
0000
0000
3003
0000
0000
0000
0101
0000
0000
1000
0000
0000
1100
0000
,
0000
0000
0100
0010
0000
0001
0000
1000
0001
0000
0100
0010
0000
1000
0000
0001
,
1000
0000
0100
0010
0000
0001
0000
1000
0001
0000
0100
0000
0100
0000
0001
0000
,
1000
0000
0000
0100
1000
0000
0010
0000
0100
0000
0001
0000
0001
0000
0010
0000
,
0100
0001
0100
0010
0100
1000
0001
0001
,
1000
0000
0010
0100
0000
0001
0000
1000
0001
0000
0010
0100
0000
1000
0000
0001
,
1000
0000
0010
0100
0000
0001
0000
1000
0001
0000
0010
0000
0010
0000
0100
0000
,
1000
0000
0010
0100
0010
0000
1000
0000
1000
0000
0001
0000
0010
0000
0100
0000
,
1000
0000
0010
0000
0001
0000
1000
0000
0100
0000
0000
0100
0000
0000
1001
0000
,
0000
0000
0001
0100
0000
0010
0000
0001
0000
0000
1000
0100
0000
0010
0000
1000
,
0000
0000
0001
0010
0000
0100
0000
0001
0000
0000
0100
0000
0100
0000
0010
0000
,
0001
0000
1000
0010
0000
0100
0000
1000
0000
0000
0001
0010
0000
0100
0000
0001
,
0000
0000
1000
0100
0000
0010
0000
1000
0000
0010
0000
0100
0010
0000
0001
0000
,
1000
0000
0000
1100
0000
0000
0001
0000
0100
0000
0000
0110
0000
0000
0010
0000
,
1000
0000
0000
1001
0000
0000
0001
0000
0010
0100
0000
0010
0000
0100
1000
0000
,
1001
0000
0000
0110
0000
0000
0000
0000
000M
0000
0000
0000
000M
0000
0000
0000
,
000M
0000
0000
0000
000M
0000
0000
0000
000M
0000
0000
0110
0000
0000
0110
0000
,
1001
0000
0000
1001
0000
0000
0000
0000
0000
0000
0000
0000
0000
0000
0000
0000
;

//---------------dance-single - MEGAtive----------------
#NOTES:
     dance-single:
     :
     Challenge:
     16:
     0.886892,0.897496,0.694090,0.347045,1.238757,644.000000,572.000000,72.000000,36.000000,18.000000,0.000000,0.886892,0.897496,0.694090,0.347045,1.238757,644.000000,572.000000,72.000000,36.000000,18.000000,0.000000:
// measure 0
0000
0000
0000
0000
,  // measure 1
0000
0000
0000
0000
,  // measure 2
0000
0000
0000
0000
,  // measure 3
1000
0001
0100
0010
1000
0001
0010
0100
,  // measure 4
1100
1001
0101
0110
,  // measure 5
2010
0000
0000
3001
0000
0000
2000
0000
0000
0000
3001
0000
0010
0001
0000
0010
,  // measure 6
0002
0000
0000
0000
0000
0000
1003
0010
0100
0000
0001
0000
1000
0010
0000
0000
,  // measure 7
2020
0000
0000
0000
0030
0000
3010
0100
0010
0000
0000
0100
0000
0000
0001
0000
,  // measure 8
0001
0010
0100
0010
1000
0001
0100
0010
,  // measure 9
0100
0000
1000
0000
0001
0000
0001
0000
1000
0001
0100
0001
1000
0100
0010
0001
,  // measure 10
1000
0100
00M0
0100
0001
1000
0100
0010
0001
0100
00M0
0100
1000
0001
0100
0010
,  // measure 11
1000
0100
00M0
0100
0001
1000
0100
0010
0002
0000
0100
0000
2003
0000
0010
0000
,  // measure 12
3001
0100
00M0
0100
1000
0001
0100
0010
1000
0100
00M0
0100
0001
1000
0100
0010
,  // measure 13
0001
0100
00M0
0100
1000
0001
0100
0010
1000
0000
1002
0000
0000
0000
0010
0000
,  // measure 14
0013
0100
00M0
0100
0001
0000
1001
0000
1000
0100
00M0
0100
0001
0000
1001
0000
,  // measure 15
1100
0000
0100
1000
0010
1000
0001
0010
0100
0010
0001
1000
0010
0100
0001
0100
,  // measure 16
0001
0000
1000
0001
0010
0000
0110
0000
0100
0000
1000
0001
0000
0000
0202
0000
,  // measure 17
0303
0101
0110
1010
0000
0000
0000
0000
,  // measure 18
0001
0200
0000
1000
0000
0010
0000
0301
0100
0001
1000
0200
0000
0000
0310
0100
,  // measure 19
1000
0000
0000
1000
0000
0000
0001
0000
0000
0010
0000
0000
0100
0000
0000
0000
0000
0000
1000
0000
0001
0000
1000
0000
0010
0000
0000
0000
0000
0000
0100
0000
0000
0100
0000
0000
0000
0000
0000
0010
0000
0000
0100
0000
0000
0001
0000
0000
,  // measure 20
1000
0200
0000
0001
0000
0010
0000
1300
0100
1000
0001
0200
0000
0000
0310
1000
,  // measure 21
0001
0001
1000
0100
0010
0000
0100
0000
0110
0000
0010
0000
1001
0000
1000
0000
,  // measure 22
0010
0000
0100
0020
0000
0001
0000
0130
0010
0100
0001
0020
0000
1000
0000
0130
,  // measure 23
0010
0100
1000
0002
0000
0100
0000
1000
0000
0013
0001
0100
0000
0110
0000
0000
,  // measure 24
0010
1000
0010
1000
0001
1000
0001
1000
0001
0010
0001
0010
0100
1000
0100
1000
,  // measure 25
0002
0000
0100
0000
1003
1100
0001
0101
,  // measure 26
1000
0100
0010
0001
0000
0010
0100
0010
0001
1000
0001
0100
0010
0100
0002
0000
,  // measure 27
0000
0000
1003
0000
1100
0000
0100
1000
0001
1000
0010
0100
1000
0100
0010
0100
,  // measure 28
0001
0010
0100
1000
0000
0100
0010
0100
1000
0001
1000
0010
0M00
0010
0001
1000
,  // measure 29
0100
0000
0000
0000
0000
0000
1100
0000
0000
0000
0000
0000
0010
0000
0000
0000
0000
0000
0011
0000
0000
0000
0000
0000
0010
0000
0001
0000
0010
0000
0001
0000
1000
0000
0001
0000
0100
0000
0000
0010
0000
0000
1000
0000
0000
0001
0000
0000
,  // measure 30
0010
0100
0010
1000
0000
1010
0000
0010
0100
1000
0000
1100
0000
1000
0001
0000
,  // measure 31
0100
0010
0100
1000
0000
1100
0000
0100
0010
1000
0000
1010
0000
1000
0001
0000
,  // measure 32
0001
0100
0010
1000
0001
1000
0100
0010
0100
1000
0001
0100
0010
1000
0001
0000
,  // measure 33
0011
0000
0110
0000
1100
0000
1001
0000
0101
0000
0001
0100
0010
1000
0001
1000
,  // measure 34
0100
0010
0100
0001
0000
0101
0000
0100
0010
0100
1000
0001
0000
0101
0000
0001
,  // measure 35
0100
0010
0100
1000
0000
1000
0100
0010
1000
0000
1010
0000
0001
0000
1001
0000
,  // measure 36
1000
0001
0010
1000
0000
1010
0000
0110
0000
0100
1000
0001
0000
1000
0010
0100
,  // measure 37
0001
0000
0010
0100
0000
0010
0001
0000
1001
0000
1000
0010
0000
1000
0100
0000
,  // measure 38
0010
0000
0010
0100
0010
0001
1000
0001
0100
0000
0000
1010
0000
0000
1001
0000
,  // measure 39
0001
0010
0000
0110
0000
0100
2000
0000
3010
0000
0100
0010
1000
0000
0001
0000
,  // measure 40
0011
0000
0010
0100
1000
0000
1001
0000
0001
0000
0100
0010
0100
0001
1000
0100
,  // measure 41
0020
0000
0000
0000
0000
0000
0030
0000
0110
0000
0000
1001
0000
0000
1200
0000
,  // measure 42
0000
0000
2300
0010
0000
3001
0010
0001
1000
0000
0002
0100
0000
1003
0100
1000
,  // measure 43
0001
0000
2000
0010
0000
3001
0010
0001
1000
0000
0001
0000
0011
0000
1000
0000
,  // measure 44
1010
0000
0000
0000
0000
0000
0010
0000
0000
0100
0000
0000
00M0
0000
0000
0100
0000
0000
1000
0000
0000
0001
0000
0000
0010
0000
0000
000M
0000
0000
0010
0000
0000
0100
0000
0000
0001
0000
0010
0000
0001
0000
0010
0000
0001
0000
1000
0000
,  // measure 45
0100
0010
0100
1000
0001
0100
0010
0100
0001
1000
0100
0010
0001
0000
1000
0000
,  // measure 46
1100
0000
0100
2000
0000
0001
0000
3010
0100
0000
0002
0100
0000
1003
0010
1000
,  // measure 47
0001
0000
2000
0100
0000
3001
0100
0001
1000
0000
0001
0000
0011
0000
1000
0000
,  // measure 48
1010
0000
0000
0000
0000
0000
0101
0000
0000
0000
0000
0000
1000
0000
0000
0000
1001
0000
0000
0000
0001
0000
1000
0000
0010
0M00
0010
0000
0001
0000
1000
0000
,  // measure 49
0100
00M0
0100
0000
0001
0000
0010
0000
0100
0000
1000
0000
0010
0000
0100
0000
0001
0000
0000
0000
0000
0000
0011
0000
0000
0000
0000
0000
2010
0000
0000
0000
,  // measure 50
0000
0000
3001
0020
0000
1030
0010
0100
0010
0000
0001
0200
0000
0310
0001
0010
,  // measure 51
0100
0000
0001
0020
0000
1030
0010
0100
0010
0000
0001
0000
0011
0000
1000
0000
,  // measure 52
1010
0000
0010
0200
0000
1300
0100
0010
0100
0000
0001
0020
0000
0130
0001
0100
,  // measure 53
0010
0000
0001
0200
0000
1300
0100
0010
0000
0110
0000
0100
0001
0000
1001
0000
,  // measure 54
1000
0001
0010
0110
0000
0000
1001
0000
0001
0100
0010
1010
0000
0000
0011
0000
,  // measure 55
1000
0100
0010
0011
0000
0000
1010
0000
0010
0100
0000
0101
0000
0001
0010
0100
,  // measure 56
2000
0000
3000
0011
0000
0000
0000
0000
M000
0000
0000
0000
M000
0000
0000
0000
,  // measure 57
M000
0000
0000
0000
M000
0000
0000
0000
M000
0000
0000
0011
0000
0000
1001
0000
,  // measure 58
1010
0000
0000
0101
0000
0000
0000
0000
0000
0000
0000
0000
0000
0000
0000
0000
;
