#VERSION:0.83;
#TITLE:Alb;
#SUBTITLE:;
#ARTIST:Avans;
#TITLETRANSLIT:;
#SUBTITLETRANSLIT:;
#ARTISTTRANSLIT:;
#GENRE:;
#ORIGIN:;
#CREDIT:;
#BANNER:banner.png;
#BACKGROUND:bg.png;
#PREVIEWVID:;
#JACKET:jacket.png;
#CDIMAGE:;
#DISCIMAGE:;
#LYRICSPATH:;
#CDTITLE:;
#MUSIC:Alb.ogg;
#OFFSET:-0.565000;
#SAMPLESTART:85.434662;
#SAMPLELENGTH:14.571426;
#SELECTABLE:YES;
#BPMS:0.000=140.000;
#STOPS:;
#DELAYS:;
#WARPS:;
#TIMESIGNATURES:0.000=4=4;
#TICKCOUNTS:0.000=4;
#COMBOS:0.000=1;
#SPEEDS:0.000=1.000=0.000=0;
#SCROLLS:0.000=1.000;
#FAKES:;
#LABELS:0.000=Song Start;
#BGCHANGES:;
#KEYSOUNDS:;
#ATTACKS:
;

//---------------dance-single - ----------------
#NOTEDATA:;
#CHARTNAME:;
#STEPSTYPE:dance-single;
#DESCRIPTION:;
#CHARTSTYLE:;
#DIFFICULTY:Medium;
#METER:12;
#RADARVALUES:0.534141,0.579415,0.119511,0.529263,0.187803,438.000000,424.000000,14.000000,62.000000,0.000000,0.000000,0.000000,0.000000,0.000000,0.534141,0.579415,0.119511,0.529263,0.187803,438.000000,424.000000,14.000000,62.000000,0.000000,0.000000,0.000000,0.000000,0.000000;
#CREDIT:;
#NOTES:
0000
0000
0000
0000
,
0000
0000
0000
0000
,
0002
0000
0000
0010
2003
0000
0000
0100
,
3001
0100
0001
0010
0200
0000
0000
0000
,
2300
0000
3010
0001
0010
0100
0001
1000
,
0100
0001
0100
0010
0002
0000
0000
0000
,
2003
0000
0000
0010
3002
0000
0000
0100
,
1003
0100
0010
1000
0020
0000
0000
0000
,
0032
0000
1003
0010
1000
0000
0001
0000
0020
0000
0000
0000
0230
0000
0000
0000
,
1300
0000
0010
0000
0100
0000
0001
0000
1001
0000
0000
1000
0002
0000
0000
0000
,
0023
0000
0000
0000
0000
0000
0130
0000
2100
0000
0000
0000
3001
0100
0001
0000
,
0010
0100
1000
0001
0101
0000
1000
0001
,
0020
0000
0130
1000
1001
0001
0100
0010
,
0100
1000
0100
0001
2001
0000
0000
0000
,
3002
0000
0000
0013
0210
0000
0000
1300
,
0001
0100
0001
0000
0010
0000
0100
0000
1100
0000
0000
0000
0001
0000
0100
0000
,
1000
0000
0100
0010
1000
0000
0001
0000
0011
0000
1000
0000
0010
0000
0100
0000
,
0001
0010
0100
1000
1002
0000
0003
0000
,
1001
0000
0001
0100
0001
0000
0000
0000
1000
0100
1000
0000
0000
0000
0001
0100
,
0001
1000
0010
0100
1000
0100
0001
1000
,
1001
0000
1000
0100
1000
0000
0000
0000
0001
0100
0001
0000
0000
0000
1000
0100
,
1000
0000
0001
0000
0010
0000
0100
0000
0001
0000
0100
0000
1000
0001
1000
0000
,
0100
0000
0010
0001
0010
0000
0000
0000
0100
1000
0100
0000
0000
0000
0010
0001
,
0010
0100
1000
0010
0001
0010
0100
0001
,
1000
0100
0010
0000
0001
0000
1000
0000
0001
0100
0010
0000
1000
0000
0100
0000
,
0020
0000
0000
0031
2000
0000
3000
0000
,
1001
0000
1000
0010
1000
0010
0100
0001
,
0010
0001
0010
0100
1000
0000
0000
0000
,
0001
0100
0001
0100
0010
1000
0010
1000
,
0001
0000
0010
0000
0100
0000
0010
0001
1000
0000
0000
1000
0000
0000
0100
0000
,
0010
0000
0001
0000
0000
0001
0000
0000
1000
0000
0000
0010
0000
0000
0100
0000
,
0010
0000
1000
0000
0000
1000
0000
0000
0001
0000
0000
0010
0000
0000
0100
0000
,
0010
0001
0010
0001
1000
0010
1000
0010
,
0100
0000
0001
0000
0010
0000
0100
0000
2000
0000
0000
0000
3001
0100
0001
0000
,
2001
0000
0000
0000
3200
0000
0310
0001
,
0010
0000
0001
0000
0010
0000
0001
1000
0001
0000
0000
1000
0020
0000
0000
0000
,
0130
0000
0001
0000
0010
0000
0001
0000
0100
0000
0000
0010
0000
0000
1000
0000
,
0100
0000
1000
0001
1000
0000
0010
0000
0100
0000
0001
0000
0010
0000
0100
0000
,
2000
0000
3002
0203
,
0310
0000
1000
0000
0010
0000
1000
0001
2000
0000
0000
0000
3200
0000
0000
0000
,
0320
0000
0000
0000
0031
1000
0001
0000
0100
0000
0000
0010
0000
0000
1000
0000
,
0001
0000
0010
0000
0000
0100
0000
0000
1000
0000
0000
0001
0000
0000
1000
0000
,
1002
0000
0000
0000
0203
0000
0310
1000
,
0010
0000
1000
0000
0010
0000
1000
0001
1000
0000
0000
0001
0020
0000
0000
0000
,
0130
0000
1000
0000
0010
0000
1000
0000
0100
0000
0000
0010
0000
0000
0001
0000
,
0100
0000
0001
1000
0001
0000
0010
0000
0100
0000
1000
0000
0010
0000
0100
0000
,
0002
0000
2003
3200
,
0310
0000
0001
0000
0010
0000
0001
1000
0002
0000
0000
0000
0203
0000
0000
0000
,
0310
0000
1000
0001
1000
0001
0010
0100
,
1000
0000
0010
0000
1000
0000
0001
0000
0010
0000
0000
0100
0000
0000
1000
0000
,
0020
0000
0230
0302
,
0000
1003
0200
0000
0310
0001
1000
0001
,
0100
0000
0010
2000
0001
0000
3010
2000
,
0001
0000
0000
0000
3010
0000
1000
0000
0001
0000
0000
0010
0000
0000
0001
0000
,
0200
0000
0320
2030
,
0000
3001
0020
0000
1030
0010
0100
1000
,
0200
0000
0000
0000
2300
0000
0000
0000
0001
0000
0000
0010
0000
0000
3002
0000
,
1000
0000
0000
0010
0000
0000
1003
0000
0010
0000
0100
0001
1000
0000
0001
0000
,
0020
0000
0230
2300
,
0000
3001
0200
0000
0310
1000
0001
1000
,
0100
0000
0010
0002
1000
0000
0013
0002
,
1000
0000
0000
0000
0013
0000
0001
0000
1000
0000
0000
0010
0000
0000
1000
0000
,
0200
0000
0320
0032
,
0000
1003
0020
0000
0031
0010
0100
0001
,
1000
0100
0010
0100
1000
0001
0100
0001
,
1000
0100
0010
0100
1000
0010
1000
1000
,
0001
0100
0010
0100
0001
1000
0100
1000
,
0001
0100
0010
0100
0001
1000
0001
1000
;

//---------------dance-single - ----------------
#NOTEDATA:;
#CHARTNAME:;
#STEPSTYPE:dance-single;
#DESCRIPTION:;
#CHARTSTYLE:;
#DIFFICULTY:Hard;
#METER:15;
#RADARVALUES:0.714627,0.840926,0.162194,0.520727,0.768285,586.000000,567.000000,19.000000,61.000000,14.000000,0.000000,0.000000,0.000000,0.000000,0.714627,0.840926,0.162194,0.520727,0.768285,586.000000,567.000000,19.000000,61.000000,14.000000,0.000000,0.000000,0.000000,0.000000;
#CREDIT:;
#NOTES:
0000
0000
0000
0000
,
0000
0000
0000
0000
,
0002
0000
0000
0010
2003
0000
0000
0100
,
3001
0100
0001
0010
0200
0000
0000
0000
,
2300
0000
3010
0001
0010
0100
0001
1000
,
0100
0001
0100
0010
0002
0000
0000
0000
,
2003
0000
0000
0010
3002
0000
0000
0100
,
1003
0100
0010
1000
0020
0000
0000
0000
,
0032
0000
1003
0010
0100
0001
0100
0001
2000
0000
0000
0000
3200
0000
0000
0000
,
0310
0000
0001
0000
0100
0000
0001
0000
1001
0000
0000
1000
0002
0000
0000
0000
,
0023
0000
0000
0000
0000
0000
0130
0000
2100
0000
0000
0000
3001
0100
0001
0000
,
0010
0100
1000
0000
1000
0000
0001
0000
0101
0000
0000
0000
1000
0000
0001
0010
,
0200
0000
0000
0000
0301
0000
0100
0000
0110
0000
0001
0000
1000
0010
1000
0001
,
0010
0000
0100
1000
0000
0100
1000
0000
1001
0000
0000
0000
1000
0000
0001
1000
,
0020
0000
0000
0000
0000
0000
0130
0000
0102
0000
0000
0000
1003
0100
1000
0000
,
0010
0100
0001
0000
0001
0000
0010
0000
0011
0000
0000
0000
1000
0000
0100
0000
,
0001
0000
0100
0010
0001
1000
0001
1000
0010
0000
0100
0000
0001
1000
0001
0000
,
0010
0000
0100
1000
0001
0000
0100
0000
0120
0000
0000
0000
0030
0000
0000
0000
,
1001
0000
0001
0010
0001
0000
0000
0000
0001
0100
0001
0000
0000
0000
001M
1000
,
0010
0000
0100
0000
0001
0000
0010
0000
1000
0010
0100
0000
1000
0100
0010
0000
,
1001
0000
1000
0010
1000
0000
0000
0000
1000
0100
1000
0000
0000
0000
M010
0001
,
0010
0000
0100
0000
1000
0000
0010
0000
0001
0010
0100
0001
0100
0001
1000
0100
,
0010
0000
0001
0010
0001
0000
0000
0000
0001
0100
0001
0000
0000
0000
001M
1000
,
0010
0000
0001
0000
0010
0000
0100
0000
1000
0100
0010
0100
0001
0000
1000
0000
,
0100
0010
0001
0000
1000
0000
0001
0000
0100
0010
1000
0001
0010
0000
0100
0000
,
2000
0000
0000
0010
0002
0000
3003
0000
,
1001
0000
1000
0010
1000
0010
0100
0001
,
0010
0001
0010
0100
1000
0000
0000
0000
,
0001
0100
0001
0100
0010
1000
0010
1000
,
0001
0000
0010
0000
0100
0000
0010
0001
1000
0000
0000
1000
0000
0000
1000
0000
,
0010
0000
0100
0001
0000
0100
0001
0000
1000
0100
0000
1000
0100
0000
0010
0001
,
1000
0000
0100
1000
0000
0100
1000
0000
0001
0100
0000
0001
0100
0000
0010
1000
,
0001
0010
0001
0010
0100
1000
0100
1000
0001
0100
0001
0100
0010
1000
0010
1000
,
0001
0000
0010
0000
0100
0000
0001
0100
2000
0000
0000
0000
3001
0100
0001
0100
,
0020
0000
0000
0000
0000
0000
0000
0000
2030
0000
0000
0000
3001
0010
0100
0010
,
0001
0010
0100
0010
0001
0010
0100
1000
0002
0000
0003
0100
0002
0000
0000
0000
,
1003
0100
0010
0001
0010
0001
0010
0001
1000
0000
0010
0100
0000
0010
1000
0000
,
1001
0000
0000
0000
0000
0000
0001
0000
0000
0000
0010
0000
0002
0000
0000
0000
0000
0000
0000
0000
0000
0000
0000
0000
1003
0000
0000
0010
0000
0000
0100
0000
0000
0001
0000
0000
0010
0000
0000
0001
0000
0000
1000
0000
0000
0100
0000
0000
,
0020
0000
0032
2003
,
3001
0100
0010
0100
0001
0100
0010
1000
0002
0000
0003
0010
0002
0000
0000
0000
,
0203
0000
0000
0000
0310
0001
0010
0000
0100
0001
0000
1000
0001
0000
0010
0001
,
1000
0000
0000
0000
0010
0000
0000
0M00
0000
0000
0010
0000
0001
0000
0000
0000
0100
0000
0001
0000
1000
0000
0100
0000
00M0
0000
0100
0000
0001
0000
0100
0000
,
0020
0000
2030
3002
,
1003
0100
0010
0100
1000
0100
0010
0001
2000
0000
3000
0010
2000
0000
0000
0000
,
3001
0100
0010
1000
0010
1000
0010
1000
0001
0000
0010
0100
0010
0000
0001
0000
,
1001
0000
0000
0000
0000
0000
1000
0000
0000
0000
0010
0000
2000
0000
0000
0000
0000
0000
0000
0000
0000
0000
0000
0000
3001
0000
0000
0010
0000
0000
0100
0000
0000
1000
0000
0000
0010
0000
0000
1000
0000
0000
0001
0000
0000
0100
0000
0000
,
0020
0000
2030
3002
,
0013
0100
1000
0100
0010
0100
1000
0001
0100
0001
0100
0001
0020
0000
0130
1000
,
0001
0000
0000
0000
1000
0100
1000
0001
0100
0001
1000
0010
0100
0001
0010
0001
,
1000
0000
0100
0000
1000
0000
0010
0000
0100
0000
0001
0000
1000
0000
0001
0000
0010
0000
0000
0M00
0000
0000
0010
0000
0000
0000
1000
0000
0010
0000
0100
0000
,
0002
0000
0000
0003
0012
0000
2003
0000
,
0000
0000
3010
0000
0200
0000
0000
0301
1000
0100
0010
0001
1000
0010
0100
0001
,
1000
0000
0000
0000
M010
0001
0100
0100
1000
0000
0000
0000
M010
0001
0100
0100
,
1000
0000
0000
0000
0000
0000
0000
0000
M010
0000
0001
0000
0100
0000
0100
0000
1000
0000
0001
0000
0000
0000
0010
0000
0000
0M00
0000
0000
0010
0000
1000
0000
,
0002
0000
0000
0003
0021
0000
2030
0000
,
0000
0000
3010
0000
0200
0000
0000
1300
0001
0010
0100
1000
0001
0100
0010
0100
,
0002
0000
0000
0000
2003
0000
3000
0000
2100
0000
0000
0001
0000
0000
0010
0000
,
3002
0100
0000
1000
0000
0000
0013
0000
0100
1000
0010
1000
0001
0000
0100
0000
,
0102
0000
0013
0012
,
0000
0000
0103
0000
0020
0000
0000
1030
0001
0010
0100
1000
0001
0100
0010
1000
,
0001
0000
0000
0000
001M
1000
0100
0100
0001
0000
0000
0000
001M
1000
0100
0100
,
0001
0000
0000
0000
0000
0000
0000
0000
001M
0000
1000
0000
0100
0000
0100
0000
0001
0000
1000
0000
0000
0000
0010
0000
0000
0M00
0000
0000
0010
0000
0001
0000
,
2000
0000
0000
3000
1200
0000
0320
0000
,
0000
0000
0031
0000
0200
0000
0000
0310
1000
0001
0010
0100
1000
0100
0010
0100
,
0001
0100
0010
0100
1000
0001
0100
0001
,
1000
0100
0001
0100
0010
0001
1000
1000
,
0001
0100
0010
0100
0001
0010
0100
0010
,
0001
0000
1000
0000
0010
0000
1000
0000
0001
0010
0001
0010
0100
1000
0100
1000
;

//---------------dance-single - ----------------
#NOTEDATA:;
#CHARTNAME:;
#STEPSTYPE:dance-single;
#DESCRIPTION:;
#CHARTSTYLE:;
#DIFFICULTY:Easy;
#METER:6;
#RADARVALUES:0.330485,0.405591,0.093902,0.904869,0.000000,271.000000,260.000000,11.000000,106.000000,0.000000,0.000000,0.000000,0.000000,0.000000,0.330485,0.405591,0.093902,0.904869,0.000000,271.000000,260.000000,11.000000,106.000000,0.000000,0.000000,0.000000,0.000000,0.000000;
#CREDIT:;
#NOTES:
0000
0000
0000
0000
,
0000
0000
0000
0000
,
2000
0000
0000
3001
0020
0000
0000
0130
,
2000
3002
0203
0000
,
0320
2030
3002
0023
,
0230
2300
3002
0000
,
2003
0000
0000
3001
0200
0000
0000
0310
,
2000
3002
0023
0000
,
0230
2300
3002
0203
,
0320
2030
3002
0000
,
0023
0000
0000
0130
2000
0000
0000
3001
,
0200
0320
2030
0000
,
3002
0023
0230
2300
,
3020
2030
3002
0000
,
0023
0000
0000
0130
2000
0000
0000
3010
,
0200
0302
2003
0000
,
3200
0320
0032
0203
,
0302
0000
2003
0000
,
3100
0010
0001
0000
0010
0001
0000
0010
,
0001
0000
1000
0000
0001
0100
0001
0000
,
0100
0010
1000
0000
0010
1000
0000
0010
,
1000
0000
0001
0000
1000
0100
1000
0000
,
0010
0100
0001
0000
0100
0001
0000
0100
,
0001
1000
0100
0010
,
0002
0000
2003
0000
,
3020
0000
0230
0000
,
0301
1000
0001
1000
,
0100
0010
0002
0000
,
1003
0010
0100
0001
,
0010
0100
2000
0000
,
3001
0100
0010
0100
,
0001
1000
0100
0010
,
0001
1000
0010
0100
,
0001
1000
0001
1000
0002
0000
0000
0000
,
0023
0000
0230
2300
,
0000
3000
1001
0110
,
0002
0000
0000
0000
0023
0000
0000
0130
,
2000
0000
3002
0000
0103
0010
0100
0010
,
2000
0000
3002
0000
,
0023
0000
0000
0000
0130
1000
0100
0000
,
0020
0000
0000
0000
0032
0000
0000
1003
,
0010
1000
0000
0001
0020
0000
0230
0000
,
2300
0000
0000
3000
1002
0000
0203
0000
,
0000
0000
0000
0300
0110
0000
1001
0000
,
2000
0000
0000
0000
3100
0010
0001
0010
,
0002
0000
0000
0000
1003
0010
1000
0010
,
0200
0000
0302
0000
,
2003
0000
0000
0000
3100
0010
0002
0000
,
2003
3020
0230
0302
,
2003
0000
3200
0000
0320
0000
0031
1000
,
0002
0000
0103
0102
,
0000
0000
2003
0000
3100
0010
0001
0010
,
0100
0000
1000
0010
1000
0000
0001
0010
,
0001
0000
1000
0010
1000
0000
0100
0000
,
0020
0000
0031
0012
,
0000
1003
0020
0000
0130
0001
0100
0001
,
2000
3100
0220
0330
,
2002
3000
0023
0230
,
2300
0000
3010
1020
,
0000
0130
0002
0000
1003
0100
0010
0100
,
1000
0000
0001
0100
0001
0000
1000
0100
,
1000
0000
0001
0100
0002
0000
0000
0000
,
0023
0000
0130
2100
,
0000
3001
0200
0000
0320
0000
2030
0000
,
3001
0010
0100
0010
,
0001
0000
1000
0000
0010
0100
0010
0100
,
0001
0010
0100
1000
,
0010
0000
0100
0000
0001
1000
0001
1000
;

//---------------dance-single - ----------------
#NOTEDATA:;
#CHARTNAME:;
#STEPSTYPE:dance-single;
#DESCRIPTION:;
#CHARTSTYLE:;
#DIFFICULTY:Beginner;
#METER:3;
#RADARVALUES:0.142682,0.202422,0.128048,0.256095,0.000000,117.000000,102.000000,15.000000,30.000000,0.000000,0.000000,0.000000,0.000000,0.000000,0.142682,0.202422,0.128048,0.256095,0.000000,117.000000,102.000000,15.000000,30.000000,0.000000,0.000000,0.000000,0.000000,0.000000;
#CREDIT:;
#NOTES:
// measure 0
0000
0000
0000
0000
,  // measure 1
0000
0000
0000
0000
,  // measure 2
0001
0000
0000
0000
,  // measure 3
1000
0000
0000
0000
,  // measure 4
0010
0000
0000
0000
,  // measure 5
0100
0000
0000
0000
,  // measure 6
0001
0000
0000
0000
,  // measure 7
1000
0000
0000
0000
,  // measure 8
0100
0000
0000
0000
,  // measure 9
0010
0000
0000
0000
,  // measure 10
0001
0000
0010
0000
,  // measure 11
0000
0001
0010
0000
,  // measure 12
0100
0000
1000
0000
,  // measure 13
0100
1000
0001
0000
,  // measure 14
1000
0000
0010
0000
,  // measure 15
0000
1000
0010
0000
,  // measure 16
0100
0000
0001
0000
,  // measure 17
0100
0000
1001
0000
,  // measure 18
0001
0000
0000
0000
,  // measure 19
1000
0000
0100
0000
,  // measure 20
1000
0000
0000
0000
,  // measure 21
0001
0000
0100
0000
,  // measure 22
0001
0000
0000
0000
,  // measure 23
1000
0000
0010
0000
,  // measure 24
1000
0000
0000
0000
,  // measure 25
0001
0000
0000
0000
,  // measure 26
1001
0000
0000
0000
,  // measure 27
1000
0000
0100
0000
,  // measure 28
0010
0000
0000
0000
,  // measure 29
0001
0000
0100
0000
,  // measure 30
0010
0000
0010
0000
,  // measure 31
1000
0000
1000
0000
,  // measure 32
0001
0000
0001
0000
,  // measure 33
0010
0000
0000
0000
,  // measure 34
0002
0000
0000
0000
,  // measure 35
0000
0000
1003
0000
,  // measure 36
0020
0000
0130
0000
,  // measure 37
0002
0000
1003
0000
,  // measure 38
0200
0000
0000
0000
,  // measure 39
0000
0000
0310
0000
,  // measure 40
0002
0000
2000
0000
,  // measure 41
3003
0000
0110
0000
,  // measure 42
2000
0000
0000
0000
,  // measure 43
0000
0000
3001
0000
,  // measure 44
0020
0000
0130
0000
,  // measure 45
2000
0000
3001
0000
,  // measure 46
0200
0000
0000
0000
,  // measure 47
0000
0000
0310
0000
,  // measure 48
1000
0000
0100
0000
,  // measure 49
0010
0000
0001
0000
,  // measure 50
2002
0000
3003
0220
,  // measure 51
0000
0330
2001
0000
,  // measure 52
3100
0000
0010
0000
,  // measure 53
0001
0000
1000
0000
,  // measure 54
2002
0000
3003
0220
,  // measure 55
0000
0330
1002
0000
,  // measure 56
0103
0000
0010
0000
,  // measure 57
1000
0000
0001
0000
,  // measure 58
0022
0000
0033
2020
,  // measure 59
0000
3030
2001
0000
,  // measure 60
3100
0000
0010
0000
,  // measure 61
0001
0000
1000
0000
,  // measure 62
2020
0000
3030
0022
,  // measure 63
0000
0033
1002
0000
,  // measure 64
0103
0000
0000
0000
,  // measure 65
0000
0000
0000
0000
,  // measure 66
0010
0000
0100
0000
,  // measure 67
0001
0000
1000
0001
;
