#VERSION:0.83;
#TITLE:Ai kotoba IV;
#SUBTITLE:;
#ARTIST:DECO*27;
#TITLETRANSLIT:;
#SUBTITLETRANSLIT:;
#ARTISTTRANSLIT:;
#GENRE:;
#CREDIT:;
#MUSIC:Ai kotoba IV.ogg;
#BANNER:Ai kotoba IV.png;
#BACKGROUND:Ai kotoba IV-bg.png;
#CDTITLE:;
#SAMPLESTART:55.276;
#SAMPLELENGTH:13.597;
#SELECTABLE:YES;
#OFFSET:-0.672;
#BPMS:0.000=139.000;
#STOPS:;
#JACKET:Ai kotoba IV-jacket.png;
#BGCHANGES:-1.557=Ai kotoba IV.avi=1.000=1=0=0=StretchNoLoop==CrossFade==;
#FGCHANGES:;

//--------------- dance-single - ----------------
#NOTEDATA:;
#STEPSTYPE:dance-single;
#DESCRIPTION:;
#DIFFICULTY:Beginner;
#METER:2;
#RADARVALUES:0,0,0,0,0;
#NOTES:
0000
0000
0000
0000
,
0000
0000
0000
0000
,
0000
0000
0000
0000
,
0000
0000
0000
0000
,
1000
0000
0000
0000
,
1000
0000
0000
0000
,
0001
0000
0000
0000
,
0001
0000
0000
0000
,
1001
0000
0000
0000
,
0000
0000
0000
0000
,
0110
0000
0000
0000
,
0000
0000
0000
0000
,
1000
0000
0000
0000
,
0000
0000
0000
0000
,
0001
0000
0000
0000
,
0000
0000
0000
0000
,
0100
0000
0100
0000
,
0100
0000
0100
0000
,
0001
0000
0000
0000
,
1000
0000
0000
0000
,
0010
0000
0010
0000
,
0010
0000
0010
0000
,
1000
0000
0000
0000
,
0001
0000
0000
0000
,
1001
0000
0000
0000
,
1000
0000
1000
0000
,
1001
0000
0000
0000
,
0001
0000
0001
0000
,
1001
0000
0000
0000
,
0100
0000
0000
0000
,
0010
0000
0000
0000
,
0001
0000
0000
0000
,
1000
0000
1000
0000
,
0001
0000
0001
0000
,
1000
0000
1000
0000
,
0001
0000
0001
0000
,
0100
0000
0000
0000
,
0100
0000
0000
0000
,
0010
0000
0000
0000
,
0010
0000
0000
0000
,
0001
0000
0001
0000
,
1000
0000
1000
0000
,
0001
0000
0001
0000
,
1000
0000
1000
0000
,
1001
0000
0000
0000
,
0110
0000
0000
0000
,
0000
0000
0000
0000
,
1000
0000
0001
0000
,
1001
0000
0000
0000
,
0000
0000
0000
0000
,
0000
0000
0000
0000
,
0000
0000
0000
0000
,
1000
0000
1000
0000
,
1000
0000
0000
0000
,
0001
0000
0001
0000
,
0001
0000
0000
0000
,
0000
0000
0000
0000
,
0001
0000
0001
0000
,
1000
0000
1000
0000
,
0001
0000
0001
0000
,
1000
0000
1000
0000
,
0010
0000
0000
0000
,
0100
0000
0000
0000
,
0001
0000
0001
0000
,
1001
0000
0000
0000
,
0000
0110
0000
0000
,
1000
0000
1000
0000
,
0100
0000
0000
0000
,
0001
0000
0001
0000
,
0100
0000
0000
0000
,
0010
0000
0000
0000
,
1000
0000
0000
0000
,
0001
0000
0000
0000
,
2002
0000
0000
0000
,
0000
0000
0000
0000
,
3003
0000
0000
0000
,
0000
0000
0000
0000
,
0110
0000
0000
0000
;

//--------------- dance-single - ----------------
#NOTEDATA:;
#STEPSTYPE:dance-single;
#DESCRIPTION:;
#DIFFICULTY:Easy;
#METER:5;
#RADARVALUES:0,0,0,0,0;
#NOTES:
0000
0000
0000
0000
,
0000
0000
0000
0000
,
0000
0000
0000
0000
,
0000
0000
0000
0000
,
1000
0000
0100
0000
,
1000
0000
0010
0000
,
1000
0100
0010
0000
,
0001
0010
0100
0000
,
1000
0000
1000
0000
,
0001
0100
0020
0030
,
0100
0000
0100
0000
,
0001
0010
0200
0300
,
0110
0000
1001
0000
,
1000
0001
1000
0001
,
1000
0000
1000
0000
,
0100
0000
0010
0000
,
0001
0010
0001
0000
,
1000
0100
0010
0000
,
0001
0100
0001
0000
,
1000
0010
0100
0000
,
0001
1000
1001
0000
,
0100
0010
0110
0000
,
1001
0000
1000
0000
,
0001
0010
0100
0000
,
2000
3000
2000
3000
,
0001
0100
0001
0100
,
0002
0003
0002
0003
,
0010
0100
0010
0100
,
0010
0000
0000
0000
,
0000
0000
0110
0000
,
0000
0000
1001
0000
,
0010
0010
0010
0000
,
1000
0000
0001
0000
,
0100
0001
1000
0000
,
0001
0000
1000
0000
,
0100
1000
0001
0000
,
0100
0000
0010
0000
,
1000
0000
0001
0000
,
2000
0000
0000
3000
,
1001
0000
0000
0000
,
1000
0000
0001
0000
,
0010
0001
1000
0000
,
0001
0000
1000
0000
,
0010
1000
0001
0000
,
1000
0000
0100
0000
,
0010
0000
0001
0200
,
0000
0000
0000
0300
,
0110
0000
0000
0000
,
2002
0000
0000
0000
,
0000
0000
0000
0000
,
3003
0000
0000
0000
,
0000
0000
0000
0000
,
0001
0000
0010
0000
,
0001
0000
0100
0000
,
0001
0010
0100
0000
,
1000
0100
0010
0000
,
0000
0000
0000
0000
,
1001
0000
0001
0000
,
1000
0000
0100
0000
,
1000
0010
0100
0000
,
0001
0100
0010
0000
,
2000
0000
3100
0000
,
0002
0000
0013
0000
,
0100
0100
0100
0000
,
0110
0000
0000
0000
,
0000
1001
0000
0000
,
0100
0100
0100
0000
,
0010
0010
0010
0000
,
0110
0000
1001
0000
,
1000
0100
0010
0000
,
0001
0010
0100
0000
,
1000
0000
0001
0000
,
1000
0000
0010
0000
,
0100
0000
0000
0000
,
0000
0000
0000
0000
,
1000
0001
0010
0000
,
0001
0000
1000
0000
0100
0000
0000
0110
;

//--------------- dance-single - ----------------
#NOTEDATA:;
#STEPSTYPE:dance-single;
#DESCRIPTION:;
#DIFFICULTY:Medium;
#METER:7;
#RADARVALUES:0,0,0,0,0;
#NOTES:
0000
0000
0000
0000
,
0000
0000
0000
0000
,
0000
0000
0000
0000
,
0000
1000
1000
0000
0001
0001
0000
0000
,
0001
0100
0010
0100
,
0001
0010
0200
1300
,
1000
0100
0010
0100
,
1000
0010
0200
0301
,
1000
0000
0000
1000
0000
0000
0000
0000
,
1000
0100
0010
0001
,
0100
0000
0000
0100
0000
0000
0000
0000
,
0010
0010
1000
1000
,
0001
0000
0000
0001
0000
0000
0000
0000
,
1000
0001
1000
0010
,
0110
0000
0000
0110
0000
0000
1001
0000
,
1000
0100
1000
0001
,
0100
0100
0010
0000
,
0010
0010
1000
0000
,
0001
0001
0010
0000
,
0100
0100
1000
0001
,
1000
0100
0001
0100
,
1000
0001
1000
0000
,
0001
0100
1000
0100
,
0001
1000
0001
0000
,
0100
0000
0110
0000
,
0100
0010
0100
0000
,
1001
0000
1001
0000
,
1000
0001
1000
0001
,
0200
0300
0200
0300
,
0020
0030
0020
0030
,
1000
0001
0010
0100
,
0000
1000
1000
0000
0001
0001
0000
0000
,
1000
0100
0010
0001
,
1000
0010
0100
0001
,
1000
0100
0001
0100
,
1000
0010
0001
0010
,
2000
0000
0000
3000
1010
0000
0000
0000
,
0002
0000
0000
0003
0101
0000
0000
0000
,
0100
0100
0100
0010
,
0110
0110
1001
0000
,
0001
0100
0010
1000
,
0100
0010
0001
1000
,
0010
0001
0010
1000
,
0100
0001
0100
1000
,
0200
0000
0000
0300
1100
0000
0000
0000
,
0020
0000
0000
0030
0011
0000
0000
0000
,
0100
0000
0100
0000
0100
0000
0100
0001
,
0000
0101
0000
1001
0000
0110
0000
2002
,
0000
0000
0000
0000
,
3003
0000
0000
0000
,
0000
0000
0000
0000
,
0000
0000
0000
0000
,
0001
0100
0010
0100
,
0001
0010
0100
0010
,
0001
0100
0010
1000
,
0001
0010
0100
1000
,
0000
0000
0000
0000
,
1001
1000
0010
1000
,
0001
0100
0001
1000
,
0100
0010
0001
1000
,
0010
0100
0002
0003
,
1000
0100
0001
0100
,
1000
0100
0001
0100
,
1000
0010
0001
0010
,
2000
0000
0001
0001
,
3001
0110
2002
3003
,
0001
0100
0020
1030
,
0100
0010
0002
1003
,
2000
3100
0002
0103
,
1000
0000
0100
0000
0010
0000
0000
0011
,
0000
0011
0000
0000
1000
0000
0010
0000
,
0100
0000
0001
0000
,
1000
0001
0100
0010
,
2000
0000
0100
0000
,
0001
0000
0010
3000
,
1000
0001
0100
0010
,
0100
0000
0001
0000
0010
0000
0100
0110
;

//--------------- dance-single - ----------------
#NOTEDATA:;
#STEPSTYPE:dance-single;
#DESCRIPTION:;
#DIFFICULTY:Hard;
#METER:11;
#RADARVALUES:0,0,0,0,0;
#NOTES:
0000
0000
0000
0000
,
0000
0000
0000
0000
,
0000
0000
0000
0000
,
0000
1001
1001
0000
1001
1001
0000
0000
,
1000
0100
1000
0200
0000
0320
0000
0031
,
0100
0010
0100
0020
0000
2030
0000
3001
,
0000
1000
0100
0010
0000
0001
0010
0100
,
0000
1000
0010
0100
0000
0001
0100
0010
,
1000
0000
0000
1010
0000
0000
1000
0001
,
1000
0100
0010
0010
0002
0000
2003
0000
,
3001
0000
0000
0101
0000
0000
0001
1000
,
0001
0100
0100
0010
1000
0000
0001
0000
,
0010
0000
0000
0011
0000
0000
1002
0000
,
0013
0001
0010
0100
2000
0000
3002
0000
,
0103
0000
0000
0101
0000
0000
1000
0001
,
0100
0001
0100
0001
1000
0100
1000
0100
,
1000
0001
0010
0000
0010
0001
1000
0000
,
0001
0100
0010
1000
0000
1000
0010
0100
,
0101
0000
0001
0010
0100
1000
0010
1000
,
0001
1000
0001
1000
0000
1000
0100
0010
,
0001
1000
0100
0000
0100
1000
0001
0000
,
1000
0100
0010
0001
0000
1000
0010
0100
,
0110
0000
1001
0001
1000
0002
0000
0023
,
0000
0031
1000
0001
1000
0010
0100
0000
,
0002
0003
0002
0003
0000
0000
1000
0000
0002
0003
0002
0003
0000
0000
0000
0000
,
1000
0100
1000
0100
0001
0100
1000
0000
,
0001
0100
0001
0100
0001
0100
0010
0000
,
1000
0001
0010
0001
0010
0001
0010
0100
,
1000
1100
0001
0101
,
1000
1010
0001
0011
,
1001
0000
0001
0100
0010
1000
0100
0020
,
0000
0001
0031
0000
0110
1001
0000
0000
,
1000
0010
0100
0010
2000
0000
3001
0010
,
0100
1000
0100
0010
0002
0000
0103
0010
,
0100
0001
1000
0100
0020
0000
0130
1000
,
0010
0100
0001
1000
0001
0000
1001
0000
,
1000
0100
1000
0100
0001
0000
0001
0100
,
1000
0000
1000
0010
0001
0000
0001
0010
,
1000
0001
1000
0001
1000
0001
0010
0010
,
0000
0000
0001
1000
0001
0000
1000
0000
0100
0000
0010
0000
0001
0000
1000
0000
,
0001
0100
0010
0100
0010
1000
0001
0010
,
0100
1000
0010
1000
0010
1000
0001
1000
,
0100
0010
0001
0010
0001
1000
0010
0100
,
0001
0010
0100
1000
0001
0000
1001
0000
,
0001
0100
0001
0100
1000
0000
1000
0100
,
0001
0000
0001
0010
1000
0000
1000
0010
,
0001
0100
0010
0100
0010
0100
0010
0110
,
0000
1001
0000
0110
0000
1001
0000
2002
,
0000
0000
0000
0000
,
3003
0000
0000
0000
,
1000
0100
0010
0002
0000
2003
0000
3002
,
0000
0023
0000
0230
0000
2300
0000
3001
,
0000
0001
0100
0020
0000
2030
0000
3001
,
0000
1000
0010
0200
0000
0302
0000
2003
,
0000
3200
0000
0320
0000
0032
0000
0203
,
0000
2300
0000
3020
0000
0032
0000
1003
,
0000
0000
0000
0000
,
0001
1000
0010
1000
0010
1000
0001
0010
,
0100
1000
0001
0100
0001
0100
0010
1000
,
0100
0010
0001
0010
0001
1000
0010
0100
,
0001
1000
0100
1000
0100
0000
1001
0000
,
1000
0100
0010
0001
0100
0000
0001
0100
,
1000
0000
1000
0100
0001
0000
0010
0100
,
1000
0001
1000
0001
1000
0001
0100
0220
,
0000
0330
0000
1001
,
1100
0000
0011
0000
1000
0010
1000
0010
,
0100
0001
0101
0000
0001
0010
0001
0010
,
0100
1000
0100
1000
0001
0010
0011
0000
,
2000
0000
3002
0000
0103
0010
2000
0000
,
3200
0000
0301
0100
0000
1000
0000
0001
,
0000
1001
0000
0000
2000
0000
3020
0000
,
0230
0301
2000
0100
,
0010
0000
3001
0000
0001
0010
0100
1000
,
0010
0100
0010
1000
0000
1000
0001
0020
,
0000
0230
0000
2300
0000
3010
0100
2002
,
0000
0000
0000
0000
,
0000
0000
0000
0000
3003
0000
1001
0110
;

//--------------- dance-single - ----------------
#NOTEDATA:;
#STEPSTYPE:dance-single;
#DESCRIPTION:;
#DIFFICULTY:Challenge;
#METER:13;
#RADARVALUES:0,0,0,0,0;
#NOTES:
0000
0000
0000
0000
,
0000
0000
0000
0000
,
0000
0000
0000
0000
,
0000
1001
0110
0000
0110
1001
0000
0000
,
1000
0100
0010
0100
0001
0100
0010
0100
,
1000
0010
1000
0001
1000
0100
1000
0001
,
0100
0010
0100
0001
1000
0100
0010
0100
,
1000
0010
0100
0001
1000
0100
0010
0001
,
1000
0000
0000
1001
0000
0000
1000
0001
,
1000
0100
0010
0001
1000
0000
0010
0000
,
0110
0000
0000
1001
0000
0000
1000
0001
,
1000
0100
0001
0100
1000
0010
0100
0000
,
0110
0000
0000
0101
0000
0000
0011
0000
,
0001
0100
0010
1000
0001
0010
0100
0000
,
0100
1000
0010
1010
0000
0000
1000
0001
,
0100
0010
0100
0000
0001
0000
1000
0000
0100
0010
0100
0000
1000
0000
0001
0000
,
1000
0100
1000
0100
0010
0001
0010
0001
,
1000
0100
0010
0001
0000
0001
1000
0010
,
1010
0000
0010
0100
0001
1000
0100
1000
,
0001
0100
1000
0200
0000
0301
1000
0100
,
0010
0001
0010
0001
0100
0001
0100
0001
,
0100
0010
1000
1010
0000
0001
0010
0100
,
0110
0000
0010
0100
1000
0001
1000
0010
,
0001
0010
1000
0100
0010
0001
1000
0000
,
2000
3000
2000
3000
0000
0001
1000
0001
2000
3000
2000
3000
0000
0000
0000
0000
,
0001
0100
0001
1000
0100
1000
0001
0100
0010
1000
0000
0000
,
0100
1000
0100
1000
0100
1000
0100
1000
0200
0000
0310
0001
0000
0000
1000
0000
,
0010
0100
0001
1000
0100
0010
0001
1000
0001
2000
0000
0000
,
3001
1000
0001
0010
0100
1000
0001
0100
,
1000
0100
0001
0010
1000
0010
0001
1000
,
1001
0000
0011
0010
0100
1000
0010
0200
,
0000
0310
0110
0000
0110
1001
0000
0000
,
0011
0000
0010
0000
0100
0000
1000
0010
0000
0000
1000
0000
0001
0000
1000
0000
,
0100
0000
0010
0000
0001
0000
0100
0010
0000
0000
0100
0000
0001
0000
0010
0000
,
0100
0000
1000
0000
0001
0000
0100
1000
0000
0000
0100
0000
0001
0000
0010
0000
,
0100
0000
0001
0000
0100
0000
1000
0001
0000
0000
0100
0000
0010
0000
1000
0000
,
0001
1000
0100
0020
0000
0031
0100
0020
,
0000
1030
0001
0020
0000
0130
1000
0001
,
0000
1000
0001
1000
0001
1000
0001
1000
0001
1000
0001
1000
0010
0000
0200
0000
,
0000
0301
1000
0001
1000
0100
0010
0001
,
1000
0000
0010
0000
0100
0000
0001
0010
0000
0000
0001
0000
0100
0000
0010
0000
,
1000
0000
0100
0000
0001
0000
0100
1000
0000
0000
0001
0000
0010
0000
0100
0000
,
1000
0000
0010
0000
0001
0000
0010
1000
0000
0000
0100
0000
0010
0000
0001
0000
,
1000
0000
0010
0000
0100
0000
0001
1000
0000
0000
0001
0000
0100
0000
0001
0000
,
1000
0100
0010
0002
0000
0103
0010
2000
,
0000
3001
0010
0200
0000
1300
0001
0010
,
0000
0001
0100
0001
0100
0001
0100
0001
0100
0001
0100
0001
0100
0000
0010
0000
,
0000
1010
0000
1100
0000
0101
0000
2002
,
0000
0000
0000
0000
,
3003
0000
0000
0000
,
0000
1000
0100
0010
0000
0001
0010
0100
,
0000
0011
0000
0110
0000
1100
0000
1002
,
0000
0103
0010
0100
1000
0100
0010
0200
,
0000
0301
0010
0001
1000
0001
0100
0001
,
0000
1000
0100
2000
0000
3001
0100
0002
,
0000
1003
0010
2000
0000
3001
0010
0100
,
1000
0000
0000
0000
,
1002
0000
0013
0000
0100
0000
1000
0010
0000
0000
1000
0000
0001
0000
0010
0000
,
1100
0000
0100
0000
0001
0000
0100
1000
0000
0000
0001
0000
1000
0000
0010
0000
,
0101
0000
0100
0000
1000
0000
0100
0001
0000
0000
0010
0000
0100
0000
1000
0000
,
1010
0000
0010
0000
0100
0000
0001
1000
0000
0000
0001
0000
1000
0000
0010
0000
,
1000
0100
0010
0002
0000
0103
0010
2000
,
0000
3010
1000
0002
0000
0013
0100
1000
,
0000
0001
1000
0001
1000
0001
1000
0001
1000
0001
1000
0001
1000
0000
0020
0000
,
0000
0130
0100
0100
0001
0010
0100
1000
,
0010
0000
1001
0000
1000
0100
0010
0100
,
1000
0001
0100
0001
1000
0100
0010
0001
,
0100
0001
0100
0001
1000
0010
1010
0000
,
1000
0100
1000
0100
0010
0001
0011
0001
,
0200
0000
0301
0010
0000
1001
0000
0110
,
0000
1001
0000
0000
2020
3030
0220
0330
,
0202
0303
2000
3002
,
0023
0000
0230
0000
1300
0100
0010
0001
,
1000
0000
0100
0000
1000
0000
0020
0000
0000
0030
0100
0000
0001
0000
0010
0000
,
0000
0100
1000
0001
1000
0010
1000
2001
,
0000
3100
0010
0100
0001
0100
1000
0001
,
0100
0010
0100
1000
0100
0001
0101
1001
;
