#VERSION:0.83;
#TITLE:ai no tenshi;
#SUBTITLE:(Stepmania Edit);
#ARTIST:CHAM!;
#TITLETRANSLIT:Angel of Love;
#SUBTITLETRANSLIT:;
#ARTISTTRANSLIT:;
#GENRE:ANIME;
#ORIGIN:;
#CREDIT:;
#BANNER:ainotenshi.png;
#BACKGROUND:ainotenshi-bg.png;
#PREVIEWVID:;
#JACKET:ainotenshi-jacket.png;
#CDIMAGE:;
#DISCIMAGE:;
#LYRICSPATH:;
#CDTITLE:;
#MUSIC:ainotenshi.ogg;
#OFFSET:-1.776417;
#SAMPLESTART:62.182999;
#SAMPLELENGTH:19.054001;
#SELECTABLE:YES;
#BPMS:0.000=148.000;
#STOPS:52.000=1.217;
#DELAYS:;
#WARPS:;
#TIMESIGNATURES:0.000=4=4;
#TICKCOUNTS:0.000=4;
#COMBOS:0.000=1;
#SPEEDS:0.000=1.000=0.000=0;
#SCROLLS:0.000=1.000;
#FAKES:;
#LABELS:0.000=Song Start;
#BGCHANGES:;
#KEYSOUNDS:;
#ATTACKS:
;

//---------------dance-single - ----------------
#NOTEDATA:;
#CHARTNAME:;
#STEPSTYPE:dance-single;
#DESCRIPTION:;
#CHARTSTYLE:;
#DIFFICULTY:Hard;
#METER:11;
#RADARVALUES:0.523516,0.550059,0.195446,0.224763,0.141698,375.000000,355.000000,20.000000,23.000000,0.000000,0.000000,0.000000,0.000000,0.000000,0.523516,0.550059,0.195446,0.224763,0.141698,375.000000,355.000000,20.000000,23.000000,0.000000,0.000000,0.000000,0.000000,0.000000;
#CREDIT:TonyAkita;
#NOTES:
// measure 0
0000
0000
0000
0000
,  // measure 1
0000
0000
0000
0000
,  // measure 2
0000
0000
0000
0000
,  // measure 3
0000
0000
0000
0000
,  // measure 4
1000
0000
0010
0000
1000
0000
0010
0000
0200
0000
0000
0001
0000
0000
0301
0000
,  // measure 5
0001
0000
0010
0000
0001
0000
0010
0000
0200
0000
0000
1000
0000
0000
1300
0000
,  // measure 6
1000
0000
0010
0000
0001
0000
0010
0000
0200
0000
0000
0001
0000
0000
0301
0000
,  // measure 7
0001
0000
0010
0000
1000
0000
0010
0000
0200
0000
0000
1000
0000
0000
1300
0000
,  // measure 8
1000
0000
0010
0000
0100
0000
0001
0000
0020
0000
0000
0100
0000
0000
0100
0000
,  // measure 9
0130
0110
0000
0000
,  // measure 10
0000
1000
0100
1000
0010
0100
0001
0000
,  // measure 11
0000
0001
0100
0001
0010
0100
1000
0000
,  // measure 12
0000
0001
0100
1000
0100
0010
1000
0000
,  // measure 13
2002
3003
1000
0010
0100
0010
1000
0000
,  // measure 14
0001
0010
0100
1000
0100
0001
0100
0000
,  // measure 15
0011
0000
0001
0010
0100
0010
0001
0000
,  // measure 16
1000
0010
0100
0001
0100
1000
0100
0001
,  // measure 17
0010
0000
0100
0000
1000
0000
0100
0000
0001
0000
0000
0000
0100
0000
1000
0010
,  // measure 18
0000
1000
0100
0000
0001
0000
0100
0000
1000
0000
0000
0000
0001
0000
0100
0001
,  // measure 19
0000
0010
0001
0000
0100
0000
1000
0000
0001
0000
0100
0000
1000
0000
0010
0000
,  // measure 20
0100
0002
0000
0000
0010
0000
0010
0000
,  // measure 21
0013
0000
0001
1000
0001
0000
0010
0000
1000
0000
0010
0000
0001
0000
0000
0000
,  // measure 22
1000
0010
0100
0001
0010
0001
0100
0000
,  // measure 23
0110
0000
1000
0010
0001
0010
1000
0000
,  // measure 24
0001
0010
0100
1000
0010
1000
0100
0001
,  // measure 25
0100
0000
1000
0000
0001
0000
0100
0000
1000
0000
0000
0000
0100
0000
0001
0010
,  // measure 26
0000
0001
0100
0000
1000
0000
0100
0000
0001
0000
0000
0000
1000
0000
0100
1000
,  // measure 27
0000
0010
1000
0000
0001
0000
0100
0000
0010
0000
0000
0000
1000
0000
0001
0010
,  // measure 28
0000
1000
0010
0000
0001
0000
0000
0000
0010
0000
0000
0000
0100
0000
0000
0000
,  // measure 29
1000
0000
2000
0000
3010
0000
0101
0001
,  // measure 30
1000
0000
0200
0000
0301
0000
1100
1000
,  // measure 31
0010
0000
0100
0001
0100
0001
0100
1000
,  // measure 32
0010
0000
0001
0010
0100
1000
0000
0001
,  // measure 33
0001
0001
0002
0000
0013
0000
1100
1000
,  // measure 34
0001
0000
0200
0000
1300
0000
0101
0001
,  // measure 35
0010
0000
0100
1000
0100
1000
0100
0001
,  // measure 36
0010
1000
0000
0000
0002
0000
0010
0000
,  // measure 37
0013
0011
1000
0011
,  // measure 38
0100
1000
0010
0001
0010
1000
0000
0010
,  // measure 39
0010
0010
1010
0000
0001
0000
1010
0000
,  // measure 40
0100
0001
0010
1000
0010
0001
0000
0100
,  // measure 41
0100
0100
0101
0000
1000
0000
0101
0000
,  // measure 42
1000
0100
0001
0010
1000
0001
0000
1000
,  // measure 43
1000
1000
1100
0000
0001
0000
1100
0000
,  // measure 44
0001
0100
1000
0010
0001
1000
0000
0000
,  // measure 45
0001
0010
0100
1000
0100
0001
0100
1000
,  // measure 46
0010
0110
2002
0000
,  // measure 47
3003
0000
0000
1000
0010
1000
0100
0010
,  // measure 48
0001
0000
0000
0001
0010
0001
0100
0010
,  // measure 49
1000
0000
0000
0001
0010
1000
0010
0100
,  // measure 50
1000
0000
0000
1001
0000
0000
1000
0001
1000
0001
1000
0001
,  // measure 51
1000
0000
0001
1000
0100
0000
0001
0000
0100
0000
0010
0000
0200
0000
0000
1000
,  // measure 52
0000
0000
1300
0000
0001
0000
0100
0000
1000
0000
0100
0000
0002
0000
0000
0100
,  // measure 53
0000
0000
0103
0000
0100
0000
1000
0000
0100
0000
0010
0000
0200
0000
0000
0001
,  // measure 54
0000
0000
0301
0000
1000
0000
0100
0000
0001
0000
0100
0000
2000
0000
0000
0100
,  // measure 55
0000
0000
3100
0000
0010
0000
1000
0000
0010
0000
0100
0000
0020
0000
0000
0001
,  // measure 56
0000
0000
0031
0000
1000
0000
0010
0000
0001
0000
0010
0000
2000
0000
0000
0010
,  // measure 57
0000
0000
3010
0000
0010
0000
0001
0000
0010
0000
0100
0000
0020
0000
0000
1000
,  // measure 58
0000
0000
1030
0000
0001
0000
0010
0000
1000
0000
0010
0000
0002
0000
0000
0010
,  // measure 59
0000
0013
1001
0000
0000
0000
0000
0000
;
