#VERSION:0.83;
#TITLE:ALTERNATOR;
#SUBTITLE:;
#ARTIST:BEMANI Sound Team "DJ Hellix";
#TITLETRANSLIT:;
#SUBTITLETRANSLIT:;
#ARTISTTRANSLIT:DJ Hellix;
#GENRE:;
#ORIGIN:;
#CREDIT:;
#BANNER:ALTERNATOR.png;
#BACKGROUND:ALTERNATOR-bg.png;
#PREVIEWVID:;
#JACKET:ALTERNATOR-jacket.png;
#CDIMAGE:;
#DISCIMAGE:;
#LYRICSPATH:;
#CDTITLE:CDtitle.png;
#MUSIC:ALTERNATOR.ogg;
#OFFSET:-0.020000;
#SAMPLESTART:54.508999;
#SAMPLELENGTH:10.365000;
#SELECTABLE:YES;
#BPMS:0.000=185.000;
#STOPS:;
#DELAYS:;
#WARPS:;
#TIMESIGNATURES:0.000=4=4;
#TICKCOUNTS:0.000=4;
#COMBOS:0.000=1;
#SPEEDS:0.000=1.000=0.000=0;
#SCROLLS:0.000=1.000;
#FAKES:;
#LABELS:0.000=Song Start;
#BGCHANGES:0.000=ALTERNATOR.mp4=1.000=0=0=1=====,
362.000=ALTERNATOR-bg.png=1.000=1=0=1===CrossFade==,
99999=-nosongbg-=1.000=0=0=0 // don't automatically add -songbackground-
;
#KEYSOUNDS:;
#ATTACKS:
;

//---------------dance-single - PANDY OMEGA----------------
#NOTEDATA:;
#CHARTNAME:;
#STEPSTYPE:dance-single;
#DESCRIPTION:PANDY OMEGA;
#CHARTSTYLE:;
#DIFFICULTY:Easy;
#METER:11;
#RADARVALUES:0.421472,0.537134,0.136037,0.425116,0.000000,347.000000,331.000000,16.000000,50.000000,0.000000,0.000000,14.000000,0.000000,0.000000,0.421472,0.537134,0.136037,0.425116,0.000000,347.000000,331.000000,16.000000,50.000000,0.000000,0.000000,14.000000,0.000000,0.000000;
#CREDIT:PANDY OMEGA;
#NOTES:
0000
0000
0000
0000
,
0000
0000
0000
0000
,
0000
0000
0000
0000
,
0000
0000
0000
0000
,
0000
0000
0000
0000
,
0000
0000
0000
0000
,
0000
0000
0000
0000
,
0000
0000
0000
0000
,
0001
0000
1000
0000
,
0010
0000
0000
0100
0000
0100
0000
0000
,
0010
0000
1000
0000
,
0200
0000
0000
0000
,
0310
0000
0100
0000
,
1000
0000
0000
0001
0000
0001
0000
0000
,
0010
0000
0001
0000
,
0100
0000
0000
0010
0000
0010
0000
0000
,
0100
0001
0010
0000
,
0100
1000
0010
0000
,
0100
0100
0100
0000
,
0010
0010
0010
1002
,
0103
0001
0010
0001
,
1000
0010
1000
0001
,
1000
0100
0010
0001
,
2002
0000
0000
3003
,
0001
0100
1000
0100
,
0001
0000
0100
0000
0010
1000
0100
0000
,
0010
0001
0100
0010
,
1000
0100
0001
0100
,
1000
0010
0100
0001
,
0010
0000
0100
0000
0010
0000
0001
0100
,
0010
0100
0001
0010
,
1000
0010
0001
0100
,
0010
1000
0001
0010
,
0100
0000
0100
0000
0100
0010
0100
0010
,
0200
1300
0020
1030
,
0020
0130
0020
1030
,
0100
0021
0032
0013
,
0002
0000
1003
0000
0002
0000
0103
0010
,
0100
0110
2000
3001
,
2000
3010
2000
3100
,
0010
0120
0032
0103
,
0010
0000
0100
0000
0010
1000
0001
0000
,
1000
0001
1000
0001
1000
0000
1000
0000
,
1000
0000
0001
0010
0100
0010
0001
1000
,
0010
0100
0100
0100
,
0100
0000
0010
1000
0100
0010
0100
1000
,
0001
0100
0100
0100
,
0100
0000
0010
0100
0001
0010
0100
0010
,
0001
0001
0001
0001
,
1000
0100
0010
0001
0010
0100
1000
0000
,
0110
0000
0000
0000
0001
1000
0000
0100
,
0000
1000
0000
0100
0010
0000
0100
0000
,
2000
0000
3000
0010
0100
0010
0000
0100
,
0000
0001
0000
0010
0200
0000
0310
0001
,
2000
0000
3000
0001
0100
0001
0000
1000
,
0000
0100
0000
0010
0100
0000
1000
0000
,
0020
0000
0030
0100
0001
0000
1000
0100
,
0000
0100
0000
0010
0200
0000
2300
0000
,
3010
0000
0100
0000
0001
0000
1000
0002
,
0000
2003
0000
3020
0000
0230
0000
0301
,
0020
0130
2000
3010
,
0200
0302
0023
0230
,
2300
0000
0000
3001
1000
0001
0000
0020
,
0000
0230
0000
2300
0000
3020
0000
0130
,
0001
0100
1000
0100
,
0020
2030
3002
0023
,
0130
0000
0000
0010
0001
0010
0000
0001
,
0100
0000
0000
0010
0100
0010
0000
0100
,
0001
0000
0000
0100
0010
0100
0000
0010
,
1000
0000
0000
0001
1000
0001
0000
1000
,
0100
0100
1000
1000
,
0001
0001
0100
0100
,
0010
0100
0001
1000
,
2002
0000
0000
3003
,
0010
0000
2001
0000
3004
0400
0000
0000
,
0000
0000
0000
0000
,
0303
0000
1001
0000
4000
0040
0000
0000
,
0000
0000
0000
0000
,
3030
0000
1001
0000
0004
0040
0000
0000
,
0000
0000
0000
0033
,
1001
0000
4000
0400
0000
0000
3300
0000
,
0011
1100
0011
1001
,
1000
0001
0100
0010
4000
0004
0000
0000
,
0000
3003
0100
0010
1000
0001
0010
0100
,
1000
0000
0004
0040
0000
0000
0000
0000
,
0033
0000
0100
1000
0010
0100
0001
1000
,
0001
0000
0200
0000
0340
4000
0000
0000
,
3030
0000
0001
0100
0001
0010
0100
1000
,
0002
0103
2000
3100
,
1000
0100
0010
0001
0010
0100
1000
0000
,
0220
0330
0000
0000
;

//---------------dance-single - PANDY OMEGA----------------
#NOTEDATA:;
#CHARTNAME:;
#STEPSTYPE:dance-single;
#DESCRIPTION:PANDY OMEGA;
#CHARTSTYLE:;
#DIFFICULTY:Medium;
#METER:14;
#RADARVALUES:0.668039,0.844067,0.527144,0.527144,0.089274,550.000000,488.000000,62.000000,62.000000,0.000000,0.000000,0.000000,0.000000,0.000000,0.668039,0.844067,0.527144,0.527144,0.089274,550.000000,488.000000,62.000000,62.000000,0.000000,0.000000,0.000000,0.000000,0.000000;
#CREDIT:PANDY OMEGA;
#NOTES:
0000
0000
0000
0000
,
0000
0000
0000
0000
,
0000
0000
0000
0000
,
0000
0000
0000
0000
,
0000
0000
0000
0000
,
0000
0000
0000
0000
,
0000
0000
0000
0000
,
0000
0000
0000
0000
,
0001
1000
0000
0010
0100
0010
0000
0100
,
0001
0100
0000
0001
0000
0001
0000
1000
,
0100
1000
0000
0100
0010
0100
0000
1000
,
0010
0200
0000
0000
0010
0000
0301
0000
,
1000
0100
0000
0010
0100
1000
0000
1000
,
0100
0010
0000
0100
0000
1000
0000
0001
,
0010
0100
0000
0100
0010
0001
0000
0001
,
0010
0100
0000
0010
0000
0100
1000
0010
,
0100
0000
0001
1000
0000
0100
0110
0000
,
0001
0000
0100
0010
0000
1000
1001
0000
,
0010
0000
0000
0010
0000
0000
0010
0000
0000
0000
0100
0000
0110
0000
0000
0000
,
0100
0000
0010
0001
0100
0010
2000
0000
,
3001
0000
0000
0001
0000
0000
0001
0000
1000
0000
0000
1000
0000
0000
1000
0000
,
0010
0000
0000
0010
0000
0000
0010
0000
0100
0000
0000
0100
0000
0000
0100
0000
,
0010
0000
0000
1000
0010
0000
0000
0100
0001
0000
0000
0001
0010
0000
0000
0100
,
2000
3200
0320
0032
,
0103
0100
0100
0100
,
0100
0000
0100
0000
0100
0010
1001
0000
,
0101
0101
1100
1100
,
0101
0101
1100
1100
,
0101
0101
1100
1100
,
0101
0000
1100
0000
0101
0000
1001
1001
,
1001
0011
1001
1010
,
1001
0011
1001
1010
,
1001
0011
1001
1010
,
0110
0000
0110
0000
0100
0010
0100
0010
,
2001
0000
3200
0000
0310
0001
0010
0100
,
0010
0001
0010
0100
0010
0001
1000
0000
,
0000
0000
1002
0000
1003
0100
0010
0100
,
1000
0100
0010
0100
1000
0001
1000
1000
,
1001
0000
0210
0000
0301
0010
0100
0010
,
0001
0010
0100
0010
0001
0010
0100
0000
,
0110
0000
2100
0000
3100
0010
0100
1000
,
0010
0000
0010
0000
0010
0100
0010
0100
,
1001
1001
1001
1000
0001
0100
0010
1000
,
0001
1000
0001
0010
1000
0010
0001
1000
,
1001
0000
0002
0000
0013
0001
0100
0010
,
1000
0001
0010
1000
0010
0001
0100
0010
,
1010
0000
2001
0000
3010
0100
0001
0010
,
0100
0010
0001
1000
0100
0001
0100
1000
,
1001
0000
1000
1000
0001
0001
0010
0010
,
0100
0001
0100
1000
0010
1000
0001
0000
,
1000
0000
0000
0001
0100
0001
0000
0100
,
0000
0010
0000
0100
0010
1000
0001
0010
,
0200
0000
0000
0310
0001
0001
1000
0001
,
0000
0100
0000
0010
2000
0000
3100
0010
,
0002
0000
0003
0010
0100
0100
0000
1000
,
0000
0100
0000
1000
0010
0100
0001
0010
,
0200
0000
0300
0010
0001
0100
0001
1000
,
0000
0001
0000
0010
0100
0000
0010
0000
,
0001
0000
0100
0000
0010
0000
1000
0002
,
0000
2003
0000
3200
0000
0320
0000
0130
,
2000
0000
3010
0000
0100
0000
0010
0100
,
0002
0023
2030
3020
,
0230
0000
0000
0310
0001
0100
0000
0020
,
0000
2030
0000
3002
0000
0023
0000
0130
,
0020
0032
0203
0320
,
2030
3100
0002
0103
,
1001
0000
0000
0001
1000
0001
0000
0010
,
0200
0000
0300
1000
0001
1000
0000
0100
,
0020
0000
0030
0001
1000
0001
0000
0010
,
0200
0000
0300
1000
0001
1000
1020
0000
,
0130
0000
0000
0001
0100
0000
0000
0100
0010
0000
0000
0010
1000
0000
0000
1000
,
0001
0000
0000
0001
0010
0000
0000
0010
0100
0000
0000
0100
1000
0000
0000
1000
,
0100
1000
0100
1000
0001
0100
0001
0100
,
0020
0230
0302
2003
,
3001
0000
0201
0000
0310
0001
0010
1000
,
0010
0001
0010
1000
0010
0001
0010
1000
,
1001
0000
1200
0000
0301
0100
1000
0100
,
0001
0100
1000
0100
0001
0100
1000
0100
,
0101
0000
2100
0000
3010
0001
0010
1000
,
0010
0001
0010
1000
0010
0001
0010
0100
,
0002
0000
1003
1000
0100
0100
0010
0010
,
0001
0010
0100
1000
1001
0010
1001
0000
,
0010
0100
0010
0100
0010
0100
0010
0100
0020
0000
1030
0000
0020
0000
0130
0000
,
0020
1030
0010
0001
0010
1000
0100
0010
,
0110
0000
1020
0000
0230
0310
0200
0301
,
0200
0310
0100
1000
0100
0001
0100
1000
,
1100
0000
0021
0000
0230
1300
0200
0310
,
0200
1300
0010
0001
0010
1000
0010
0100
,
1000
0001
0100
0100
0001
1000
0100
0100
,
0010
0100
1000
0010
0100
0001
0010
0000
,
2002
3003
0000
0000
;

//---------------dance-single - PANDY OMEGA----------------
#NOTEDATA:;
#CHARTNAME:;
#STEPSTYPE:dance-single;
#DESCRIPTION:PANDY OMEGA;
#CHARTSTYLE:;
#DIFFICULTY:Hard;
#METER:17;
#RADARVALUES:0.795574,1.112634,0.943757,0.518641,0.323088,655.000000,544.000000,111.000000,61.000000,26.000000,20.000000,19.000000,0.000000,0.000000,0.795574,1.112634,0.943757,0.518641,0.323088,655.000000,544.000000,111.000000,61.000000,26.000000,20.000000,19.000000,0.000000,0.000000;
#CREDIT:PANDY OMEGA;
#NOTES:
0000
0000
0000
0000
,
0000
0000
0000
0000
,
0000
0000
0000
0000
,
0000
0000
0000
0000
,
0000
0000
0000
0000
,
0000
0000
0000
0000
,
0000
0000
0000
0000
,
0000
0000
0000
0000
,
1000
1000
0000
0010
0010
0010
0000
0100
,
0100
0100
0000
1010
0000
0011
0000
0001
,
0100
0100
0000
0010
1000
1000
0000
0010
,
4000
0400
0000
0000
0000
0000
0000
0000
0000
0000
0000
0000
0000
0000
3300
0000
,
0010
0001
0000
1000
1000
1000
0000
0001
,
0001
0001
0000
0101
0000
1100
0000
1000
,
0010
0010
0000
0100
0001
0001
0000
1000
,
0004
0400
0000
0000
0000
0000
0000
0000
0000
0000
0000
0000
0000
0000
0303
0000
,
1000
0000
0001
0000
0110
0000
1000
0000
0000
0000
1000
0001
1000
0000
0000
0000
,
1000
0000
0001
0000
0110
0000
1000
0000
0000
0000
0001
1000
0001
0000
1000
0000
,
0001
0000
1000
0010
0000
M010
0001
0000
1000
0000
0100
0000
0010
0000
0001
0000
,
1000
0000
0001
0100
0000
010M
1000
0000
0001
0000
1000
0000
0110
0000
MMMM
0000
,
1001
0000
0001
0100
0010
0000
0100
0010
1000
0000
0001
1000
0100
0000
0010
0100
,
1000
0000
0100
0010
0001
0000
0100
0001
1000
0000
0010
1000
0100
0000
0010
0100
,
1000
0001
1000
0001
0100
0010
1000
0010
0100
0001
0100
0010
1000
0001
0010
0100
,
2000
3002
0203
0320
,
1030
0100
0001
0010
,
1001
0000
0110
0000
1001
0010
1001
0000
,
1002
1010
1010
1013
,
2001
0011
0011
3011
,
1002
1010
1010
1013
,
2001
0000
0011
0000
3011
0000
1001
0110
,
2001
0101
0101
3101
,
1002
1100
1100
1103
,
2001
0101
0101
3101
,
1001
0000
1001
0000
1001
0100
1001
0010
,
1001
MMMM
2100
0000
3004
0100
0000
0010
,
0000
1000
0000
0100
0000
1000
0000
0013
,
0100
0000
1002
0000
4003
0010
0000
0001
,
0000
0010
0000
0100
0000
3001
1001
1001
,
1001
0000
0102
0000
0403
0001
0000
0010
,
0000
0001
0000
0010
0000
1000
0000
0310
,
1000
0000
1200
0000
0340
0001
0000
0130
,
1000
0010
0100
0001
1000
0000
0001
0000
0110
0000
0110
0000
1001
0000
0000
0000
,
0101
1010
2001
0000
3400
0001
0000
1000
,
0300
0001
1000
0010
M010
0001
1000
0100
,
1001
0000
0102
0000
4003
0100
0000
0001
,
0000
3100
0010
0001
0100
010M
1000
0001
,
1001
0000
0102
0000
0043
1000
0000
0001
,
0000
1030
0001
1000
0100
M100
0001
1000
,
1001
0000
0102
0000
4003
0010
0000
3100
,
1000
0010
0100
0010
1000
0000
0001
0000
0010
0000
0100
1000
0010
0000
0100
0000
,
1001
0000
0000
0000
0000
0000
0001
0100
0010
0000
0100
0000
0000
0000
0010
0000
,
0000
1000
0000
0001
0010
1000
0010
0001
,
1002
0000
0000
0000
0003
0000
1000
0100
0010
0000
0100
0000
1000
0000
0010
0000
,
0000
0100
0000
0010
2000
0000
3001
0010
,
2200
0000
0000
0000
3300
0000
0100
1000
0010
0000
0100
0000
0000
0000
0001
0000
,
0000
1000
0000
0001
0010
1000
0010
0001
,
1002
0000
0000
0000
0003
0000
1000
0010
0100
0000
0010
0000
1000
0000
0001
0000
,
1000
0000
1000
0100
0010
0000
0100
0010
0001
0000
0001
0010
0100
0000
0010
0100
,
1000
0010
0100
0001
0010
0100
1000
0200
,
0001
1000
0000
0000
1000
0001
0000
0000
0001
1000
0000
0000
1000
0001
0300
0000
,
2002
0000
0000
0000
3003
0000
0001
0100
0010
0000
1000
0000
0001
0000
0010
0000
,
0100
0000
0000
0100
1000
0000
0000
1000
0010
0000
0000
0010
0100
0000
0001
0000
,
0001
0100
0010
1000
0100
0010
0001
0020
,
1000
0001
0000
0000
0001
1000
0000
0000
1000
0001
0000
0000
0001
1000
0030
0000
,
2001
3010
0102
1003
,
0001
0000
0000
0001
0100
0000
0000
0010
1000
0000
0000
1000
0100
0000
0000
0010
,
0001
0000
0001
0000
0001
0000
1000
0001
0100
0000
0100
0000
0010
0000
1000
0000
,
2100
0000
0100
0000
3100
0000
1000
0100
0010
0000
0010
0000
0001
0000
0100
0000
,
0210
0000
0010
0000
0310
0000
0100
0001
1000
0000
1000
0000
0001
0000
0010
0000
,
0120
0000
0100
0000
0130
0000
1000
0010
0100
0000
0001
0000
1001
0000
MMMM
0000
,
0101
0000
0001
0100
0001
0000
0001
0000
1000
0000
0100
1000
0100
0000
0100
0000
,
0010
0000
0010
0001
0010
0000
0100
0000
1000
0000
1000
0001
1000
0000
0001
0000
,
0100
0010
1000
0010
0100
0001
0100
0010
1000
0001
0010
0001
1000
0010
1000
0004
,
4000
0000
0000
0000
0000
0000
0000
3003
,
MMMM
0000
1002
0000
1003
0012
1003
0012
,
1003
0012
1003
0012
1003
0012
1003
0012
,
0003
0000
2010
0000
3001
2010
3001
2010
,
3001
2010
3001
2010
3001
2010
3001
2010
,
3000
0000
1001
0000
1000
0102
1003
0102
,
1003
0102
1003
0102
1003
0102
1003
0102
,
0003
0000
0001
2100
3001
1200
0301
2100
,
3001
0100
0010
1000
0001
0000
0100
0000
1001
0000
0010
0000
1001
0000
0000
0000
,
1000
0001
1000
0001
1000
0001
1000
0001
0040
0000
0001
0000
0000
0000
0130
0000
,
1001
0000
1000
0001
0010
001M
1000
0001
,
1001
0000
1020
0000
4030
0100
0000
0001
,
3000
0010
0100
0001
0010
001M
1000
0100
,
1001
0000
0201
0000
0340
1000
0000
0001
,
0030
1000
0001
1000
0100
M100
0001
1000
,
1001
0000
0201
0000
0301
0010
0001
1000
,
0400
0040
0000
0000
0000
0000
0000
0000
0000
0000
0000
0000
0000
0000
0330
0000
,
2MM2
3003
0000
0000
;

//---------------dance-single - PANDY OMEGA----------------
#NOTEDATA:;
#CHARTNAME:;
#STEPSTYPE:dance-single;
#DESCRIPTION:PANDY OMEGA;
#CHARTSTYLE:;
#DIFFICULTY:Beginner;
#METER:6;
#RADARVALUES:0.195553,0.382604,0.093525,0.000000,0.000000,161.000000,150.000000,11.000000,0.000000,0.000000,0.000000,0.000000,0.000000,0.000000,0.195553,0.382604,0.093525,0.000000,0.000000,161.000000,150.000000,11.000000,0.000000,0.000000,0.000000,0.000000,0.000000,0.000000;
#CREDIT:PANDY OMEGA;
#NOTES:
// measure 0
0000
0000
0000
0000
,  // measure 1
0000
0000
0000
0000
,  // measure 2
0000
0000
0000
0000
,  // measure 3
0000
0000
0000
0000
,  // measure 4
0000
0000
0000
0000
,  // measure 5
0000
0000
0000
0000
,  // measure 6
0000
0000
0000
0000
,  // measure 7
0000
0000
0000
0000
,  // measure 8
0001
0000
1000
0000
,  // measure 9
0001
0000
0000
0000
,  // measure 10
1000
0000
0001
0000
,  // measure 11
0100
0000
0000
0000
,  // measure 12
0001
0000
1000
0000
,  // measure 13
0001
0000
0000
0000
,  // measure 14
1000
0000
0001
0000
,  // measure 15
1000
0000
0000
0000
,  // measure 16
0010
0000
0000
0000
,  // measure 17
0100
0000
0000
0000
,  // measure 18
0001
0000
0000
0000
,  // measure 19
0010
0000
0000
0100
,  // measure 20
0100
0000
1000
0000
,  // measure 21
0010
0000
0100
0000
,  // measure 22
0001
0000
1000
0000
,  // measure 23
0110
0000
0000
0000
,  // measure 24
0001
0000
1000
0000
,  // measure 25
0010
0000
0100
1001
,  // measure 26
0001
0000
0001
0000
,  // measure 27
0001
0000
0001
0000
,  // measure 28
0001
0000
0001
0000
,  // measure 29
0001
0000
0001
0001
,  // measure 30
1000
0000
1000
0000
,  // measure 31
1000
0000
1000
0000
,  // measure 32
1000
0000
1000
0000
,  // measure 33
0010
0010
0010
0000
,  // measure 34
0100
1001
0001
0000
,  // measure 35
0000
0000
0000
0000
,  // measure 36
1000
0001
0100
0000
,  // measure 37
0000
0000
0000
0010
,  // measure 38
0010
0100
0001
0000
,  // measure 39
0000
0000
0000
0000
,  // measure 40
0010
0100
1000
0000
,  // measure 41
0100
0000
0000
0000
,  // measure 42
1000
1001
0000
0000
,  // measure 43
0000
0001
0100
0010
,  // measure 44
1000
0000
0000
0000
,  // measure 45
0000
0100
0010
0001
,  // measure 46
1000
0000
0000
0000
,  // measure 47
0000
1000
0100
0010
,  // measure 48
0001
0000
0000
0000
,  // measure 49
1000
0000
0001
0000
,  // measure 50
0110
0000
0000
0000
,  // measure 51
0000
0000
0000
0000
,  // measure 52
0001
0000
0000
0000
,  // measure 53
0000
0000
0000
0000
,  // measure 54
1000
0000
0000
0000
,  // measure 55
0000
0000
0000
0000
,  // measure 56
0010
0000
0000
0000
,  // measure 57
0100
0000
0100
0000
,  // measure 58
0010
0000
0000
0000
,  // measure 59
1000
0000
0000
0000
,  // measure 60
0100
0000
0000
0000
,  // measure 61
0010
0000
0001
0000
,  // measure 62
0100
0000
0000
0000
,  // measure 63
0010
0000
0000
0000
,  // measure 64
1000
0000
0000
0000
,  // measure 65
0001
0000
1000
0000
,  // measure 66
0110
0000
0000
0000
,  // measure 67
0001
0000
0000
0000
,  // measure 68
1000
0000
0000
0000
,  // measure 69
0100
0000
0000
0000
,  // measure 70
0010
0000
0010
0000
,  // measure 71
0001
0000
0001
0000
,  // measure 72
1000
0000
1000
0000
,  // measure 73
0100
0000
0000
0000
,  // measure 74
0110
1000
0001
0001
,  // measure 75
0001
0001
0001
0001
,  // measure 76
0000
0001
1000
1000
,  // measure 77
1000
1000
1000
1000
,  // measure 78
0000
0010
0100
0100
,  // measure 79
0100
0100
0100
0100
,  // measure 80
0000
0010
0010
0010
,  // measure 81
0010
0000
0000
0000
,  // measure 82
0100
0100
0100
0010
,  // measure 83
0010
1000
0001
1000
,  // measure 84
1001
0000
0000
0000
,  // measure 85
0000
0001
0100
0010
,  // measure 86
0110
0000
0000
0000
,  // measure 87
0000
0100
0010
1000
,  // measure 88
1001
0000
0000
0000
,  // measure 89
0001
0000
1000
0000
,  // measure 90
0110
0000
0000
0000
;
