#VERSION:0.83;
#TITLE:404;
#SUBTITLE:;
#ARTIST:ピノキオピー feat. 初音ミク;
#TITLETRANSLIT:;
#SUBTITLETRANSLIT:;
#ARTISTTRANSLIT:PinocchioP feat. Hatsune Miku;
#GENRE:Vocaloid Pop;
#ORIGIN:;
#CREDIT:;
#BANNER:404.png;
#BACKGROUND:404-bg.png;
#PREVIEWVID:;
#JACKET:404-jacket.png;
#CDIMAGE:;
#DISCIMAGE:;
#LYRICSPATH:;
#CDTITLE:;
#MUSIC:404.ogg;
#OFFSET:1.368270;
#SAMPLESTART:59.985111;
#SAMPLELENGTH:14.436092;
#SELECTABLE:YES;
#BPMS:0.000=133.000;
#STOPS:;
#DELAYS:;
#WARPS:;
#TIMESIGNATURES:0.000=4=4;
#TICKCOUNTS:0.000=4;
#COMBOS:0.000=1;
#SPEEDS:0.000=1.000=0.000=0;
#SCROLLS:0.000=1.000;
#FAKES:;
#LABELS:0.000=Song Start;
#BGCHANGES:3.000=404.mp4=1.000=1=0=1===CrossFade==,
99999=-nosongbg-=1.000=0=0=0 // don't automatically add -songbackground-
;
#KEYSOUNDS:;
#ATTACKS:
;

//---------------dance-single - ----------------
#NOTEDATA:;
#CHARTNAME:;
#STEPSTYPE:dance-single;
#DESCRIPTION:;
#CHARTSTYLE:;
#DIFFICULTY:Challenge;
#METER:15;
#RADARVALUES:0.765336,0.761922,0.363478,0.426692,0.841531,678.000000,632.000000,46.000000,54.000000,8.000000,0.000000,0.000000,0.000000,0.000000,0.765336,0.761922,0.363478,0.426692,0.841531,678.000000,632.000000,46.000000,54.000000,8.000000,0.000000,0.000000,0.000000,0.000000;
#CREDIT:;
#NOTES:
// measure 0
0000
0000
0000
0000
,  // measure 1
0000
0000
0000
0000
,  // measure 2
0000
0000
0000
0000
,  // measure 3
0000
0000
0000
0000
,  // measure 4
1000
0000
0001
0010
0001
0000
1000
0010
1000
0000
0001
0010
0001
0000
1000
0010
,  // measure 5
1000
0000
0100
1000
0100
0000
1000
0001
0000
1000
0010
1000
0010
0000
1020
0000
,  // measure 6
0130
0000
0001
1000
0100
0000
0010
0001
0000
0000
1002
0000
0013
0000
2001
0000
,  // measure 7
3001
0000
0100
0001
0100
0000
0001
1000
0000
0001
0010
0001
0010
0000
0021
0000
,  // measure 8
0130
0000
1000
0001
0100
0000
0010
1000
0001
0000
1000
0100
1000
0000
0001
0100
,  // measure 9
0001
0000
0010
0001
0010
0000
0001
1000
0000
0001
0100
0001
0010
0000
0021
0000
,  // measure 10
0130
0000
1000
0001
0100
0000
0010
1000
0000
0000
2001
0000
3010
0000
1002
0000
,  // measure 11
1003
0000
0010
1000
0010
0000
1000
0001
0000
1000
0100
1000
0010
0000
1020
0000
,  // measure 12
0130
0000
0001
1000
0100
0000
0100
0020
0000
0031
0100
0010
0100
0010
1000
0001
,  // measure 13
0010
0000
0010
0000
0000
0010
0001
1000
0010
0000
0010
0000
0000
0000
0010
0000
,  // measure 14
0110
0000
0010
0000
1000
0010
0100
0001
0010
0000
0100
0010
0000
0100
1000
0001
,  // measure 15
0100
0000
0100
0000
0000
0100
0001
1000
0100
0000
0100
0000
0000
0000
0100
0010
,  // measure 16
0100
0000
0000
0010
0001
0000
1000
0010
0100
0000
0010
0100
0001
0000
0020
0000
,  // measure 17
1000
0000
0130
1000
0000
1000
0020
0000
0001
0000
0130
0001
0000
0001
0010
0100
,  // measure 18
1000
0000
0001
0100
0000
0100
0000
0100
0010
1000
0001
0000
1000
0000
0200
0000
,  // measure 19
0001
0000
0310
0001
0000
0001
0200
0000
1000
0000
0310
1000
0000
1000
0100
0000
,  // measure 20
0010
0001
1000
0010
0000
0010
0000
0010
0100
0001
1000
0100
0010
0001
0100
0010
,  // measure 21
1000
0000
0100
1000
0100
0000
0010
0001
0000
1000
0001
0100
0010
0000
1020
0000
,  // measure 22
0130
0000
0001
1000
0100
0000
0010
0001
0000
0000
1002
0000
0013
0000
2001
0000
,  // measure 23
3001
0000
0100
0001
0100
0000
0010
1000
0000
0001
1000
0100
0010
0000
0010
0000
,  // measure 24
1000
0000
0010
0000
0001
0000
0100
2000
0000
3100
0010
0100
0001
1000
0100
0000
,  // measure 25
0010
0000
0001
0020
0000
0000
0031
1000
0010
0000
1000
0020
0000
0000
0130
0001
,  // measure 26
0010
0000
0001
0020
0000
0000
0130
1000
0010
0000
1000
0020
0000
0000
1030
0001
,  // measure 27
1000
0000
0100
0020
0000
0000
0130
0000
0001
0000
0100
0020
0000
0000
0031
1000
,  // measure 28
0001
0000
0100
0020
0000
0000
0130
0000
1000
0000
0100
0020
0000
0000
0130
0000
,  // measure 29
0102
0000
0000
1000
0000
0000
0013
0000
0012
0000
0000
1000
0000
0000
0103
0000
,  // measure 30
2010
0000
0000
0001
0000
0000
3100
0000
1100
0000
0000
0000
0100
0000
0010
0000
,  // measure 31
0001
0000
0001
0100
0010
1000
0100
0010
,  // measure 32
0011
0000
1001
0000
0000
0001
0100
0000
0010
1000
0010
1000
0100
0010
0001
1000
,  // measure 33
0200
0000
0000
0000
0320
0000
0130
1000
,  // measure 34
0001
0100
0000
0001
0100
0000
0100
0010
1000
0000
1010
0000
1010
0000
0100
0001
,  // measure 35
1000
0100
0000
1000
0100
0000
0100
0010
0001
0000
0011
0000
0011
0000
0100
1000
,  // measure 36
0002
0000
0000
0203
0000
0000
2300
0000
0000
0000
3001
0000
0010
0000
1000
0000
,  // measure 37
1010
0000
0000
1001
0000
0000
1100
0000
0100
0010
0001
0000
1000
0010
0100
0001
,  // measure 38
1000
0100
0000
1000
0100
0000
0100
1000
0010
0000
1001
0000
1001
0000
0001
1000
,  // measure 39
0001
0100
0000
0001
0100
0000
0100
0001
0010
0000
1001
0000
1001
0000
1000
0001
,  // measure 40
2000
0000
0000
3020
0000
0000
0032
0000
2003
0000
3200
0000
0302
0000
0000
1003
,  // measure 41
0100
0010
0100
1000
0001
0100
0010
0100
0001
1000
0100
0010
0001
0000
0001
0000
,  // measure 42
1001
0000
1000
0001
0100
00M0
0100
1000
0010
0M00
0010
0001
2000
0000
3010
0000
,  // measure 43
1000
0000
0100
1000
0001
0000
0100
0001
1000
0000
0100
1000
0002
0000
1003
0000
,  // measure 44
1001
0000
0001
1000
0100
00M0
0100
0001
0010
0M00
0010
1000
0002
0000
0013
0000
,  // measure 45
1000
0000
0000
1000
0010
0000
0000
0010
0001
1000
0010
1000
0001
0000
1000
0000
,  // measure 46
1001
0000
0001
0100
0010
M000
0010
0001
0100
M000
0100
0010
0002
0000
1003
0000
,  // measure 47
0001
0000
0100
0001
1000
0000
0100
1000
0001
0000
0100
0001
2000
0000
3001
0000
,  // measure 48
1001
0000
1000
0100
0010
000M
0010
1000
0100
000M
0100
0010
2000
0000
3001
0000
,  // measure 49
1000
0000
0010
0000
0001
0000
0010
0000
1000
0010
0100
0001
1000
0000
0100
0000
,  // measure 50
0010
0000
0001
1000
0001
0000
0100
0000
0001
0000
0010
0000
1000
0000
0010
0000
,  // measure 51
0001
0000
0000
0001
0100
0000
0000
0100
0010
0000
0000
0010
1000
0000
0001
0000
,  // measure 52
0010
0000
0100
0010
0100
0000
1000
0000
0001
0000
0100
0000
1000
0000
0100
0000
,  // measure 53
0001
0000
0000
0001
0010
0000
0000
0010
0100
1000
0100
1000
0001
0000
1000
0000
,  // measure 54
0010
0000
1000
0001
1000
0000
0100
0000
1000
0000
0010
0000
0001
0000
0010
0000
,  // measure 55
1000
0000
0000
1000
0100
0000
0000
0100
0010
0000
0000
0010
0001
0000
1000
0000
,  // measure 56
0010
0000
0100
0010
0100
0000
0001
0000
1000
0000
0100
0000
0010
0000
0100
0000
,  // measure 57
1001
0000
1001
0000
0001
1000
0000
0000
0001
0100
0010
1000
0001
1000
0100
0010
,  // measure 58
0200
0000
0000
0310
,  // measure 59
0001
0000
0100
0001
1000
0000
0001
0010
0000
0001
1000
0001
0100
0000
0201
0000
,  // measure 60
0310
0000
1000
0001
0010
0000
0100
1000
0000
0000
2001
0000
3010
0000
1002
0000
,  // measure 61
1003
0000
0100
1000
0001
0000
1000
0010
0000
1000
0001
1000
0100
0000
1200
0000
,  // measure 62
0310
0000
0001
1000
0010
0000
0100
0001
1000
0000
0001
0010
0001
0000
1000
0010
,  // measure 63
1000
0000
0010
1000
0100
0000
1000
0001
0000
1000
0100
1000
0010
0000
1020
0000
,  // measure 64
0130
0000
0001
1000
0100
0000
0010
0001
0000
0000
1002
0000
0013
0000
2001
0000
,  // measure 65
3001
0000
0010
0001
0100
0000
0001
1000
0000
0001
0100
0001
0010
0000
0021
0000
,  // measure 66
0130
0000
1000
0001
0100
0000
0010
1000
0001
0000
0010
0100
0010
0000
0100
0010
,  // measure 67
0100
0000
0000
0000
,  // measure 68
0000
0000
0000
0000
0000
0000
0000
0110
0000
0010
0001
0000
1001
0000
1010
0000
;

//---------------dance-single - ----------------
#NOTEDATA:;
#CHARTNAME:;
#STEPSTYPE:dance-single;
#DESCRIPTION:;
#CHARTSTYLE:;
#DIFFICULTY:Beginner;
#METER:2;
#RADARVALUES:0.153519,0.190135,0.007902,0.039509,0.000000,136.000000,135.000000,1.000000,5.000000,0.000000,0.000000,0.000000,0.000000,0.000000,0.153519,0.190135,0.007902,0.039509,0.000000,136.000000,135.000000,1.000000,5.000000,0.000000,0.000000,0.000000,0.000000,0.000000;
#CREDIT:;
#NOTES:
0000
0000
0000
0000
,
0000
0000
0000
0000
,
0000
0000
0000
0000
,
0000
0000
0000
0000
,
0000
0000
0000
0000
,
1000
0000
1000
0000
,
0001
0000
0001
0000
,
1000
0000
1000
0000
,
0001
0000
1000
0000
,
0100
0000
0100
0000
,
0010
0000
0010
0000
,
0100
0000
0100
0000
,
0010
0000
0001
0000
,
1000
0000
1000
0000
,
1000
1000
1000
0000
,
0001
0000
0001
0000
,
0001
0001
0001
0000
,
0100
0000
0010
0000
,
0100
0100
0100
0000
,
0010
0000
0100
0000
,
0010
0010
0010
0000
,
1000
0000
1000
0000
,
0001
0000
0001
0000
,
1000
0000
1000
0000
,
0001
0001
0001
0000
,
0010
0000
0000
0000
,
0100
0000
0000
0000
,
1000
0000
0000
0000
,
0001
0000
0000
0000
,
0100
0000
0100
0000
,
0010
0000
0010
0000
,
1000
0000
1000
0000
,
0001
0000
0002
0000
,
0003
0000
0000
0000
,
0001
0001
0001
0000
,
0001
0001
0001
0000
,
0010
0000
0100
0000
,
0010
0000
0100
0000
,
1000
1000
1000
0000
,
1000
1000
1000
0000
,
0010
0000
0100
0000
,
0010
0000
0100
0000
,
0001
0001
0001
0000
,
1000
1000
1000
0000
,
0001
0001
0001
0000
,
0010
0000
0100
0000
,
1000
1000
1000
0000
,
0001
0001
0001
0000
,
1000
1000
1000
0000
,
0010
0000
0100
0000
,
0001
0001
0001
0000
,
0020
0000
0030
0000
,
0100
0100
0100
0000
,
2000
0000
3000
0000
,
0010
0010
0010
0000
,
0200
0000
0300
0000
,
0001
0000
1000
0000
,
0100
0000
0100
0100
,
0200
0000
0300
0000
,
1000
0000
1000
0000
,
0001
0000
0001
0000
,
1000
0000
1000
0000
,
0001
0000
1000
0000
,
0010
0000
0010
0000
,
0100
0000
0100
0000
,
0010
0000
0010
0000
,
0100
0000
0001
0000
,
1000
0000
0000
0000
,
0000
0000
0000
1001
;

//---------------dance-single - ----------------
#NOTEDATA:;
#CHARTNAME:;
#STEPSTYPE:dance-single;
#DESCRIPTION:;
#CHARTSTYLE:;
#DIFFICULTY:Easy;
#METER:4;
#RADARVALUES:0.223505,0.271621,0.102722,0.110624,0.000000,198.000000,185.000000,13.000000,14.000000,0.000000,0.000000,0.000000,0.000000,0.000000,0.223505,0.271621,0.102722,0.110624,0.000000,198.000000,185.000000,13.000000,14.000000,0.000000,0.000000,0.000000,0.000000,0.000000;
#CREDIT:;
#NOTES:
0000
0000
0000
0000
,
0000
0000
0000
0000
,
0000
0000
0000
0000
,
0000
0000
0000
0000
,
0000
0000
0000
0000
,
1000
0010
1000
0000
,
0001
0010
0001
0000
,
1000
0100
1000
0000
,
0001
0100
0001
0000
,
1000
0100
0010
0000
,
0001
0100
0010
0000
,
1000
0100
0010
0000
,
0001
0100
0010
0000
,
1000
0000
1000
0000
,
1000
0010
1000
1000
,
0001
0000
0001
0000
,
0001
0010
0001
1000
,
1001
0000
1001
0000
,
0001
0100
0010
0000
,
1001
0000
1001
0000
,
0001
0001
1000
1000
,
0001
0100
0010
0000
,
0100
0010
1000
0000
,
1000
0100
0010
0000
,
0001
1000
1001
0000
,
2000
0000
3010
0000
,
0200
0000
0301
0000
,
2000
0000
3100
0000
,
0020
0000
0031
0000
,
2000
0000
3020
0000
,
0230
0000
0302
0000
,
0013
0000
0010
0100
,
0010
0000
2002
0000
,
3003
0000
1000
0001
,
1000
0010
1010
0000
,
1000
0010
1010
0000
,
0001
0100
0010
0000
,
1000
0100
0010
0000
,
0001
0010
0011
0000
,
0001
0010
0011
0000
,
1000
0001
0100
0000
,
0001
1000
0100
0000
,
0010
0010
0010
0010
,
0001
1000
0001
1000
,
0010
0010
0010
0010
,
1000
0001
1001
0000
,
1000
1000
1000
1000
,
0100
0010
0100
0010
,
0001
0001
0001
0001
,
0100
0010
1000
0000
,
0001
0010
0100
0010
,
0002
0000
1003
0000
,
1000
0010
0100
0010
,
2000
0000
3001
0000
,
1000
0100
0010
0001
,
0200
0000
0310
0000
,
1000
0010
0100
0001
,
1000
0000
0100
0010
,
0200
0000
0300
1001
,
1000
0010
0100
0000
,
0001
0010
0100
0000
,
0010
0001
0100
0000
,
0010
1000
0100
0000
,
1000
0010
0001
0000
,
0001
0010
1000
0000
,
1000
0100
0001
0000
,
0001
0100
1000
0000
,
0001
0000
0000
0000
,
0000
0000
0000
1001
;

//---------------dance-single - ----------------
#NOTEDATA:;
#CHARTNAME:;
#STEPSTYPE:dance-single;
#DESCRIPTION:;
#CHARTSTYLE:;
#DIFFICULTY:Medium;
#METER:8;
#RADARVALUES:0.358963,0.408172,0.292363,0.300265,0.003951,318.000000,281.000000,37.000000,38.000000,0.000000,0.000000,0.000000,0.000000,0.000000,0.358963,0.408172,0.292363,0.300265,0.003951,318.000000,281.000000,37.000000,38.000000,0.000000,0.000000,0.000000,0.000000,0.000000;
#CREDIT:;
#NOTES:
0000
0000
0000
0000
,
0000
0000
0000
0000
,
0000
0000
0000
0000
,
0000
0000
0000
0000
,
1000
0001
1000
0001
,
0010
0000
0010
0000
0010
0000
0001
1000
,
0010
0000
0010
0000
0010
1000
0001
1000
,
0100
0000
0100
0000
0100
0000
1000
0001
,
0100
0100
1001
1001
,
0001
0000
0001
0000
0001
0000
0010
0100
,
1000
0000
1000
0000
1000
0010
0100
0001
,
1000
0000
1000
0000
1000
0000
0100
0010
,
0001
1000
2002
3003
,
0001
0001
0000
0000
0001
0001
0000
0000
,
0001
0100
0001
0000
0010
0000
0001
0000
,
1000
1000
0000
0000
1000
1000
0000
0000
,
1000
0000
0010
0000
1000
0100
1000
0000
,
0001
0011
1000
1010
,
0001
0000
0010
0000
0100
0010
0100
0000
,
1000
1100
0001
0101
,
1000
0000
1000
0000
0001
0010
0100
1000
,
0001
0000
0001
0000
0001
0000
0100
0010
,
1000
0000
1000
0000
1000
0100
0010
0001
,
0100
0100
0100
0010
,
1000
0001
1000
0000
2002
0000
3003
0000
,
2000
0000
0100
0000
,
3002
0000
0100
0000
,
2003
0000
0010
0000
,
3002
0000
0010
0000
,
1003
0010
0100
0001
,
0010
0100
1000
0001
,
0100
0000
0010
1000
0001
0000
0010
0001
,
2000
0000
0000
0001
0002
0000
0000
0000
,
3003
0000
2000
3001
,
1000
0000
0010
0000
1000
0010
1010
0000
,
0001
0000
0010
0000
0001
0010
0011
0000
,
2000
0000
3200
0000
0320
0000
0130
1000
,
0020
0000
0230
0000
0310
0100
0001
0000
,
1000
0000
0100
0000
1000
0100
0110
0000
,
0001
0000
0100
0000
0001
0100
0110
0000
,
2000
3020
0230
0302
,
1003
0000
0001
1000
0001
0000
0010
0000
,
0011
1100
0011
1100
,
0001
1000
0001
1000
,
1010
0101
1010
0101
,
2000
0000
3200
0000
0310
0001
0100
0000
,
1010
0101
0011
1100
,
0001
1000
0001
1000
,
0101
1010
1100
0011
,
1000
0010
0100
0001
1000
0000
0001
0000
,
2000
3200
0302
0103
,
0220
0000
0030
0000
1300
0000
0001
1000
,
0002
0203
2300
3100
,
0220
0030
0301
1000
,
0002
0023
2030
3010
,
0220
0000
0300
0000
0031
0000
1000
0001
,
1000
0000
0010
0000
0100
0000
0001
1000
,
0100
0000
0010
0100
1000
0001
0100
0000
,
0200
0000
0300
1001
,
1000
0000
1000
0000
1000
0000
0100
1000
,
0010
0000
0010
0000
0010
0100
0001
1000
,
0100
0000
0100
0000
0100
0000
0010
0001
,
0100
0100
1001
1001
,
0001
0000
0001
0000
0001
0000
0100
0001
,
0010
0000
0010
0000
0010
0100
1000
0001
,
0100
0000
0100
0000
0100
0000
0010
1000
,
0100
0100
1001
0110
,
1001
0000
0000
0000
,
0000
0000
0000
0000
0000
0000
0000
0001
0000
0000
0001
0000
1000
0000
0001
0000
;

//---------------dance-single - ----------------
#NOTEDATA:;
#CHARTNAME:;
#STEPSTYPE:dance-single;
#DESCRIPTION:;
#CHARTSTYLE:;
#DIFFICULTY:Hard;
#METER:11;
#RADARVALUES:0.502323,0.544230,0.323970,0.687448,0.205444,445.000000,404.000000,41.000000,87.000000,0.000000,0.000000,0.000000,0.000000,0.000000,0.502323,0.544230,0.323970,0.687448,0.205444,445.000000,404.000000,41.000000,87.000000,0.000000,0.000000,0.000000,0.000000,0.000000;
#CREDIT:;
#NOTES:
0000
0000
0000
0000
,
0000
0000
0000
0000
,
0000
0000
0000
0000
,
0000
0000
0000
0000
,
1000
0100
0001
0100
1000
0100
0001
0100
,
1000
0000
0010
0000
1000
0000
0000
0010
0000
0000
0100
0000
0010
0000
2010
0000
,
3001
0000
1000
0000
0001
0000
0000
0010
0000
0000
2001
0000
3000
0000
2001
0000
,
3001
0000
0010
0000
0001
0000
0000
0010
0000
0000
0100
0000
0010
0000
0012
0000
,
1003
0001
1000
0000
0001
0100
1000
0100
,
0001
0000
1000
0000
0100
0000
0000
0010
0000
0000
0100
0000
0010
0000
0012
0000
,
1003
0000
0001
0000
1000
0000
0000
0010
0000
0000
1002
0000
0003
0000
1002
0000
,
1003
0000
0001
0000
0100
0000
0000
0010
0000
0000
0100
0000
0010
0000
2010
0000
,
3001
0000
1000
0000
0001
0000
0000
2002
0000
0000
0000
0000
3003
0000
0001
0000
,
0010
0011
0000
0001
0010
0011
0000
1000
,
0100
0000
0100
0000
0010
0000
0001
0000
0200
0000
0000
0320
0000
0000
1030
0000
,
0010
1010
0000
1000
0010
1010
0000
0001
,
0200
0000
0000
0000
0310
0000
1000
0000
0100
0000
0000
0010
0000
0000
0001
0000
,
0011
0000
0000
1100
0000
0000
1000
0000
1010
0000
0000
0101
0000
0000
0001
0000
,
0020
0000
0000
0230
0000
0000
1300
0000
0001
0000
0001
0000
0100
0000
0010
0000
,
1010
0000
0000
1100
0000
0000
0001
0000
0011
0000
0000
0101
0000
0000
1000
0000
,
0001
0000
1000
0000
1001
0000
0000
1000
0010
0000
0100
0000
0001
0000
1000
0000
,
0100
0000
0010
0000
0001
0000
0000
0100
0000
0000
0010
0000
1000
0000
2010
0000
,
3001
0000
1000
0000
0100
0000
0000
0010
0000
0000
1002
0000
0003
0000
1002
0000
,
0103
0000
0010
0000
1000
0000
0000
0100
0000
0000
0010
0000
0001
0000
1000
0000
,
0001
0000
0100
0000
1000
0000
0100
0002
0000
0000
0000
0000
1003
0000
0100
0000
,
0020
0000
0000
0001
0000
0000
0031
0000
0002
0000
0000
2003
0000
0000
3010
0000
,
0020
0000
0000
1000
0000
0000
1030
0000
2000
0000
0000
3002
0000
0000
1003
0000
,
0200
0000
0000
1000
0000
0000
0310
0000
0002
0000
0000
1000
0000
0000
0103
0000
,
0200
0000
0000
0001
0000
0000
0310
0000
2000
0000
0000
3001
0000
0000
1000
0000
,
0002
0000
0000
0023
0000
0000
0032
0000
2003
0000
0000
3020
0000
0000
2030
0000
,
3200
0000
0000
0320
0000
0000
0032
0000
0203
0000
0000
0000
0310
0000
1000
0000
,
0001
0000
0001
0010
0100
1000
0010
0100
,
0002
0000
0000
1000
2000
0000
0000
0000
,
3003
0000
0000
0000
2000
0000
3100
0010
,
0001
0000
0100
0010
0000
0000
0100
0000
0010
0000
1000
0000
1010
0000
0000
0000
,
1000
0000
0100
0010
0000
0000
0100
0000
0010
0000
0001
0000
0011
0000
0000
0000
,
0002
0000
0000
0203
0000
0000
2300
0000
0000
0000
3100
0000
0001
0000
0010
0000
,
2000
0000
0000
3020
0000
0000
0031
0000
0100
0000
0010
0000
1000
0000
0001
0000
,
0010
0000
0100
0010
0000
0000
0100
0000
1000
0000
0010
0000
1010
0000
0000
0000
,
0010
0000
0100
0010
0000
0000
0100
0000
0001
0000
0010
0000
0011
0000
0000
0000
,
2000
0000
0000
3020
0000
0000
0130
0000
0001
0000
1000
0000
0200
0000
0000
0000
,
0310
0000
0000
0001
1000
0000
0001
0000
0100
0000
0010
0000
1001
0000
0000
0000
,
1000
0100
0001
0100
1000
0100
0002
0000
,
0103
1000
0001
1000
0010
1000
0002
0000
,
1003
0010
0001
0010
1000
0010
0002
0000
,
0013
0000
0000
0010
1000
0000
0000
1000
0100
0000
0010
0000
0001
0000
1000
0000
,
0001
0100
1000
0100
0001
0100
2000
0000
,
3100
0001
1000
0001
0010
0001
2000
0000
,
3001
0010
1000
0010
0001
0010
2000
0000
,
3010
0001
1000
0010
0100
0001
0100
0010
,
2000
0000
0000
3200
0000
0000
0320
0000
0000
0000
2030
0000
0000
0000
3020
0000
,
0032
0000
0010
0000
1000
0000
0103
0010
,
2000
0000
0000
3002
0000
0000
0203
0000
0000
0000
2300
0000
3200
0000
0000
0000
,
0302
0000
0013
0100
0010
0100
1000
0000
,
0002
0000
0000
0203
0000
0000
0320
0000
0000
0000
0032
0000
0000
0000
0023
0000
,
2030
0000
0010
0000
0001
0000
3100
0010
,
0002
0000
0000
2003
0000
0000
3200
0000
0000
0000
0301
0000
0100
0000
1000
0000
,
0001
0000
0000
0000
1000
0000
0010
0000
0100
0000
0001
2000
0000
0000
0002
0000
,
0000
0000
3003
1001
,
0001
0000
0010
0000
0100
0000
0000
0010
0000
0000
0001
0000
0100
0000
0102
0000
,
1003
0000
0100
0000
1000
0000
0000
0010
0000
0000
1002
0000
0003
0000
1002
0000
,
1003
0000
0010
0000
0100
0000
0000
0010
0000
0000
1000
0000
0100
0000
2100
0000
,
3001
0100
0001
0000
1000
0010
0001
0010
,
1000
0000
0100
0000
0010
0000
0000
0001
0000
0000
0100
0000
0010
0000
2010
0000
,
3100
0000
0010
0000
0001
0000
0000
0100
0000
0000
2001
0000
3000
0000
2001
0000
,
3001
0000
0100
0000
0010
0000
0000
1000
0000
0000
0100
0000
0010
0000
0012
0000
,
0103
0010
1000
0000
0001
0010
1000
0010
,
0001
0000
0000
0000
,
0000
0000
0000
0000
0000
0000
0000
1001
0000
0000
0100
0000
0010
0000
0110
0000
;
