#TITLE:00 HEAVEN;
#SUBTITLE:;
#ARTIST:SOUND HOLIC Vs. Eurobeat Union feat. Nana Takahashi & 709sec.;
#TITLETRANSLIT:;
#SUBTITLETRANSLIT:;
#ARTISTTRANSLIT:;
#GENRE:;
#CREDIT:;
#MUSIC:00 HEAVEN.ogg;
#BANNER:00 HEAVEN.png;
#BACKGROUND:00 HEAVEN-bg.png;
#CDTITLE:;
#SAMPLESTART:75.979;
#SAMPLELENGTH:15.000;
#SELECTABLE:YES;
#OFFSET:1.388;
#BPMS:0.000=160.000;
#STOPS:;
#BGCHANGES:;
#FGCHANGES:;

//--------------- dance-single - forcednature ----------------
#NOTES:
     dance-single:
     forcednature:
     Beginner:
     3:
     0,0,0,0,0:
0000
0000
0000
0000
,
0000
0000
0000
0000
,
0000
0000
0000
0000
,
0000
0000
0000
0000
,
0000
0000
0000
0000
,
0000
0000
0000
0000
,
0000
0000
0000
0000
,
0100
0000
0000
0000
,
0100
0000
0000
0000
,
0100
0000
0000
0000
,
1001
0000
0000
0000
,
0110
0000
0000
0000
,
0001
0000
0000
0000
,
1000
0000
0000
0000
,
0100
0000
0000
0000
,
0110
0000
0000
0000
,
0001
0000
0000
0000
,
1000
0000
0000
0000
,
0000
0000
0000
0000
,
0110
0000
0001
0000
,
1000
0000
0000
0000
,
0100
0000
0010
0000
,
0001
0000
0000
0000
,
1000
0000
0010
0000
,
0100
0000
0000
0000
,
0001
0000
1000
0000
,
0100
0000
0000
0000
,
0110
0000
0000
0000
,
0001
0000
0000
0000
,
1000
0000
0000
0000
,
0010
0000
0010
0000
,
1001
0000
0000
0000
,
0001
0000
0000
0000
,
0100
0000
0000
0000
,
0010
0000
0010
0000
,
1001
0000
0000
0000
,
1000
0000
0000
0000
,
0100
0000
0000
0000
,
0010
0000
0010
0000
,
1001
0000
0000
0000
,
0001
0000
0000
0000
,
0100
0000
0000
0000
,
0010
0000
0010
0000
,
1001
0000
0000
0000
,
0110
0000
0000
0000
,
1000
0000
1000
0000
,
1000
0000
0000
0000
,
1001
0000
0000
0000
,
0110
0000
0000
0000
,
0001
0000
0001
0000
,
1000
0000
1000
0000
,
0010
0000
0000
0000
,
1001
0000
0000
0000
,
1000
0000
0000
0000
,
0010
0000
0010
0000
,
0100
0000
0000
0000
,
0001
0000
0000
0000
,
0010
0000
0000
0000
,
0100
0000
0100
0000
,
1000
0000
0000
0000
,
0110
0000
0000
0000
,
0001
0000
0000
0000
,
1000
0000
1000
0000
,
0010
0000
0000
0000
,
1001
0000
0000
0000
,
0001
0000
0000
0000
,
0010
0000
0010
0000
,
0100
0000
0100
0000
,
1001
0000
0000
0000
,
1000
0000
0000
0000
,
0010
0000
0000
0000
,
0100
0000
0100
0000
,
0001
0000
0000
0000
,
0010
0000
0000
0000
,
0100
0000
0000
0000
,
1000
0000
1000
0000
,
1001
0000
0000
0000
,
0001
0000
0000
0000
,
0100
0000
0000
0000
,
0010
0000
0010
0000
,
1000
0000
0000
0000
,
0001
0000
0000
0000
,
0010
0000
0000
0000
,
0100
0000
0010
0000
,
2002
0000
0000
0000
,
0000
0000
0000
0000
,
0000
0000
0000
0000
,
0000
0000
0000
0000
,
3003
0000
0000
0000
;

//--------------- dance-single - forcednature ----------------
#NOTES:
     dance-single:
     forcednature:
     Easy:
     6:
     0,0,0,0,0:
0000
0000
0000
0000
,
0000
0000
0000
0000
,
0000
0000
0000
0000
,
0000
0000
0000
0000
,
0000
0000
0000
0000
,
0000
0000
0000
0000
,
0000
0000
0000
0000
,
2000
0000
3000
0000
,
0002
0000
0003
0000
,
0020
0000
0030
0000
,
2002
0000
0000
3003
,
1000
0100
1000
0100
,
0010
0001
0010
0001
,
0100
0001
0100
0001
,
1000
0010
1000
0010
,
1001
0001
0010
0100
,
1000
0010
0100
0001
,
1000
0000
1000
0000
0001
0000
0000
0100
,
0000
0100
0000
0100
0000
0010
0000
0000
,
1001
0001
0010
0000
,
0001
1000
0010
0000
,
0100
0001
0010
0000
,
0100
1000
0010
1000
,
0100
0010
0001
0000
,
0100
0010
1000
0000
,
0001
0010
0100
0000
,
1000
0000
0000
0001
0000
0000
1000
0000
,
0001
0000
0100
0000
,
0010
0010
0010
0000
,
1000
0000
0100
0000
,
0010
0000
0000
0100
0000
0010
0000
0000
,
1001
0000
1000
0000
,
0010
0100
0010
1000
,
0001
0000
0010
0000
,
0100
0000
0000
0110
0000
0000
0000
0000
,
1001
0000
0001
0000
,
0100
0000
0001
0000
,
1000
0000
0100
0000
,
0010
0010
0100
0100
,
1001
0000
1000
0000
,
0010
0000
0100
0000
,
0001
0000
1000
0000
,
0010
0000
0000
0110
0000
0000
0000
0000
,
2020
0000
3030
0000
,
0202
0000
0303
0000
,
0001
0010
0100
2000
,
0000
0000
3000
0000
,
0022
0000
0033
0000
,
2200
0000
3300
0000
,
1000
0001
0100
0010
,
1000
1000
0001
0001
,
0010
0000
0000
0010
0000
0000
0000
0000
,
1001
0000
0001
0100
,
0001
0000
1000
0100
,
1000
0010
1000
0001
,
0010
0010
0010
0000
,
1001
0000
0001
0100
,
0001
0000
1000
0100
,
1000
0010
1000
0001
,
0100
0001
0010
0000
,
0110
0100
1000
0001
,
0100
0010
1000
0001
,
0010
0100
1000
0001
,
0100
0100
0100
0000
,
0110
0001
1000
0010
,
1000
0000
0100
0000
0010
0000
0000
0100
,
0000
0100
0000
0010
0000
0010
0000
0001
,
0000
1000
0000
0001
0000
1000
0000
0000
,
0110
0000
0001
1000
,
0010
0000
0100
0001
,
1000
0000
0100
0010
,
0001
0000
0010
0000
0100
0000
0000
1000
,
0000
0110
0001
1000
,
0010
0100
0001
1000
,
0100
0100
0010
0010
,
0001
0000
0000
1000
0000
0000
0001
0000
,
1000
0010
0100
0001
,
1000
0100
0010
0001
,
0100
0010
1000
0001
,
0010
0000
0100
0000
0010
0000
0000
0001
,
0000
0110
1000
0001
,
0100
0010
1000
0100
,
0010
0001
0100
0010
,
1000
0000
0000
0001
0000
0000
1000
0000
,
0020
0000
0000
0000
,
0000
0000
0000
0000
,
0000
0000
0000
0000
,
0000
0000
0000
0000
,
0030
0000
0000
0000
;

//--------------- dance-single - forcednature ----------------
#NOTES:
     dance-single:
     forcednature:
     Medium:
     10:
     0,0,0,0,0:
0000
0000
0000
0000
,
0000
0000
0000
0000
,
0000
0000
0000
0000
,
0000
0000
0000
0000
,
0000
0000
0000
0000
,
0000
0000
0000
0000
,
0000
0000
0000
0000
,
0002
0000
0003
0000
,
2000
0000
3000
0000
,
0200
0000
0300
0000
,
2002
0000
0000
3003
,
0001
0001
0100
0100
,
0010
0000
0010
0000
1000
0000
1000
0100
,
0010
0010
0001
0001
,
1000
0000
1000
0000
0010
0000
0010
0010
,
0100
0000
0001
0000
1000
0010
1000
0000
,
0100
0000
1000
0000
0001
0010
0001
0000
,
0100
0000
0010
0000
1000
0001
1000
0100
,
0000
0010
0000
0110
0000
2002
0000
3003
,
1000
0000
0001
0000
0100
0010
1000
0000
,
0001
0000
0010
0000
0100
1000
0001
0000
,
0100
0000
0010
0000
1000
0100
0010
0000
,
0001
0000
0000
0100
0000
0000
0010
0000
1000
0000
0000
0000
0001
0000
0010
0000
,
0000
0100
1000
0000
0001
0100
0001
0000
,
1000
0000
0010
0000
1000
0100
0010
0000
,
0100
0000
1000
0000
0001
0100
0010
0000
,
1000
0000
0000
0001
0000
0000
0100
0000
0000
0010
0000
0000
1000
0000
0001
0000
,
0010
0000
0100
1000
0000
0100
1000
0000
,
0020
0230
0302
2003
,
3000
0000
0100
0000
0010
0000
0001
2000
,
0000
0000
3100
0100
0000
0011
0000
0000
,
1001
0000
0001
0000
0100
0010
0100
0000
,
0001
1000
0002
0000
0023
0000
0230
0000
,
0300
0000
1000
0000
0001
0100
0001
0000
,
0010
0000
0100
2000
0000
3010
0010
0000
,
0101
0000
1000
0000
0010
0100
0010
0000
,
1000
0000
0001
0000
0010
0100
0010
0000
,
0001
0000
0100
0000
0010
1000
0010
0000
,
1100
1100
1001
0011
,
0110
0000
0001
0000
1000
0100
1000
0000
,
0010
0000
1000
0000
0001
0100
0001
0000
,
0010
0000
0100
0000
1000
0001
1000
0000
,
0002
0000
0010
0013
0000
0001
1000
0000
,
0001
0010
0100
2000
0000
3001
1000
0000
,
0001
0100
0010
2000
0000
3001
1000
0000
,
0100
0000
0100
0000
1000
0000
0010
0020
,
0000
0100
0000
0230
0000
0000
0301
0000
,
1000
0100
0010
0002
0000
1003
0001
0000
,
1000
0010
0100
0002
0000
1003
0001
0000
,
1000
0000
0100
0000
1000
0001
1000
0000
,
0020
1000
1000
0130
,
0010
0000
0000
0010
0000
0000
2002
0000
0000
0000
0000
0000
3003
0000
0000
0000
,
1000
0000
0100
0010
0001
0100
0010
0000
,
1000
0000
0001
0100
0010
1000
0001
0000
,
0010
0000
0100
0000
1000
0000
0000
0000
0010
0000
0000
0010
0000
0000
0200
0000
,
0000
0001
0000
0301
0000
1000
0001
0000
,
1000
0000
0100
0010
0001
0100
0010
0000
,
1000
0000
0001
0010
0001
0100
0000
0101
,
0000
0001
0000
1100
0000
1000
0000
1001
,
0000
0010
0200
0000
0310
0000
0010
0000
,
1001
0000
1000
0100
0010
0001
0100
0000
,
0010
0000
1000
0001
0010
0001
0100
0000
,
0010
0000
1000
0000
0001
0000
0000
0000
0010
0000
0000
0010
0000
0000
0200
0000
,
0000
1000
0000
1300
0000
0001
1000
0000
,
0110
0000
0001
0010
0100
1000
0010
0000
,
0100
0000
0001
1000
0100
1000
0000
1010
,
0000
1000
0000
0011
0000
0001
0000
0110
,
0000
1001
0000
0110
0000
1001
0000
1000
,
0001
0000
0100
0000
0010
1000
0010
0000
,
0100
0000
0001
0000
0010
0100
0010
0000
,
0001
0000
1000
0000
0001
0100
0001
0000
,
0010
0000
0000
0100
0000
0000
1000
0000
0000
0000
0001
0000
0100
0000
0001
0000
,
0000
0000
0110
0000
1000
0001
1000
0000
,
0100
0000
0010
0000
0001
1000
0010
0000
,
0100
0000
0001
0000
0010
0100
1000
0000
,
0010
0000
0000
0010
0000
0000
0100
0000
0000
0100
0000
0000
0001
0000
1000
0000
,
0001
0000
0010
0100
1000
0001
0100
0000
,
0010
0000
1000
0100
0010
0001
0100
0000
,
0010
0000
1000
0001
0010
0100
1000
0000
,
0001
0000
0000
0100
0000
0000
0010
0000
0000
0000
1000
0000
0001
0000
1000
0000
,
0000
0000
0110
0000
0001
0100
0001
0000
,
1000
0000
0100
0010
0001
0100
0010
0000
,
1000
0000
0001
0010
0100
1000
0010
0000
,
0100
0000
0000
0001
0000
0000
1000
0000
0000
0100
0000
0000
0010
0000
0010
0000
,
2002
0000
0000
0000
,
0000
0000
0000
0000
,
0000
0000
0000
0000
,
0000
0000
0000
0000
,
3003
0000
0000
0000
;

//--------------- dance-single - forcednature ----------------
#NOTES:
     dance-single:
     forcednature:
     Hard:
     14:
     0,0,0,0,0:
0000
0000
0000
0000
,
0000
0000
0000
0000
,
0000
0000
0000
0000
,
0000
0000
0000
0000
,
0000
0000
0000
0000
,
0000
0000
0000
0000
,
0000
0000
0000
0000
,
2000
0000
3010
0000
,
0002
0000
0013
0000
,
0200
0000
0310
0000
,
2002
0000
0000
3003
,
1000
0100
1000
0010
,
0100
0000
0001
0000
0010
0000
0001
1000
,
0001
0010
0100
2000
,
0001
0000
0100
0000
0001
0000
3010
1000
,
1001
0000
1000
0100
0010
0000
0001
0100
,
0010
0000
1000
0001
0010
0100
1000
0001
,
0100
0000
0010
0000
1000
0000
0001
0000
1000
0100
1000
0100
0010
0001
0010
0000
,
0000
0101
0000
1100
0000
2002
0000
3003
,
1000
0000
0000
0010
0000
0000
0100
0000
0001
0000
0010
0001
0000
0001
0100
0000
,
0010
0000
0000
1000
0000
0000
0001
0000
1000
0000
0100
0010
0000
0010
0001
0000
,
0100
0000
0000
0010
0000
0000
1000
0000
0001
0000
0010
0100
0000
0100
1000
0000
,
0001
0000
0000
0100
0000
0000
0010
0000
1000
0000
1000
0000
0100
0000
0110
0000
,
0000
0000
0001
0000
0101
0000
0000
0000
1000
0000
0010
0100
0000
0100
0001
0000
,
0010
0000
0000
0100
0000
0000
1000
0000
0001
0000
0100
0010
0000
0010
1000
0000
,
0001
0000
0000
1000
0000
0000
0100
0000
1000
0010
1000
0010
0100
0001
0100
0001
,
1000
0000
0000
1100
0000
0000
0001
0000
0000
0101
0000
0000
0010
0000
0100
0000
,
1001
0000
1000
0100
0000
0001
0100
0010
,
0001
0000
0101
0000
0010
1000
0001
0100
,
0010
0000
1000
0100
0010
0100
1000
0001
,
0100
0000
1000
0000
0100
0000
0110
0000
0000
0000
1000
0000
0001
0100
0001
0100
,
0010
0000
1010
0000
1000
0100
1000
0010
,
0000
0100
0001
0000
0010
0100
1000
0001
,
0100
0000
0010
1000
0001
1000
0100
0001
,
0000
0000
0100
0000
0010
0000
0011
0000
0000
0000
0001
0000
1000
0100
1000
0100
,
0020
0000
0000
0000
0031
0000
0100
0000
0001
0000
0000
1000
0000
0000
0010
0000
,
1000
0000
0100
0000
1000
0000
0010
0000
1000
0000
0000
0001
0000
0000
0010
0000
,
0001
0000
0100
0000
0001
0000
0010
0000
0100
0000
1000
0100
0000
0000
1000
0000
,
0010
0000
0100
0000
0010
0000
0110
0000
0000
0000
1000
0000
0001
0100
0001
0100
,
0020
0000
0000
0000
1030
0000
0100
0000
1000
0000
0000
0010
0000
0000
0001
0000
,
0010
0000
0100
0000
0010
0000
1000
0000
0001
0000
0000
0010
0000
0000
1000
0000
,
0010
0000
0100
0000
0010
0000
0001
0000
1000
0000
0001
1000
0000
0001
0100
0000
,
0010
1000
0010
1000
0001
0000
0101
0000
0000
0000
1000
0000
0001
0000
0100
0000
,
1000
0100
0001
2000
0000
3001
1000
0100
,
0001
0100
1000
0002
0000
0103
0010
1000
,
0001
0010
0100
0010
1000
0010
0100
2000
,
0000
0001
0001
3002
0000
0103
1000
0001
,
1000
0100
0001
2000
0000
3100
0001
1000
,
0001
0100
1000
0002
0000
0103
0010
1000
,
0100
0000
0001
0000
0100
0000
1000
0000
0001
0010
0001
0010
0100
0000
1000
0000
,
0001
0100
0001
0000
1000
0100
1000
0000
0001
1000
0001
1000
0010
0000
0100
0001
,
0100
0000
0000
0110
0000
0000
1001
0000
0000
0000
1000
0000
0010
0000
0100
0000
,
0001
0100
0010
1000
0001
0010
0100
1000
,
0001
0100
0010
1000
0100
0010
0001
0100
,
0010
0000
1000
0000
0001
0000
0010
0000
0100
0000
0000
1100
0000
0000
1002
0000
,
0000
0100
0100
0203
0000
0301
0010
0100
,
1000
0010
0100
0001
1000
0100
0001
0100
,
1000
0001
0100
0010
1000
0001
0010
1000
,
0010
0100
0010
0001
1000
0001
0100
2000
,
0000
0000
3100
0000
0100
0000
0010
0000
1000
0000
0001
0000
1000
0100
1000
0100
,
0010
0001
0100
0010
1000
0100
0001
0100
,
1000
0010
0100
0001
0100
1000
0100
0010
,
1000
0000
0001
0000
0010
0000
0100
0000
1000
0000
0000
0011
0000
0000
2100
0000
,
0000
0010
0010
3020
0000
1030
0100
0010
,
0001
0100
0010
0001
0010
1000
0001
0100
,
0001
0010
1000
0010
0001
1000
0010
0100
,
0001
0000
0100
0000
1000
0000
0100
0000
0010
0000
1000
0001
1000
0000
0100
0000
,
0000
0000
0011
0000
0000
0000
0101
0000
0000
0000
0001
0000
0100
0001
0100
0001
,
1000
0000
0000
0100
0000
0000
1000
0000
0001
0000
0100
0010
0000
0010
1000
0000
,
0001
0000
0000
0010
0000
0000
0100
0000
1000
0000
0010
0100
0000
0100
0001
0000
,
1000
0000
0000
0010
0000
0000
0100
0000
0001
0000
0010
0100
0000
0100
1000
0000
,
0001
0000
0100
0001
0000
0001
1000
0000
1000
0100
0000
0100
0010
0000
0100
0000
,
0000
0000
0100
0000
1001
0000
0000
0000
0001
0000
0100
0001
0000
0001
1000
0000
,
0010
0000
0000
0100
0000
0000
0001
0000
0010
0000
0100
1000
0000
1000
0010
0000
,
0100
0000
0000
0001
0000
0000
1000
0000
0001
0010
0001
0010
0100
1000
0100
1000
,
0001
0000
0000
0110
0000
0000
1001
0000
0000
0110
0000
0000
1000
0000
0001
0000
,
1001
0000
0000
1000
0010
0000
0100
0000
0001
0000
0010
0100
0000
1000
0100
0000
,
0010
0000
0000
0001
0100
0000
0010
0000
1000
0000
0001
0010
0000
0001
0100
0000
,
0010
0000
0000
1000
0001
0000
1000
0000
0100
0000
0010
0001
0000
1000
0010
0000
,
0100
0000
0001
1000
0000
0100
1000
0000
0001
0100
0001
1000
0010
0000
0100
0000
,
0000
0000
0010
0000
1001
0000
0000
0000
0001
0000
1000
0100
0000
0010
0001
0000
,
0100
0000
0000
0010
1000
0000
0001
0000
0010
0000
0001
0100
0000
0010
1000
0000
,
0100
0000
0000
0010
0001
0000
1000
0000
0001
0100
0001
0100
0010
1000
0010
1000
,
0001
0000
0000
1100
0000
0000
1001
0000
0000
0101
0000
0000
0010
0000
0100
0000
,
2002
0000
0000
0000
,
0000
0000
0000
0000
,
0000
0000
0000
0000
,
0000
0000
0000
0000
,
3003
0000
0000
0000
;

//--------------- dance-single - forcednature -scrapped- ----------------
#NOTES:
     dance-single:
     forcednature -scrapped-:
     Edit:
     16:
     0,0,0,0,0:
0000
0000
0000
0000
,
0000
0000
0000
0000
,
0000
0000
0000
0000
,
0000
0000
0000
0000
,
0000
0000
0000
0000
,
0000
0000
0000
0000
,
0000
0000
0000
0000
,
1001
0000
0000
0001
0000
0000
0100
0000
0000
0001
0000
0000
0000
0000
0000
0000
,
1000
0000
0000
0100
0000
0000
1000
0000
0000
0001
0000
0000
0000
0000
0000
0000
,
0010
0000
0000
0010
0000
0000
0100
0000
0000
0010
0000
0000
0000
0000
0000
0000
,
2002
0000
0000
3003
,
1100
1000
0001
0001
,
0100
0000
0100
0000
0010
0000
0010
0010
,
1000
1100
0001
0201
,
1000
0000
0000
0000
0010
0000
0000
0000
0001
0000
0000
0000
0310
0000
0100
0001
,
0100
0010
1000
0001
0100
0010
1000
0001
,
0010
0100
1000
0001
0010
0100
1000
0001
,
1000
0000
0010
0000
0001
0000
0010
0100
0010
0000
1000
0000
0001
0000
0101
0000
,
0000
1100
0000
0110
0000
2002
0000
3003
,
0001
0000
0100
0010
0000
0010
1000
0000
0001
0010
0100
1000
0000
1000
0010
0000
,
1000
0000
0001
0100
0000
0100
0010
0000
1000
0100
0010
0001
0000
0001
0100
0000
,
0010
0000
1000
0001
0000
0001
0010
0000
0100
1000
0001
1000
0000
0010
1000
0010
,
0100
0000
0001
0010
0000
0100
1000
0000
0001
0100
0010
1000
0010
0000
0110
0000
,
1000
0000
0001
0010
0000
0001
0100
0000
0010
1000
0001
1000
0000
0100
0010
0000
,
0001
0000
1000
0010
0000
1000
0001
0000
0010
0100
1000
0100
0000
0010
0001
0000
,
0100
0000
0010
1000
0000
0001
1000
0000
0100
0010
0001
1000
0000
0010
0100
0001
,
0100
0000
0000
0101
0000
0000
1010
0000
0000
1100
0000
0000
0011
0000
0100
0000
,
1001
0000
0001
0100
0010
1000
0100
1000
,
1100
0000
0011
0000
0001
2000
3020
0230
,
0302
0003
0010
0100
1000
0010
0100
0002
,
1000
0000
1000
0000
0103
0000
0101
0000
0000
0000
1010
0000
1000
0100
0010
0001
,
0020
0000
0130
1000
0010
1000
0000
0101
,
0000
1000
1100
0000
0001
2000
3200
0320
,
0032
0000
0003
0000
0010
0000
0001
0000
0100
0000
0001
0000
1000
0000
0010
1000
,
0010
0000
0100
0000
0001
0000
1002
0000
0000
0000
1003
0000
0001
0100
0010
1000
,
0010
0000
0100
0000
0001
0000
0100
0000
0010
0000
1000
0001
0000
0001
0010
0000
,
0100
0000
1000
0000
0100
0000
0010
0000
0001
0100
0000
0100
0010
1000
0001
1000
,
0100
0000
0010
0000
0001
0000
0010
0000
0100
0000
1000
0001
0000
0001
0100
0010
,
1000
0000
0100
0000
0001
0000
0200
0000
0310
0000
0100
0000
1000
0100
0010
0001
,
0100
0000
0010
0000
1000
0000
0010
0000
0100
0000
0001
0010
0000
0010
0100
0000
,
1000
0000
0001
0000
0100
0000
0010
0000
1000
0100
0000
0100
0010
0001
1000
0001
,
0100
0000
0010
1000
0010
0000
0100
0000
0001
0000
0010
0100
0000
0010
0001
1000
,
0001
0000
1000
0100
1000
0000
0012
0000
0000
0000
1003
0000
0001
0100
0010
1000
,
0001
0011
0110
1200
0000
1300
0001
1000
,
0010
1010
0110
0201
0000
0301
0010
0100
,
1000
0010
0001
0010
0100
0001
1000
0020
,
0000
0030
0101
0000
1001
0000
1200
0000
0000
0000
0310
0000
0001
1000
0001
0100
,
0010
1010
1100
0021
0000
0031
0100
0001
,
1000
0011
0101
1020
0000
1030
0001
0010
,
0100
0000
0001
0000
0100
0000
1000
0000
0001
1000
0001
0100
0010
1000
0001
0000
,
0010
0001
0010
0001
1000
0010
0100
0001
1000
0000
0100
0010
0001
1000
0001
0100
,
0010
0000
0000
0110
0000
0000
2002
0000
0000
0000
0000
0000
3003
0000
0000
0000
,
0101
0000
0001
1000
0010
0000
0100
0000
0001
0000
0010
0000
0100
0000
0110
0000
,
0000
0000
0100
1000
0001
0000
0100
0000
0010
0000
1000
0000
0010
0000
0110
0000
,
0000
0000
0001
0010
0100
0000
0010
0000
0001
0000
0100
0001
0000
1000
0010
1000
,
0002
0000
0023
0000
0230
0000
2300
0000
0000
0000
3010
0000
1000
0100
1000
0100
,
0010
0000
0001
1000
0010
0000
0100
0000
0001
0000
0010
0000
0100
0000
0110
0000
,
0000
0000
0100
1000
0001
0000
0100
0000
0010
0000
1000
0000
0001
0000
1000
0010
,
1000
0000
0001
0010
0001
0000
1000
0100
1000
0000
0001
0100
0001
0000
0010
0100
,
1000
0001
1000
0001
0100
0000
0010
0000
1000
0100
1000
0100
0010
0001
1000
0001
,
0100
0000
0010
1000
0010
0000
1000
0001
0010
0000
0100
0000
0010
0000
0110
0000
,
0000
0000
0010
0001
0010
0000
0001
1000
0010
0000
0100
0000
0010
0000
0110
0000
,
0000
0000
0010
1000
0010
0000
0100
0001
1000
0000
0100
0010
0000
0100
1000
0001
,
2000
0000
3020
0000
0230
0000
0302
0000
0000
0000
0013
0000
0001
0100
0001
0100
,
0010
0000
1000
0001
1000
0000
0100
0010
0001
0000
0100
0000
0010
0000
0110
0000
,
0000
0000
0010
1000
0010
0000
0100
0001
1000
0000
0100
0000
0010
0000
0001
0100
,
0001
0000
1000
0100
1000
0000
0010
1000
0001
1000
0100
0010
0001
0000
0101
0000
,
0000
0000
1100
0000
0000
0000
1001
0000
0000
0000
0001
0000
1000
0100
0010
0001
,
0100
0000
0010
1000
0000
0001
0010
0000
0100
1000
0001
0100
0000
0010
1000
0001
,
0010
0000
0100
1000
0000
0001
1000
0000
0100
0010
0001
0100
0000
0010
1000
0001
,
0010
0000
0100
0010
0000
0001
0100
0000
0010
1000
0001
1000
0000
0100
0010
0001
,
0100
0000
0010
1000
0000
0001
0010
0000
0100
1000
0001
1000
0010
0100
0001
0000
,
0010
0000
0001
1000
0000
0010
0100
0000
0001
1000
0100
0010
0000
0001
0100
0010
,
1000
0000
0001
0010
0000
0001
0100
0000
0010
1000
0001
1000
0000
0100
0010
0001
,
0010
0000
0100
1000
0000
0001
0100
0000
0010
1000
0001
0010
0100
1000
0001
0000
,
0101
0000
0000
1010
0000
0000
1100
0000
0000
0011
0000
0000
0110
0000
1001
0000
,
0110
0000
1000
0001
0000
0100
0010
1000
0010
0100
0001
0100
0000
0001
0010
0100
,
1000
0000
0100
0010
0000
0001
1000
0001
0100
0010
1000
0001
0000
1000
0100
0010
,
0001
0000
0100
0001
0000
1000
0001
0010
0100
1000
0001
0100
0000
0010
1000
0001
,
1000
0000
0100
0010
0000
0001
0010
0000
0100
1000
0001
1000
0010
0100
0001
1000
,
0100
0000
0010
0001
0100
0001
1000
0000
0010
0100
0001
1000
0000
0100
0010
0001
,
1000
0000
0010
1000
0000
0001
0010
0100
1000
0100
0010
0001
0000
0100
0001
1000
,
0010
0000
1000
0001
1000
0100
0010
0000
0001
0100
0001
0100
0010
1000
0010
0000
,
1100
0000
0000
1010
0000
0000
0101
0000
0000
0011
0000
0000
1001
0000
0110
0000
,
2002
0000
0000
0000
,
0000
0000
0000
0000
,
0000
0000
0000
0000
,
0000
0000
0000
0000
,
3003
0000
0000
0000
;

//--------------- dance-double - forcednature ----------------
#NOTES:
     dance-double:
     forcednature:
     Easy:
     6:
     0,0,0,0,0:
00000000
00000000
00000000
00000000
,
00000000
00000000
00000000
00000000
,
00000000
00000000
00000000
00000000
,
00000000
00000000
00000000
00000000
,
00000000
00000000
00000000
00000000
,
00000000
00000000
00000000
00000000
,
00000000
00000000
00000000
00000000
,
00002000
00000000
00003000
00000000
,
00020000
00000000
00030000
00000000
,
00200000
00000000
00300000
00000000
,
20020000
00000000
00000000
30030000
,
10000000
01000000
10000000
01000000
,
00100000
00001000
00100000
00001000
,
00010000
00000010
00001000
00000010
,
00000100
00000001
00000100
00000001
,
00001001
00001000
00000100
00000100
,
00010000
00010000
00001000
00001000
,
01000000
00000000
01000000
00000000
00010000
00000000
00000000
10000000
,
00000000
10000000
00000000
10000000
00000000
01000000
00000000
00000000
,
01100000
00000000
00100000
00010000
,
01000000
00001000
00010000
00000000
,
00000100
00001000
00000100
00000000
,
00000010
00000001
00000100
00000001
,
00000010
00000100
00001000
00000000
,
00000010
00010000
00001000
00000000
,
01000000
00010000
00100000
00000000
,
01000000
00000000
00000000
00100000
00000000
00000000
01000000
00000000
,
10000000
00000000
00010000
00000000
,
01000000
01000000
01000000
00000000
,
00001000
00000000
00010000
00000000
,
00000100
00000000
00000000
00000010
00000000
00000010
00000000
00000000
,
00001001
00000000
00001000
00000000
,
00000010
00001000
00000010
00010000
,
00001000
00000000
00100000
00000000
,
01000000
00000000
00000000
01100000
00000000
00000000
00000000
00000000
,
10010000
00000000
00010000
00000000
,
01000000
00000000
00001000
00000000
,
00010000
00000000
00000100
00000000
,
00000010
00000010
00000100
00000100
,
00001001
00000000
00000001
00000000
,
00000100
00000000
00000010
00000000
,
00010000
00000000
00001000
00000000
,
00100000
00000000
00000000
01100000
00000000
00000000
00000000
00000000
,
20020000
00000000
30030000
00000000
,
02002000
00000000
03003000
00000000
,
00010000
00001000
00010000
00000200
,
00000000
00000000
00000300
00000000
,
00002002
00000000
00003003
00000000
,
00020200
00000000
00030300
00000000
,
00010000
00001000
01000000
00010000
,
00100000
00100000
01000000
01000000
,
10000000
00000000
00000000
00010000
00000000
00000000
00000000
00000000
,
10010000
00000000
00010000
01000000
,
00001000
00000000
00010000
00000100
,
00001000
00000100
00000010
00000001
,
00000100
00000100
00000100
00000000
,
00000110
00000000
00000010
00010000
,
00001000
00000000
00100000
00001000
,
00010000
00001000
01000000
00010000
,
00100000
01000000
10000000
00000000
,
10010000
00010000
01000000
00001000
,
00010000
00000100
00001000
00000100
,
00000010
00000010
00000001
00001000
,
00000010
00000010
00000010
00000000
,
00000110
00000100
00000001
00001000
,
00000100
00000000
00010000
00000000
00001000
00000000
00000000
01000000
,
00000000
01000000
00000000
00010000
00000000
00010000
00000000
10000000
,
00000000
10000000
00000000
10000000
00000000
01000000
00000000
00000000
,
01100000
00000000
00100000
00001000
,
00010000
00000000
00000010
00001000
,
00000001
00000000
00000010
00000100
,
00001000
00000000
00000100
00000000
00010000
00000000
00000000
00001000
,
00000000
00011000
00010000
00001000
,
01000000
00010000
01000000
00100000
,
10000000
10000000
01000000
01000000
,
00010000
00000000
00000000
00001000
00000000
00000000
00010000
00000000
,
00001000
00010000
00000100
00001000
,
00000100
00000010
00000001
00000100
,
00000010
00001000
00000010
00010000
,
00001000
00000000
00010000
00000000
00001000
00000000
00000000
00100000
,
00000000
01100000
01000000
10000000
,
00010000
01000000
00001000
00010000
,
00000100
00001000
00000100
00000010
,
00000001
00000000
00000000
00001000
00000000
00000000
00000001
00000000
,
00000200
00000000
00000000
00000000
,
00000000
00000000
00000000
00000000
,
00000000
00000000
00000000
00000000
,
00000000
00000000
00000000
00000000
,
00000300
00000000
00000000
00000000
;

//--------------- dance-double - forcednature ----------------
#NOTES:
     dance-double:
     forcednature:
     Medium:
     10:
     0,0,0,0,0:
00000000
00000000
00000000
00000000
,
00000000
00000000
00000000
00000000
,
00000000
00000000
00000000
00000000
,
00000000
00000000
00000000
00000000
,
00000000
00000000
00000000
00000000
,
00000000
00000000
00000000
00000000
,
00000000
00000000
00000000
00000000
,
00020000
00000000
00030000
00000000
,
00002000
00000000
00003000
00000000
,
00000020
00000000
00000030
00000000
,
00002002
00000000
00000000
00003003
,
00000001
00000001
00000100
00000100
,
00001000
00000000
00001000
00000000
00010000
00000000
00010000
00001000
,
00010000
00010000
01000000
01000000
,
10000000
00000000
10000000
00000000
00100000
00000000
00100000
01000000
,
00100000
00000000
10000000
00000000
00010000
00100000
00010000
00000000
,
01000000
00000000
00001000
00000000
00010000
00000100
00010000
00000000
,
00000010
00000000
00001000
00000000
00000001
00000010
00000001
00000100
,
00000000
00001000
00000000
00010000
00000000
00022000
00000000
00033000
,
00001000
00000000
01000000
00000000
00010000
10000000
00010000
00000000
,
00100000
00000000
01000000
00000000
10000000
00010000
01000000
00000000
,
00001000
00000000
00010000
00000000
00000100
00001000
00000010
00000000
,
00000100
00000000
00000000
00000001
00000000
00000000
00000010
00000000
00000100
00000000
00000000
00000000
00001000
00000000
00000001
00000000
,
00000000
00000100
00001000
00000000
00010000
00001000
00010000
00000000
,
00100000
00000000
10000000
00000000
01000000
00100000
00010000
00000000
,
01000000
00000000
00001000
00000000
00010000
00000100
00001000
00000000
,
00000010
00000000
00000000
00000010
00000000
00000000
00001000
00000000
00000000
00001000
00000000
00000000
00000100
00000000
00000010
00000000
,
00000001
00000000
00000100
00001000
00000000
00010000
00001000
00000000
,
00020000
00230000
20300000
30020000
,
00030000
00000000
10000000
00000000
01000000
00000000
00010000
00002000
,
00000000
00000000
00003010
00000010
00000000
00000110
00000000
00000000
,
00001001
00000000
00000001
00000000
00000100
00000010
00000100
00000000
,
00001000
00010000
00002000
00000000
00203000
00000000
02300000
00000000
,
03000000
00000000
10000000
00000000
00010000
01000000
00010000
00000000
,
00100000
00000000
00001000
00020000
00000000
00030010
00000010
00000000
,
00001001
00000000
00001000
00000000
00000100
00010000
00001000
00000000
,
01000000
00000000
00010000
00000000
10000000
01000000
00100000
00000000
,
00010000
00000000
00001000
00000000
00000100
00001000
00000010
00000000
,
00010010
01001000
00010010
01001000
,
00011000
00000000
00001000
00000000
01000000
00010000
01000000
00000000
,
00100000
00000000
10000000
00000000
01000000
00100000
01000000
00000000
,
00010000
00000000
00001000
00000000
00010000
00000100
00010000
00000000
,
00000020
00000000
00001000
00001030
00000000
00000010
00000100
00000000
,
00000001
00000010
00000100
00002000
00000000
00000000
00003010
00000000
,
00010000
00001000
00100000
00020000
00000000
00000000
01030000
00000000
,
00100000
00000000
00100000
00000000
10000000
00000000
01000000
00200000
,
00000000
00010000
00000000
00320000
00000000
00000000
01030000
00000000
,
00001000
00010000
00000100
00002000
00000000
00000000
00003010
00000000
,
00010000
00001000
01000000
00020000
00000000
00000000
00130000
00000000
,
01000000
00000000
10000000
00000000
00010000
01000000
00010000
00000000
,
00200000
00001000
00010000
01300000
,
00100000
00000000
00000000
00001000
00000000
00000000
00022000
00000000
00000000
00000000
00000000
00000000
00033000
00000000
00000000
00000000
,
00010000
00000000
00000100
00001000
00000100
00000010
00000001
00000000
,
00000100
00000000
00000010
00001000
00000010
00010000
00001000
00000000
,
00100000
00000000
00010000
00000000
00100000
00000000
00000000
00000000
01000000
00000000
00000000
01000000
00000000
00000000
20000000
00000000
,
00000000
00010000
00000000
30010000
00000000
10000000
00100000
00000000
,
00010000
00000000
00001000
00010000
00000100
00001000
00000100
00000000
,
00000010
00000000
00000001
00000100
00000001
00001000
00000000
00000010
,
00000000
00001000
00000000
00010000
00000000
01000000
00000000
01100000
,
00000000
00010000
20000000
00000000
31000000
00000000
01000000
00000000
,
00110000
00000000
00001000
00010000
00000010
00001000
00000010
00000000
,
00000100
00000000
00000001
00001000
00000100
00000010
00000100
00000000
,
00010000
00000000
00001000
00000000
00010000
00000000
00000000
00000000
00000100
00000000
00000000
00000100
00000000
00000000
00002000
00000000
,
00000000
00000010
00000000
00003010
00000000
00001000
00000001
00000000
,
00000110
00000000
00001000
00000010
00010000
00001000
00010000
00000000
,
00100000
00000000
10000000
01000000
00100000
00010000
00000000
01000000
,
00000000
00001000
00000000
00010000
00000000
00000100
00000000
00000110
,
00000000
00010100
00000000
01001000
00000000
01100000
00000000
10000000
,
00010000
00000000
01000000
00000000
00001000
00010000
00001000
00000000
,
00000010
00000000
00000100
00000000
00001000
00000001
00000100
00000000
,
00000010
00000000
00001000
00000000
00010000
01000000
00100000
00000000
,
10000000
00000000
00000000
01000000
00000000
00000000
00100000
00000000
00000000
00000000
00001000
00000000
00010000
00000000
00001000
00000000
,
00000000
00000000
00000110
00000000
00001000
00000001
00001000
00000000
,
00000010
00000000
00000100
00000000
00001000
00010000
00100000
00000000
,
10000000
00000000
00010000
00000000
10000000
01000000
00100000
00000000
,
00001000
00000000
00000000
00001000
00000000
00000000
00010000
00000000
00000000
00010000
00000000
00000000
00000100
00000000
00001000
00000000
,
00000100
00000000
00000010
00000001
00001000
00000001
00000100
00000000
,
00001000
00000000
00010000
00100000
01000000
00100000
10000000
00000000
,
01000000
00000000
00100000
00010000
00100000
00001000
00010000
00000000
,
00000010
00000000
00000000
00001000
00000000
00000000
00000001
00000000
00000000
00000000
00000010
00000000
00000100
00000000
00000010
00000000
,
00000000
00000000
00011000
00000000
01000000
00010000
01000000
00000000
,
00100000
00000000
10000000
01000000
00100000
00010000
00100000
00000000
,
00001000
00000000
00010000
00000010
00001000
00000001
00001000
00000000
,
00000100
00000000
00000000
00010000
00000000
00000000
00001000
00000000
00000000
01000000
00000000
00000000
00001000
00000000
00010000
00000000
,
00000200
00000000
00000000
00000000
,
00000000
00000000
00000000
00000000
,
00000000
00000000
00000000
00000000
,
00000000
00000000
00000000
00000000
,
00000300
00000000
00000000
00000000
;

//--------------- dance-double - forcednature ----------------
#NOTES:
     dance-double:
     forcednature:
     Hard:
     14:
     0,0,0,0,0:
00000000
00000000
00000000
00000000
,
00000000
00000000
00000000
00000000
,
00000000
00000000
00000000
00000000
,
00000000
00000000
00000000
00000000
,
00000000
00000000
00000000
00000000
,
00000000
00000000
00000000
00000000
,
00000000
00000000
00000000
00000000
,
00001000
00000000
00000000
00001000
00000000
00000000
00001000
00000000
00000000
00001000
00000000
00000000
00000000
00000000
00000000
00000000
,
00010000
00000000
00000000
00010000
00000000
00000000
00010000
00000000
00000000
00010000
00000000
00000000
00000000
00000000
00000000
00000000
,
00100000
00000000
00000000
00100000
00000000
00000000
00100000
00000000
00000000
00100000
00000000
00000000
00000000
00000000
00000000
00000000
,
20020000
00000000
00000000
30030000
,
10000000
01000000
00100000
00010000
,
00001000
00000000
00000100
00000000
00000010
00000000
00000001
00001000
,
00000001
00000100
00001000
00020000
,
00100000
00000000
00001000
00000000
00000100
00000000
00031000
00010000
,
00011000
00001000
00010000
01000000
,
10000000
00100000
01000000
00001000
,
00010000
00000100
00001000
00000100
00010000
00001000
00000100
00000010
,
00000000
00001010
00000000
00011000
00000000
02020000
00000000
03030000
,
10000000
00000000
00000000
01000000
00000000
00000000
00010000
00000000
00001000
00000000
00000000
00010000
00000000
00010000
00000100
00000000
,
00001000
00000000
00000000
00000001
00000000
00000000
00000100
00000000
00000010
00000000
00010000
00001000
00000000
00001000
00100000
00000000
,
00010000
00000000
00000000
10000000
00000000
00000000
00100000
00000000
01000000
00000000
00010000
01000000
00000000
01000000
00001000
00000000
,
00010000
00000000
00000000
00000100
00000000
00000000
00000010
00000000
00000001
00000000
00000100
00000000
00001000
00000000
00010000
00000000
,
01000000
00000000
10000000
00000000
10010000
00000000
00000000
00000000
10000000
00000000
00000000
01000000
00000000
01000000
00100000
00000000
,
00010000
00000000
00000000
01000000
00000000
00000000
00001000
00000000
00010000
00000000
00000100
00001000
00000000
00001000
00000010
00000000
,
00000100
00000000
00000000
00000001
00000000
00000000
00000010
00000000
00000100
00000000
00010000
00001000
00000000
00001000
01000000
00000000
,
00010000
00000000
00000000
00110000
00000000
00000000
01001000
00000000
00000000
00010100
00000000
00000000
00000010
00000000
00000100
00000000
,
00001001
00000000
00000001
00000200
00000000
00001300
00000100
00000010
,
00001000
00000000
00010000
00000000
01000000
00100000
00010000
00100000
,
10000000
00000000
01000000
00010000
01000000
00100000
00001000
00010000
,
00000010
00000000
00000100
00000000
00000001
00000000
00001001
00000000
00000000
00000000
00010000
00000000
00000100
00001000
00000100
00001000
,
00000002
00000000
00000103
00000000
00001000
00010000
00100000
00010000
,
00000000
00001000
01000000
00000000
00010000
10000000
01000000
00010000
,
00001000
00000000
00100000
00001000
00010000
00001000
00000100
00001000
,
00000000
00000000
00010000
00000000
01000000
00000000
01100000
00000000
00000000
00000000
10000000
00000000
00010000
01000000
00010000
01000000
,
00100000
00000000
00000000
00000000
10000000
00000000
01000000
00000000
00010000
00000000
00000000
00001000
00000000
00000000
00000100
00000000
,
00000001
00000000
00000010
00000000
00000001
00000000
00000100
00000000
00001000
00000000
00000000
00010000
00000000
00000000
01000000
00000000
,
10000000
00000000
00100000
00000000
10000000
00000000
01000000
00000000
00010000
00000000
00000000
00010000
00000000
00000000
00001000
00000000
,
00000010
00001000
00010000
00001000
00000100
00001000
00010000
00000000
,
00200000
00000000
00000000
00000000
10300000
00000000
01000000
00000000
00010000
00000000
00000000
00001000
00000000
00000000
00000100
00000000
,
00000001
00000000
00000010
00000000
00000001
00000000
00000100
00000000
00001000
00000000
00000000
00010000
00000000
00000000
01000000
00000000
,
10000000
00000000
00100000
00000000
10000000
00000000
01000000
00000000
00010000
00000000
00000000
00001000
00000000
00000000
00000100
00000000
,
00000001
00000000
00000001
00000000
00001000
00000000
00001100
00000000
00000000
00000000
00000100
00000000
00010000
00001000
00010000
00001000
,
00010000
00000100
00001000
00000020
00000000
00000130
00000001
00000010
,
00001000
01000000
00010000
00200000
00000000
01300000
10000000
00100000
,
00010000
00001000
00010000
01000000
00010000
00001000
00000010
00000002
,
00000000
00000100
00000100
00000203
00000000
00001300
00010000
00001000
,
01000000
00010000
00100000
00002000
00000000
00103000
01000000
00010000
,
00000100
00001000
00000010
00020000
00000000
00030010
00000100
00001000
,
01000000
00010000
01000000
00100000
10000000
10000000
01000000
00010000
,
00001000
00000000
00000010
00000000
00000001
00000000
00000010
00000000
00000100
00000000
00001000
00000000
00000100
00000000
00010000
00001000
,
00010000
00000000
00000000
00101000
00000000
00000000
01001000
00000000
00000000
00000000
10000000
00000000
00100000
00000000
01000000
00000000
,
00010000
00100000
01000000
00010000
00001000
00000010
00000100
00001000
,
00000001
00000100
00000010
00001000
00010000
01000000
00010000
00100000
,
01000000
00000000
10000000
00000000
00010000
00000000
01000000
00000000
00001000
00000000
00000000
00011000
00000000
00000000
00010020
00000000
,
00000000
00000100
00000100
00000230
00000000
00000301
00000010
00000100
,
00000001
00000100
00001000
00000010
00000100
00001000
00010000
00100000
,
01000000
00010000
01000000
00001000
00010000
01000000
00100000
10000000
,
00100000
00010000
00100000
00001000
00010000
00000010
00001000
00000200
,
00000000
00000000
00000301
00000000
00000001
00000000
00000100
00000000
00001000
00000000
00000010
00000000
00000100
00000001
00000100
00000001
,
00000010
00000100
00001000
00000010
00000100
00001000
00010000
00100000
,
10000000
01000000
00100000
00010000
10000000
01000000
00010000
00001000
,
00000010
00000000
00000001
00000000
00000100
00000000
00000010
00000000
00001000
00000000
00000000
00010100
00000000
00000000
00102000
00000000
,
00000000
01000000
01000000
02003000
00000000
03100000
10000000
00100000
,
01000000
00001000
00010000
01000000
00100000
00010000
00100000
00001000
,
00000100
00001000
00010000
00000100
00001000
00000001
00000100
00001000
,
00010000
00000000
00001000
00000000
00100000
00000000
00001000
00000000
01000000
00000000
00010000
10000000
00010000
10000000
00100000
00000000
,
00000000
00000000
01001000
00000000
00000000
00000000
00010100
00000000
00000000
00000000
00000010
00000000
00001000
00000001
00001000
00000001
,
00000010
00000000
00000000
00000100
00000000
00000000
00010000
00000000
00001000
00000000
01000000
00010000
00000000
00010000
10000000
00000000
,
01000000
00000000
00000000
00010000
00000000
00000000
00001000
00000000
00010000
00000000
00000100
00001000
00000000
00001000
00000010
00000000
,
00000100
00000000
00000000
00000001
00000000
00000000
00000010
00000000
00000100
00000000
00010000
00001000
00000000
00001000
01000000
00000000
,
00010000
00000000
10000000
00100000
00000000
00100000
10000000
00000000
10000000
01000000
00000000
01000000
00010000
00000000
00001000
00000000
,
00000000
00000000
00000010
00000000
00000110
00000000
00000000
00000000
00000001
00000000
00001000
00000010
00000000
00000010
00010000
00000000
,
00001000
00000000
00000000
00100000
00000000
00000000
00010000
00000000
01000000
00000000
00010000
10000000
00000000
10000000
01000000
00000000
,
00010000
00000000
00000000
00001000
00000000
00000000
00000100
00000000
00000001
00000000
00000010
00000100
00000000
00000100
00001000
00000000
,
00000010
00000000
00000000
00001100
00000000
00000000
00010010
00000000
00000000
00101000
00000000
00000000
01000000
00000000
00010000
00000000
,
10010000
00000000
00000000
10000000
01000000
00000000
00100000
00000000
00010000
00000000
00100000
00001000
00000000
00001000
00010000
00000000
,
00000010
00000000
00000000
00001000
00000001
00000000
00000010
00000000
00000100
00000000
00001000
00000010
00000000
00000010
00010000
00000000
,
00001000
00000000
00000000
00100000
00010000
00000000
10000000
00000000
00100000
00000000
01000000
00010000
00000000
00010000
00100000
00000000
,
00001000
00000000
00010000
00000010
00000000
00000010
00001000
00000000
00001000
00000100
00000000
00000100
00000010
00000000
00000001
00000000
,
00000000
00000000
00001000
00000000
00001010
00000000
00000000
00000000
00010000
00000000
00001000
00100000
00000000
00100000
00010000
00000000
,
01000000
00000000
00000000
00100000
10000000
00000000
01000000
00000000
00100000
00000000
00010000
01000000
00000000
01000000
00001000
00000000
,
00010000
00000000
00000000
00000100
00001000
00000000
00000010
00000000
00000100
00000001
00000100
00000001
00001000
00000100
00001000
00000100
,
00010000
00000000
00000000
00010100
00000000
00000000
00001001
00000000
00000000
00010010
00000000
00000000
00001000
00000000
00010000
00000000
,
00200000
00000000
00000000
00000000
,
00000000
00000000
00000000
00000000
,
00000000
00000000
00000000
00000000
,
00000000
00000000
00000000
00000000
,
00300000
00000000
00000000
00000000
;
