#TITLE:(They Long To Be) Close To You;
#SUBTITLE:(Spike Jones Spoof);
#ARTIST:Richard Carpenter;
#CREDIT:Nezemarth;
#MUSIC:(They Long To Be) Close To You.ogg;
#SELECTABLE:YES;
#BACKGROUND:(They Long To Be) Close To You-bg.png;
#BANNER:(They Long To Be) Close To You.png;
#CDTITLE:;
#OFFSET:-0.274989;
#SAMPLESTART:2.450;
#SAMPLELENGTH:12.000;
#BPMS:0=184.996,1=179.792,2=190.565,3=184.996,5=182.018,7=183,10=193.012,11=193.026,12=180,14=184.996,17=185.009,18=184.996,20=177.203,23=185.502,28=182.018,30=189,32=190.004,35=189.991,36=185.489,37=178.002,39=182.006,40=185.009,41=184.996,42=190.004,43=196,44=185.009,45=170.008,46=175,47=186.024,48=187.5,51=170.008,52=193.012,53=186.024,54=196,56=188.006,58=187.993,59=188.006,62=187.993,63=188.006,64=187.993,65=196,66=186.706,67=195.075,68=207.302,69=182.006,70=182.018,71=168.085,72=186.011,73=185.997,77=200,78=184.185,79=190.004,80=180.861,81=200.106,82=176.4,83=180,87=187.01,88=186.996,89=175,90=165.004,91=180,93=190.004,95=189.991,96=181.656,97=196,101=175,106=179.56,107=178.002,108=186.011,109=185.997,110=196,112=186.259,113=180,115=182.382,116=189,119=188.006,120=182.811,121=193.492,122=196.729,123=188.488,124=188.006,126=187.993,127=188.006,128=187.993,129=186.944,130=192.003,132=188.006,134=187.993,135=188.006,136=191.92,137=179.001,140=177.002,143=177.014,144=180.086,145=174.01,146=177.002,147=170.008,148=172.008,149=171.997,151=177.501,152=184.006,154=176.001,155=186.011,156=185.997,157=197.315,158=181.109,159=181.096,160=177.002,162=193.012,163=192.998,164=190.004,166=187.01,167=182.508,168=185.502,170=184.983,171=190.004,172=180,173=176.001,174=171.684,175=178.76,176=172.851,177=180.467,178=173.043,179=180.59,180=169.409,181=174.757,182=179.086,183=175.29,184=177.002,185=181.768,186=179.804,187=186.207,188=180,189=187.01,190=186.996,191=190.004,193=189.991,194=188.006,195=187.993,196=188.006,197=187.58,198=191.006,200=180,204=181.01,205=180.997,208=164.348,209=175.058,210=178.074,211=184.006,212=185.906,213=185.893,214=185.906,216=176.754,217=183.801,218=191.006,220=190.004,222=189.991,223=190.004,225=189.991,226=190.004,227=184.006,228=190.497,231=178.506,232=182.899,233=187.01,234=187.846,235=206.332,236=185.009,237=185.061,239=184.006,240=188.006,241=187.993,242=188.006,244=190.004,246=189.991,247=195.003,248=190.004,249=189.991,250=188.006,251=187.993,252=186.011,253=185.997,257=188.006,258=187.993,259=188.006,260=185.997,263=186.011,264=185.997,268=191.006,270=190.992,271=191.006,272=190.992,273=191.006,275=190.992,276=191.006,277=172.008,278=175.744,279=177.002,280=180.233,281=179.305,282=185.71,283=172.524,284=165.004,286=167.162,287=157.566,288=170.008,289=169.997,292=170.008,293=169.997;
#STOPS:;

//---------------dance-single - ----------------
#NOTES:
     dance-single:
     :
     Beginner:
     4:
     0.000,0.000,0.000,0.000,0.000:
0000
0000
0000
0000
,
0000
0000
0000
0000
,
1000
0000
0100
0000
,
0010
0000
0000
0000
,
0001
0000
0000
0000
,
1000
0000
0000
0000
,
0010
0000
0000
0000
,
0100
0000
0000
0000
,
0010
0000
0000
0000
,
1000
0000
0000
0000
,
0001
0000
0010
0000
,
0100
0000
0000
0000
,
1000
0000
0000
0000
,
0001
0000
0000
0000
,
0100
0000
0000
0000
,
0010
0000
0000
0000
,
1000
0000
0000
0000
,
0001
0000
0001
0000
,
1000
0000
0000
0000
,
0100
0000
0000
0000
,
0000
0000
0000
0000
,
0010
0000
0000
0000
,
0100
0000
0000
0000
,
0001
0000
0000
0000
,
0100
0000
0000
0000
,
0010
0000
0000
0000
,
0000
0000
0000
0000
,
0001
0000
0100
0000
,
0010
0000
0000
0000
,
1000
0000
0000
0000
,
0100
0000
0000
0000
,
0010
0000
0000
0000
,
1000
0000
0000
0000
,
0010
0000
0000
0000
,
0001
0000
0000
0000
,
1000
0000
0000
0000
,
0010
0000
0000
0000
,
0100
0000
0000
0000
,
0001
0000
0000
0000
,
1000
0000
0100
0000
,
0001
0000
0100
0000
,
1000
0000
0100
0000
,
0010
0000
0000
0000
,
1001
0000
0000
0000
,
1001
0000
0000
0000
,
1001
0000
0000
0000
,
1001
0000
0000
0000
,
1000
0000
0000
0000
,
1000
0000
0000
0000
,
0001
0000
0001
0000
,
0100
0000
0000
0000
,
0010
0000
1000
0000
,
0100
0000
0000
0000
,
0010
0000
0001
0000
,
1000
0000
0000
0000
,
0010
0000
0000
0000
,
0100
0000
0000
0000
,
0001
0000
0000
0000
,
1000
0000
1000
0000
,
0100
0000
0000
0010
,
0010
0000
0000
0000
,
0001
0000
0000
0000
,
1000
0000
0000
0000
,
0010
0000
0000
0100
,
0100
0000
0000
0000
,
0001
0000
0000
0000
,
1000
0000
0000
0000
,
0100
0000
0000
0010
,
0010
0000
0000
0000
,
0001
0000
0000
0000
,
1000
0000
0001
0001
,
1001
0000
1001
0000
,
1001
0000
1000
2020
,
0000
0000
3030
0000
;

//---------------dance-single - ----------------
#NOTES:
     dance-single:
     :
     Easy:
     8:
     0.000,0.000,0.000,0.000,0.000:
0000
0000
0000
0000
,
0000
0000
0000
1000
,
0001
0000
0010
0100
,
1000
0000
0000
0001
,
0100
0000
0000
0100
,
1000
0000
0000
0000
,
1000
0100
0010
0000
,
1000
0100
0001
0000
,
0001
0100
1000
0001
,
1001
0000
0000
0001
,
0100
0000
0010
0100
,
1000
0000
0000
1000
,
0100
0000
0000
0100
,
0001
0000
0000
0000
,
1000
0100
0010
0000
,
1000
0010
0100
0000
,
0001
0100
1000
0000
,
2000
3020
0032
0023
,
1030
1000
0001
0001
,
0010
0100
1000
0001
,
0100
0010
0100
0001
,
1000
1000
0001
0001
,
0020
0000
0030
0100
,
0010
0100
0010
0100
,
1000
0001
1000
0010
,
0001
0000
0010
0000
,
1000
0000
0100
0010
,
0001
0000
1000
0010
,
0200
0001
0301
1000
,
0100
0000
0000
0100
,
0001
1000
0010
0001
,
1000
0010
0100
0000
,
1000
0100
0001
0000
,
1000
0100
0010
0000
,
0001
0000
2002
0000
3003
0000
1000
1000
,
0100
0000
0010
0001
,
0101
0000
0000
0000
0000
0000
0100
0100
,
0010
0000
0000
0000
0000
0000
0100
0100
,
1000
0000
0000
0000
,
0100
0001
2000
0000
,
3100
0010
2000
0000
,
3010
0100
2000
0000
,
3001
0100
1000
0100
,
1001
0000
0000
0000
0000
0000
0000
0001
,
0100
0000
0000
0000
0000
0000
0000
0001
,
0010
0000
0000
0000
0000
0000
0000
0100
,
0020
0000
0030
0001
,
1000
1000
0100
0100
,
0010
0010
0100
1000
,
0001
0100
0010
1000
,
1001
0000
0000
0001
,
0100
0000
0010
0100
,
0002
0010
1003
0100
,
0001
1000
0010
0001
,
1000
0010
0100
1000
,
0100
0001
0010
0000
,
1000
0010
0200
0000
,
1300
0001
0100
0010
,
1000
1010
0001
0011
,
1000
0000
0000
0010
0000
0000
0100
0000
0000
0001
0000
1000
,
0100
0010
0001
1000
,
0010
0100
0000
0002
0000
0003
0000
0000
,
0010
0100
0000
2000
0000
3000
0000
0000
,
0001
0000
0000
0100
0000
0000
0010
0000
0000
1000
0000
0100
,
0010
0001
1000
0010
,
0100
0010
0000
2000
0000
3000
0000
0000
,
0100
0010
0000
0002
0000
0003
0000
0000
,
0100
0000
0000
0010
0000
0000
1000
0000
0000
0100
0000
0010
,
0100
1000
0001
0100
,
0010
0000
1000
0200
0000
0000
0000
0000
,
0310
0000
0000
0010
0000
0000
0001
0000
0100
0000
0000
0000
0100
0000
0000
0000
,
1001
0100
1001
0010
,
0110
0000
0001
0000
1000
0100
0020
0000
,
0000
0000
0030
0000
;

//---------------dance-single - ----------------
#NOTES:
     dance-single:
     :
     Medium:
     12:
     0.000,0.000,0.000,0.000,0.000:
0000
0000
0000
0000
,
0000
0000
0000
0000
0000
0000
1000
0100
,
0010
0000
0001
0000
1000
0010
1000
0010
,
0100
0000
0100
0000
0001
0000
0001
0010
,
1000
0000
0010
0000
0100
0000
1000
0010
,
0001
0000
0010
0000
0100
0001
0001
0000
,
1000
0100
0000
0010
0000
0100
1000
0000
,
0001
0100
0000
0010
0100
0000
0001
0000
,
1000
0100
0000
0010
0000
0100
1000
0000
,
1010
0000
0001
0000
0010
0000
0010
0001
,
1000
0000
0010
0000
0100
1000
0100
0010
,
1000
0000
0200
0300
MMMM
0000
1000
0001
,
0010
0000
1000
0000
0010
0000
0100
1000
,
0010
0000
0001
0010
0001
0010
1000
0010
,
0100
0001
0000
1000
0100
0000
0010
0000
,
0100
1000
0000
0001
0100
0000
0010
0000
,
1000
0100
0000
0010
0000
1000
0010
0000
,
0100
0100
0100
0100
,
1000
0000
0010
0000
0100
0000
0010
0000
0001
0010
0000
0000
0100
0000
0000
0000
,
0001
0000
0000
0010
0000
0000
0100
0000
0000
0010
0000
0000
1000
0000
0010
0000
0000
0000
0011
0000
0000
0000
0000
0000
,
1001
0000
0101
0000
1001
0000
1000
0100
,
0010
0100
0001
0100
0010
0100
1000
0001
,
0100
0000
0010
1000
1010
0000
0010
1000
,
0001
0000
0010
0000
0001
0000
1000
0000
0001
0100
0000
0000
0001
0000
0000
0000
,
1000
0100
1000
0001
1000
0010
1000
0100
,
0010
0001
0200
1300
,
0100
0000
0001
0000
0010
0000
0100
1000
,
0010
0000
1000
0000
0001
0010
1000
0010
,
0100
0000
1000
0000
1001
0000
0001
0100
,
1000
0000
0100
0000
0010
0000
1000
0100
,
0001
0000
0002
0203
2300
3002
0203
2300
,
3001
1000
0000
0100
0010
0000
1000
0000
,
0001
0010
0000
1000
0010
0000
0100
0000
,
1000
0010
0000
0100
0000
1000
0100
0000
,
0001
0000
0010
0000
1000
0000
0010
0001
,
0011
0000
0001
0000
1000
0010
1000
0001
,
0020
0000
0100
0000
1030
0000
0001
0100
,
0010
0000
0001
0000
0100
0000
1000
0100
,
0010
0010
0010
1000
0001
0000
0000
0000
,
0010
0001
1000
0010
0100
0001
0010
0000
,
0010
0100
1000
0001
0100
0010
1000
0000
,
1000
0100
0010
0001
1000
0010
0100
0000
,
1000
0100
1000
0100
0001
0010
0001
0010
,
0100
0100
1000
1000
0001
0001
1000
1000
,
0100
0100
1000
1000
0001
0001
0100
1000
,
0001
0001
0010
0010
0100
0100
0001
1000
,
0100
0010
0100
1000
0100
0000
0000
0000
,
0010
0010
0001
0001
,
0100
0100
1000
1000
,
0200
0302
0023
2030
,
3010
0000
0001
0000
1000
1000
1000
0001
,
0010
0000
0000
0000
0000
0000
0100
0000
0000
0000
0000
0000
1000
0000
0000
0000
0010
0000
0100
0000
0000
0001
0000
0000
,
1002
0000
0100
0000
0013
0000
1000
0010
,
0001
0000
1000
0010
0100
0000
1000
0100
,
0001
0000
0002
0023
2030
3002
0203
2300
,
3001
0100
0000
0010
0100
0000
0001
0000
,
1000
0100
0000
0010
0100
0000
1000
0000
,
0010
0100
0000
1000
0000
0100
0002
0000
,
0023
0230
2300
3010
,
1010
0000
0000
0010
0000
0000
1000
0000
0000
0001
0010
0001
,
0010
0000
0000
0000
0100
0000
0000
0000
1000
0000
0000
0001
0000
0000
0001
0000
,
0100
0010
0000
1000
0000
0100
0000
0010
,
0100
1000
0000
0010
0000
0100
0000
0001
,
0010
0000
0000
1000
0000
0000
0010
0000
0000
0100
1000
0100
,
1000
0000
0000
0000
0010
0000
0000
0000
0100
0000
0000
1000
0000
0000
1000
0000
,
0001
0010
0000
0100
0000
0001
0000
1000
,
0100
0010
0000
1000
0000
0001
0000
0100
,
0010
0000
0000
0000
0001
0000
0000
0000
0100
0000
0000
0000
0010
1000
0000
0010
,
1000
0001
0010
1000
,
1010
0000
0010
0200
1000
0000
0001
0000
,
1300
0001
0000
1000
0001
0000
0100
0000
0010
0000
0000
0000
0010
0000
0000
0000
,
1010
0000
0000
0010
0000
0000
0100
0000
0101
0000
0000
0001
0000
0000
0010
0000
,
0110
0000
0000
0100
0000
0000
1000
0000
0001
0000
0100
0000
0220
0000
0000
0000
,
0000
0000
0330
0000
;

//---------------dance-single - ----------------
#NOTES:
     dance-single:
     :
     Hard:
     14:
     0.000,0.000,0.000,0.000,0.000:
0000
0000
0000
0000
,
0000
0000
0000
0000
0000
0000
1000
0010
,
1000
0001
0010
0100
1000
0001
0100
0010
,
1000
0000
1100
0000
1001
0000
1000
0010
,
0001
0010
0100
1000
0100
0001
1000
0100
,
0010
1010
0110
0011
,
0001
1000
0010
0100
1000
0100
0001
0010
,
0100
1000
0001
0100
1000
0100
0001
1000
,
0010
0100
0001
0010
0100
0010
0001
1000
,
1010
0000
0110
0000
0101
0000
1001
1000
,
0100
0010
0100
1000
0001
0010
0100
1000
,
1010
0000
0011
0000
MMMM
0000
1000
0100
,
0010
0100
1000
0001
0100
0010
1000
0100
,
0001
0100
0010
0010
0001
0001
1000
1000
,
0010
0100
0001
0010
0001
1000
0010
0100
,
0001
0010
0100
0010
1000
0010
0001
1000
,
0010
0100
1000
0100
0001
0100
0010
1000
,
0100
MMMM
0100
MMMM
0100
MMMM
0100
MMMM
,
0100
0010
0001
0010
1000
0010
0100
1000
,
0001
0000
0100
0000
0010
0000
0100
0000
1000
0000
0000
0000
0100
0000
0000
0001
,
0010
0000
0000
0100
1000
0000
0000
0001
0100
0000
0100
0000
0001
0000
1000
0000
,
0100
0010
0100
0001
0100
1000
0001
0100
,
0010
1000
1000
1000
1001
0000
0001
0010
,
0100
0001
0100
1000
0100
0010
0100
1000
,
0001
0100
1000
0100
0010
0100
1000
0100
,
0001
0000
0000
0010
0100
0000
0000
1000
0010
0000
0000
0100
0001
0000
0000
0010
,
0100
0000
0000
1000
0100
0000
0000
0010
0001
0000
0000
0000
0100
0000
0010
0000
,
1000
0001
0010
0100
0010
0001
1000
0010
,
0110
0000
1001
0000
1100
0000
1000
0100
,
0001
1000
0010
0001
1000
0010
0100
1000
,
0100
0001
0020
0230
0302
0203
2300
3020
,
0031
0010
1000
0001
0010
0100
1000
0001
,
1000
0100
0001
1000
0010
0100
1000
0001
,
0100
0000
0010
0000
0001
0000
0010
0000
1000
0000
0100
0010
0000
0001
0010
0000
,
0100
0000
1020
0000
0130
0000
0001
0010
,
0110
0000
0000
0000
1000
0000
0000
0000
0001
0010
0001
0000
0100
0000
0010
0000
,
1010
0000
0002
0000
0013
0000
0100
1000
,
1001
0000
0000
0001
0010
0000
0000
0010
0100
0000
0000
0000
0100
0000
1000
0000
,
1010
0000
0010
0100
0010
0000
1000
0000
0002
0000
0010
0000
1003
0000
0000
0000
,
1000
0100
0010
0000
0001
0000
0100
0000
1000
0000
0100
0000
0001
0000
0000
0000
,
0001
0100
0010
0000
1000
0000
0100
0000
0001
0000
0100
0000
1000
0000
0000
0000
,
1000
0001
0010
0000
0100
0000
1000
0000
0010
0000
0100
0000
0001
0000
1000
0000
,
0100
0001
0100
1000
0100
0001
0100
1000
,
0001
0001
0100
0100
1000
1000
0001
0001
,
0010
0010
1000
1000
0100
0100
0001
1000
,
0010
0010
0001
0001
0100
0100
0010
0100
,
0001
0010
1000
0010
0001
0000
0101
0000
,
0001
0001
0100
0010
1000
1000
0001
0010
,
0100
0100
1000
0001
0010
0001
1000
0010
,
0100
0000
0000
0100
0001
0000
0000
0001
0010
0000
0000
0010
1000
0000
0000
0000
,
1010
0000
0011
0000
0101
0000
0100
0010
,
1000
0001
0100
0010
0001
0010
0100
0001
,
1001
0000
1100
0000
0110
0000
0001
0010
,
0100
0001
0100
0010
0001
0100
0010
0001
,
1000
0001
0020
0230
0302
2003
3200
0320
,
0031
0100
0010
0100
0001
1000
0100
0010
,
0001
1000
0001
0010
1000
0010
0100
1000
,
0001
0100
1000
0001
0010
0001
1000
0100
,
0010
0000
0000
0010
1000
0000
0000
1000
0100
0000
0000
0100
0010
0000
0000
0000
,
1000
0000
0000
0010
0000
0000
0100
0000
0000
1000
0000
0000
0001
0000
0000
0100
0000
0000
0010
0000
1000
0000
0010
0000
,
0100
0000
1000
0000
0100
0000
0001
0000
1000
0000
0100
0010
0000
0100
0010
0000
,
0001
1000
0010
0100
0001
1000
0000
1000
,
0100
0010
0001
1000
0010
1000
0000
1000
,
0001
0000
0000
0010
0000
0000
1000
0000
0000
0010
0000
0000
0100
0000
0000
1000
0000
0000
0001
0000
0010
0000
0001
0000
,
1000
0000
0010
0000
0100
0000
0001
0000
1000
0000
0100
0010
0000
0100
0010
0000
,
0001
0100
0010
1000
0001
1000
0100
0010
,
0001
0100
0000
1000
0100
0010
1000
0001
,
1000
0000
0100
0000
0001
0000
0100
0000
0010
0000
0001
0000
0100
0010
0000
0100
,
1000
0000
0100
0000
0001
0000
1000
0000
0100
0000
1000
0001
0000
1000
0001
0000
,
0011
0000
1001
1000
0010
0000
0100
0000
,
1000
0100
0000
0100
0001
0000
1000
0000
1001
0000
0000
0000
1001
0000
0000
0000
,
1000
0100
0000
0100
0000
0010
0001
0000
0100
0010
0000
0010
0000
1000
0100
0000
,
0010
0001
0000
0001
0000
0100
0010
0000
1000
0000
0001
0000
2002
0000
0000
0000
,
0000
0000
3003
0000
;

//---------------dance-single - ----------------
#NOTES:
     dance-single:
     :
     Challenge:
     17:
     0.000,0.000,0.000,0.000,0.000:
0000
0000
0000
0000
,
0000
0000
0000
0000
0000
0000
1000
0100
,
0010
0001
0100
0001
0010
0100
1000
0001
,
0100
0000
0110
0000
1010
0000
1000
0100
,
0010
0001
0100
0001
0010
0100
1000
0100
,
0001
0000
0000
0000
0101
0000
0000
0000
1100
0000
1000
0001
0100
0000
0000
0000
,
0010
0100
1000
0100
0001
1000
0100
0010
,
0001
1000
0010
0100
0001
0010
1000
0010
,
0100
1000
0001
0100
0010
0100
1000
0100
,
0101
0000
0011
0000
1100
0000
1010
1000
,
1001
0001
0100
0010
1000
0100
0010
1000
,
0010
0000
0002
0003
MMMM
0000
1000
0010
,
0100
1000
0100
0001
1000
0100
0010
0100
,
0001
1000
1010
0010
0011
0001
0101
0100
,
1100
0100
0010
1000
0001
0010
0100
1000
,
0100
0010
0001
1000
0010
0100
0001
0010
,
1000
0000
0010
0000
0100
0000
1000
0000
0001
0000
0100
0001
1000
0000
0001
1000
,
0010
MMMM
0010
MMMM
0010
MMMM
0010
MMMM
,
0010
0100
0001
0010
0100
1000
0001
1000
,
0010
0000
0100
0000
0001
0000
0010
0000
1000
0000
0010
0000
0001
0100
0010
0000
,
0001
0010
0100
0000
0001
0010
1000
0000
0010
0100
1000
0000
0010
0000
0100
0000
,
1000
0100
0010
0100
0001
1000
0100
0010
,
0001
0100
0010
0000
1000
0000
1000
0000
0100
0000
0000
0000
0010
0000
0001
0000
,
0100
1000
0100
0010
0100
0001
1000
0100
,
0010
1000
0010
0100
0010
0001
0100
0010
,
1000
0000
0000
0100
0010
0000
0000
0001
0100
0000
0000
1000
0100
0000
0000
0010
,
1000
0000
0000
0100
0010
0000
0000
1000
0010
0000
0000
0000
0001
0000
0100
0000
,
0010
0100
0001
1000
0100
0010
0001
1000
,
1010
0000
1001
0000
0011
0000
0110
0100
,
1100
1000
0010
0100
0001
1000
0100
0010
,
1000
0010
0002
0203
2300
3200
0320
2030
,
3100
0010
0001
0100
0001
0010
0100
1000
,
0001
0100
0010
1000
0100
0010
0100
1000
,
0010
0000
0001
0000
0010
0000
0100
0000
0001
0000
1000
0100
0000
0010
0100
0000
,
1000
0000
2010
0000
3001
0000
0011
1000
,
1001
0000
1000
0100
1000
0000
0100
0010
0100
0000
0010
0001
0010
0000
0001
0100
,
0001
0000
0100
0010
0200
0000
0000
0000
0301
0000
0000
0000
1000
0000
0100
0000
,
0101
0000
0002
0000
2003
0000
3010
0001
,
0101
0000
0100
0010
1000
0000
0100
0000
0020
0000
1000
0000
1030
0000
0000
0000
,
0010
0100
1000
0000
0001
0000
0100
0010
0100
0001
0100
0010
0100
0000
0001
0000
,
1000
0100
0010
0000
0001
0000
1000
0010
0100
0010
1000
0010
0100
0000
0001
0000
,
0010
0100
1000
0000
0001
0000
0100
0010
0100
0001
0100
0010
0100
0000
0001
0000
,
1000
0100
1000
0100
0001
0100
0001
0100
1000
0100
1000
0100
0001
0100
0001
0100
,
0010
0010
0001
0001
0100
0100
1000
1100
,
0101
0001
0010
0010
0100
0100
1000
1010
,
0011
0001
0010
0010
1000
1000
0100
0110
,
0010
0001
1000
0001
0010
0001
1000
0001
0010
0000
0000
0000
0100
0000
1000
0000
,
0010
0100
1000
0100
0001
0100
1000
0100
,
0010
1000
0100
0001
0100
0010
0100
0001
,
0100
0000
1000
0001
0100
0000
0010
1000
0100
0000
1000
0001
0010
0000
0100
1000
,
0001
0000
0000
0001
0100
0000
0000
0000
0010
0000
1000
0100
1000
0000
0010
0000
,
0100
0001
0010
0100
1000
0010
0001
1000
,
1100
0000
0110
0000
0101
0000
0100
0010
,
1010
1000
0100
0010
1010
0010
0100
1000
,
1010
0010
0200
2300
3002
0023
2030
3200
,
0310
1000
0001
1000
0010
0100
1000
0001
,
0100
0010
0100
1000
0001
1000
0100
0010
,
1000
0000
0100
0000
0010
0000
1000
0000
0010
0000
0001
1000
0010
0000
0100
1000
,
0001
0000
0010
1000
0100
0000
0010
1000
0001
0000
0100
0010
0001
0000
1000
0010
,
0100
0000
0000
1000
0000
0000
0001
0000
0000
0010
0000
0000
1000
0000
0000
0001
0000
0000
0010
0000
0100
0000
0010
0000
,
0001
0000
1000
0000
0010
0000
0100
0000
0001
0000
1000
0100
0000
0010
0100
0000
,
1000
0001
0100
0010
1000
0001
0100
1000
,
0100
0000
0001
0000
1000
0000
0100
0000
0010
0001
0010
0001
1000
0010
1000
0010
,
0100
0000
0000
0001
0000
0000
1000
0000
0000
0100
0000
0000
0010
0000
0000
0100
0000
0000
1000
0000
0010
0000
0100
0000
,
0010
0000
1000
0000
0001
0000
0010
0000
0100
0000
0001
0100
0000
0010
0100
0000
,
1000
0001
0100
0010
1000
0001
0100
1000
,
0100
0000
0010
0000
1000
0000
0001
0000
0010
0000
0100
0000
1000
0010
0100
0001
,
1000
0000
0100
0000
0001
0000
0100
0000
0010
0000
1000
0000
0010
0001
0000
0100
,
0010
0000
1000
0000
0001
0000
0010
0000
0001
0000
0100
0010
0000
1000
0100
0000
,
0110
0000
0010
0001
1000
0000
0010
1000
0001
0000
0100
0001
1000
0000
0100
1000
,
0010
0100
0000
0001
1000
0000
0100
0000
0010
0000
0001
0010
0001
0000
0000
0000
,
0011
0001
0000
1000
0000
0010
0100
0000
0101
0001
0000
1000
0000
0100
0010
0000
,
0011
0001
0000
1000
0000
0010
0100
0000
0110
0000
0001
0000
2002
0000
0000
0000
,
0000
0000
3003
0000
;
