#VERSION:0.83;
#TITLE:$1.78;
#SUBTITLE:;
#ARTIST:Schwank;
#TITLETRANSLIT:;
#SUBTITLETRANSLIT:;
#ARTISTTRANSLIT:;
#GENRE:;
#CREDIT:D0omsday;
#MUSIC:1.78 Cut.mp3;
#BANNER:;
#BACKGROUND:;
#CDTITLE:;
#SAMPLESTART:25.253;
#SAMPLELENGTH:16.800;
#SELECTABLE:YES;
#OFFSET:-0.053;
#BPMS:0.000=200.000
,364.000=100.000
,392.000=200.000
;
#STOPS:;
#SPEEDS:0.000=1.000=0.000=0;
#SCROLLS:0.000=1.000;
#TICKCOUNTS:0.000=4;
#TIMESIGNATURES:0.000=7=8;
#LABELS:0.000=Song Start;
#COMBOS:0.000=1;
#ORIGIN:;
#TAGS:;
#PREVIEWVID:;
#JACKET:;
#CDIMAGE:;
#DISCIMAGE:;
#BGCHANGES:;
#FGCHANGES:;

//--------------- dance-single - FS+ XO BR/SJ DS RH- JA- ----------------
#NOTEDATA:;
#STEPSTYPE:dance-single;
#DESCRIPTION:FS+ XO BR/SJ DS RH- JA-;
#DIFFICULTY:Hard;
#METER:15;
#RADARVALUES:0,0,0,0,0;
#NOTES:
0000
0000
0000
0000
,
0000
0000
0000
0000
,
0000
0000
0000
0000
,
0000
0000
0000
0000
,
0000
0000
0000
0000
,
0000
0000
0000
0000
,
0000
0000
0000
0000
,
1001
0000
1000
0010
0000
1000
0001
0010
,
0000
1000
0010
0000
0001
0000
0101
0000
,
0001
1000
0000
0100
1000
0010
0000
0001
,
0010
0000
0100
0000
0110
0000
0100
0001
,
0000
1000
0100
0010
0000
1000
0010
0000
,
0001
0000
0000
0000
1001
0000
0000
0000
2000
0000
0000
0000
0010
0000
0000
0001
,
0000
0000
0010
0000
0000
0001
0000
0000
3010
0M00
0010
0000
0001
0000
0100
0000
,
0010
0000
1000
0000
0010
1000
0001
0010
,
0000
1000
0000
0010
0000
0001
0100
0000
,
0010
0000
1000
0001
0010
0200
0000
0000
,
0000
0000
0000
0000
1300
0010
0100
0001
,
1000
0100
0010
0001
0100
0010
1000
0001
,
0010
0100
1000
0000
0000
0000
0000
0000
,
0000
0000
0000
0000
,
1001
0000
0000
0000
0001
0100
0001
0000
0000
0000
1000
0000
0100
0000
0010
0000
,
0000
1000
0010
0100
1000
0001
0100
0000
,
0010
0100
0010
0000
0000
0000
1000
0000
0010
0000
0001
0000
0000
0000
0010
0000
,
0100
0000
0001
0000
0010
0000
00M0
0000
0110
0000
0000
0000
1000
0100
1000
0000
,
0000
0001
0100
0010
0000
0001
0010
0100
,
0001
0000
1000
0000
0100
0000
0000
0000
0010
0100
0010
0000
0000
0000
0001
0000
,
0100
1000
0000
0000
0100
0001
0010
0000
,
1001
0000
0000
0000
0000
0000
0000
0000
0000
0000
1000
0001
1000
0001
0010
0000
,
0000
0100
0001
0100
1000
0010
0100
0000
,
0010
1000
0010
0000
0100
0000
0001
1000
0001
0000
0010
0000
0000
0000
1000
0000
,
0010
0000
0100
0000
1000
0000
M000
0000
1100
0000
0000
0000
1000
0100
1000
0000
,
0001
0000
0100
0010
0100
0000
0001
0000
0000
0000
0010
0000
1000
0000
0010
0000
,
0100
0000
1000
0000
0001
0000
0000
0000
0100
0010
0100
0000
0001
0000
0010
0100
,
0010
0002
0000
0000
0000
0000
0000
0000
,
1003
0000
0000
0000
0001
0000
0010
0000
0100
000M
0100
0000
0100
0000
0100
0000
,
0100
0100
0100
0100
0001
0000
1001
0000
,
1000
0000
0000
0000
0001
0000
0010
0M00
0020
0000
1000
0000
0000
0000
0130
0000
,
0000
1000
0001
0000
0011
0000
0001
0000
,
1000
0000
0010
0M00
0010
0000
0001
0000
0100
00M0
0100
0000
1000
0000
0010
0M00
,
0010
0000
0000
0000
1001
0000
0000
0000
0001
0000
0000
0000
1000
0000
0100
00M0
,
0200
0001
0000
0310
0000
1000
0001
0000
,
0011
0000
0000
2200
0000
0000
0000
0000
,
0000
0300
3010
0101
,
0100
0000
0000
0000
0001
0000
0010
0M00
0010
0000
2000
0000
0000
0000
0010
0000
,
0000
3001
0010
0000
0110
0000
0100
0000
,
1000
0000
0100
00M0
0100
0000
0001
0000
0010
0M00
0010
0000
1000
0000
0100
00M0
,
0100
2001
0000
0000
,
0000
0000
0000
0000
,
3011
0000
0000
0000
1100
0000
0000
0101
,
0000
0000
0010
0101
0000
0000
1100
0000
,
0000
0000
0011
0000
0000
1010
0000
0000
,
0001
1010
0000
0000
0101
0000
0000
0000
,
1100
0000
0000
0011
0000
0000
0100
0011
,
0000
1010
0000
0101
,
0000
2100
0000
0000
0000
0000
0000
0000
,
3011
0000
0000
0000
1100
0001
1000
0101
,
0000
0000
0010
0101
1000
0000
0011
0000
,
0000
0000
1010
0001
0100
0011
0000
0000
,
1000
0101
0010
0000
0101
0000
0000
0000
,
1100
0001
1000
0011
0000
0000
0100
0011
,
1000
0000
0101
0000
0000
0000
1010
0100
,
1000
0011
0000
0000
0000
0000
0000
0000
,
0110
0000
0000
0000
0210
0000
0000
0000
0010
0000
0000
0001
0000
0000
0010
0000
,
0000
0001
0000
0000
0310
000M
0010
0000
0100
0000
1000
0000
1100
0000
0000
0000
,
1100
0200
0000
0320
,
0000
0031
1001
1002
,
0100
0000
0000
0010
0000
0000
0100
0000
0000
0010
0000
0000
0103
00M0
0100
0000
,
1000
0010
0110
0000
0000
0110
0000
0000
,
0000
0000
0000
0000
,
1000
0000
0001
0000
0010
1000
0010
0001
,
0000
1000
0000
0001
0000
0100
0010
0000
,
0001
0000
0010
1000
0100
0020
0000
0000
,
0000
0000
0000
0000
0031
0100
0010
0100
,
1000
0100
0010
1000
0100
0010
0100
0001
,
0100
0010
0001
0000
0000
0000
0000
0000
,
0000
0000
0000
0000
,
1001
0000
0000
0000
0001
0000
0010
0100
,
0000
1100
0000
0101
0000
0100
0010
0000
,
1010
0000
0011
0000
0010
0100
0000
2100
,
0000
0000
3010
0010
,
1000
0000
0001
0010
0M00
0010
1000
0001
,
0100
00M0
0100
0000
1000
0000
0100
00M0
0100
0000
0100
0000
1000
0000
0100
00M0
,
0100
0002
0000
0000
0010
0010
0013
0000
,
0011
0000
0000
0001
1000
0000
0000
0000
0010
0000
0100
0000
0010
0000
1000
0000
,
0000
0100
0010
0000
0000
0000
0010
0000
0000
0000
0010
0000
0001
0000
0000
0100
,
0010
0000
0010
0000
0010
1000
0100
0010
,
0001
1000
0010
0100
0001
0000
0001
0000
,
1001
0000
0000
0000
0000
0000
0000
0000
1000
0000
0000
0000
0100
0000
0000
0000
0010
0000
0000
0000
0000
0000
0001
0000
0000
1000
0000
0000
0001
0000
0000
0000
,
0000
0100
0000
00M0
0000
0100
0000
0000
0000
0100
0000
0000
0000
0100
0000
0000
0000
0100
0000
0000
0000
0100
0000
0000
,
0000
0100
0000
0001
0000
0000
0000
0000
0000
0000
0000
0000
0000
0000
0000
0000
0000
0000
0000
0000
0000
0000
0000
0000
,
1MM1
0000
0000
0000
1000
0010
0100
0001
0000
0000
0000
0010
0000
0000
0110
0000
,
0000
0000
0100
1000
0001
0100
0000
0010
0000
1000
0000
0000
1010
0000
0000
0000
,
0010
1000
0100
0010
0000
0000
0000
0001
0000
0000
0101
0000
0000
0000
0100
0010
,
1000
0001
0000
0010
0000
0100
0000
0000
0110
0000
0000
0000
0000
0000
0000
1100
,
0000
0000
0000
0000
0000
0000
1010
0000
0000
0000
0000
0000
0000
0110
0000
0000
,
0000
0000
0000
0000
0101
0000
0000
0000
0000
0000
0000
0011
0000
0000
0000
0000
,
0000
0000
0000
0000
0110
0000
0000
0000
0000
0000
0000
0000
0000
0000
0000
0000
0000
0000
1000
0000
0010
000M
0010
0000
0100
M000
0100
0000
0100
0000
1000
0000
,
0MM1
0000
0000
0000
0010
0100
1000
0000
0000
0000
0001
0000
0100
0000
1000
0000
,
0000
0100
0010
1000
0001
0010
0100
0000
,
1000
0001
0100
0000
0000
0000
0010
0000
1000
0000
0100
0000
0000
0000
0010
000M
,
0010
0000
0010
0000
0010
0000
0010
0000
0001
0000
0000
0000
0100
0010
1000
0000
,
0000
0001
0010
1000
0000
0001
0100
1000
,
0001
0100
2000
0000
0000
0000
3100
0000
,
0000
0220
0000
0000
0000
0000
0000
0000
,
0000
0330
0000
0000
;

//--------------- dance-single - FS+ DS+ XO JA BR RH- SS- SJ- DSFS- ----------------
#NOTEDATA:;
#STEPSTYPE:dance-single;
#DESCRIPTION:FS+ DS+ XO JA BR RH- SS- SJ- DSFS- ;
#DIFFICULTY:Challenge;
#METER:17;
#RADARVALUES:0.691866,0.887404,0.499739,0.323361,0.393177,659,591,68,44,23,3,10,0,0,0.691866,0.887404,0.499739,0.323361,0.393177,659,591,68,44,23,3,10,0,0;
#CHARTNAME:;
#CHARTHASH:16777215;
#BANNER:;
#CHARTSTYLE:;
#METERF:0.000000;
#CREDIT:D0omsday;
#NOTES:
0000
0000
0000
0000
,
0000
0000
0000
0000
,
0000
0000
0000
0000
,
0000
0000
0000
0000
,
0000
0000
0000
0000
,
0000
0000
0000
0000
,
0000
0000
0000
0000
,
1001
0000
1000
0010
0000
1000
0100
0110
,
0000
0100
1000
0000
0001
0000
0101
0000
,
0001
0010
0000
0001
1000
1010
0000
1000
,
0100
0010
0000
0M10
1000
0100
0010
0001
1000
0000
0000
0000
0001
0000
0100
0000
,
0000
0010
1000
1001
0000
1000
0100
0000
,
0010
0000
0000
0000
0011
0000
0000
0000
0002
0000
0000
0000
0100
0000
0000
0010
,
0000
0000
0100
0000
0000
0010
0000
0000
1000
0000
1000
0000
0100
0000
0010
0000
,
1003
0000
0010
0000
1100
0010
1000
0101
,
0000
0010
0000
0101
1000
0001
1010
0000
,
0100
0000
1010
0100
1000
0012
0000
0000
,
0000
0000
0000
0000
1013
0100
1000
0010
,
1100
0001
1000
0101
0010
0001
1000
0011
,
0100
0001
1010
0000
0000
0000
0000
0000
,
0000
0000
0000
0000
,
1001
0000
0000
0000
0001
0100
0010
0000
0M00
0000
0010
0001
0100
0001
0010
0000
,
0000
1000
0010
0001
1000
0010
1100
0000
,
0010
1000
0100
0000
M000
0000
0100
0010
1000
0010
0100
0000
0000
0000
1000
0000
,
0100
0000
0001
0000
0010
0000
00MM
0000
0011
0000
0000
0000
1000
0010
0100
0000
,
00M0
0000
0100
1000
0010
1000
0100
0000
0000
0000
0001
0000
0100
0000
1000
0000
,
0001
0000
0100
0000
0011
0000
0000
0000
0100
0001
0010
0000
000M
0000
0010
0100
,
0001
0000
0000
0000
0000
0000
0100
0000
0000
0000
0000
0000
0010
0000
0000
0000
0000
0000
1000
0000
0000
0000
0000
0000
0100
0000
0000
0000
0000
0000
0000
0010
0000
0000
0000
0000
0000
0000
0000
0100
0000
0000
0000
0000
0000
0000
0000
0000
1000
0000
0000
0000
0000
0000
0000
0000
0000
0000
0000
0000
0001
0000
0000
0000
0000
0000
0000
0000
0000
0000
0000
0000
0100
0000
0000
0000
0000
0000
0000
0000
0000
0000
0000
0000
0000
0000
0000
0000
0000
0000
0000
0000
0000
0000
0000
0000
,
1001
0000
0000
0000
0001
1000
0010
0000
0001
0000
0010
1000
0001
1000
0010
0000
,
0000
0001
0010
1000
0001
0010
0101
0000
,
1000
0100
0010
0000
1000
0000
0010
0100
1000
0100
0010
0000
0000
0000
1000
0000
,
0010
0000
0001
0000
0100
0000
0000
0000
1010
0000
0000
0000
0001
0100
0010
0000
,
0001
0000
0010
0100
0001
0100
0010
0000
0000
0000
0001
0000
0010
0000
1000
0000
,
0001
0000
0010
0000
0101
0000
0000
0000
1000
0010
0100
0000
1000
0000
0100
0010
,
1000
0010
0200
0000
0000
0000
0000
0000
0000
0000
0000
0000
0000
0000
0000
0000
,
0311
0000
1000
0000
0010
0000
0100
0000
0010
0000
0M10
0001
0010
0000
0010
0000
,
0010
0001
0010
0000
0010
0000
0010
0001
0100
0000
0010
0000
1100
0000
0001
0000
,
0010
0001
1000
0010
M010
0001
0000
0010
,
0100
0000
1000
0000
0101
1000
0010
0100
,
0001
0010
001M
0100
0010
0M10
0100
0010
,
0100
1000
0011
0100
0010
1000
0010
M010
,
0010
0000
1000
0000
0000
0000
0010
0000
0100
0001
0100
0001
1000
0100
0010
0001
,
1000
0000
0010
0000
1000
0000
0200
0000
0000
0000
0300
0000
0000
0010
0000
0000
,
0001
0000
0000
0000
0000
0000
0000
0000
0000
0010
0000
0000
0000
0000
0000
0000
0002
0000
0000
0000
0000
0000
0000
0000
0000
0000
0000
0000
0000
0000
0000
0000
0100
0000
0000
0000
0000
0000
0000
0000
0000
0000
0000
0000
0000
0000
0000
0000
1013
0000
0000
0000
0000
0000
0000
0000
0001
0000
0000
0000
0000
0000
0000
0000
,
0100
0001
1000
0100
M100
0001
0000
0100
,
0010
0000
1000
0000
0011
1000
0100
0010
,
0001
0100
010M
0010
0100
01M0
0010
0100
,
0010
1000
0102
0000
0000
0000
0000
0000
,
0000
0000
0000
0003
,
1002
0000
0000
0000
2003
0010
0010
3002
,
0000
0000
0010
0203
0010
0000
2300
0000
,
0000
0000
3200
0010
0010
0302
0000
0000
,
1000
0023
0100
0000
0032
0000
0000
0000
,
0203
0001
0001
0320
0000
0000
0001
0230
,
0001
0000
0320
0000
0000
0000
2030
0100
,
0100
3004
0000
0000
0000
0000
0000
0000
,
0023
0000
0000
0000
0230
0001
0001
0320
,
0000
0000
1000
0230
1000
0000
0320
0000
,
0000
0000
0032
1000
1000
0203
0000
0000
,
0010
0302
1000
0000
0023
0000
0000
0000
,
0230
1000
1000
0320
0000
0000
1000
0032
,
1000
0000
0203
0000
0000
0000
0302
1000
,
1000
0013
0000
0000
0000
0000
0000
0000
,
0011
0000
0000
0000
0021
0000
0000
0000
0001
0000
0000
0100
0000
0000
0001
0000
,
0000
0100
0000
0000
0001
0000
0001
0000
0100
0000
1000
0000
0130
0000
0000
0000
,
0110
0002
0203
0320
,
2030
3001
1001
2001
,
0100
0000
0000
0010
0000
0000
0100
0000
0000
0010
0000
0000
0001
0000
0001
0000
,
0100
0010
3001
0000
0000
1001
0000
2000
,
0000
0040
0000
0000
0000
0000
3030
0000
,
1001
0000
1000
0000
0011
0100
0001
1010
,
0000
0100
0000
1010
0001
1000
0101
0000
,
0010
0000
0101
0010
0001
2100
0000
0000
,
0000
0000
0000
0000
3101
0010
0001
0100
,
0011
1000
0001
1010
0100
1000
0001
1100
,
0010
1000
0101
0000
0000
0000
0000
0000
,
0000
0000
0000
0000
,
1000
0000
1000
0000
0010
0000
0010
0000
0100
0000
0100
0000
0001
0000
0001
0010
,
0000
0000
0100
0010
0000
0000
0100
0010
0000
0000
0100
0010
0001
0100
0000
0000
,
0010
1000
0000
0000
0010
1000
0000
0000
0010
1000
0001
0010
0000
0000
0200
0020
,
0000
0000
0000
0300
0031
0100
0010
0100
,
1000
0100
0010
1000
0000
M010
0001
1000
,
0100
M100
0010
0100
01M0
0100
0010
0100
,
01M0
0000
1000
0001
0100
0010
1000
0001
0020
0000
0230
0000
0320
0000
0030
0000
,
0011
0000
0000
0001
1000
0000
0000
0000
0010
0000
M010
0000
0010
0000
1000
0000
,
0000
0010
0100
0000
0000
0000
0110
0000
0000
0000
1001
0000
0001
0000
0000
0010
,
0100
0000
0000
0000
0110
0000
0000
0000
1001
0000
1000
0100
1000
0001
0100
0000
,
0010
0001
0010
0100
0011
1000
0100
0010
,
0101
0000
0000
0000
1000
0000
0000
0000
0001
0000
0000
0000
1010
0000
0000
0000
0001
0000
0000
0000
0000
0000
0100
0000
0000
0010
0000
0000
2100
0000
0000
0000
,
0000
0010
0000
0000
0000
0010
0000
0000
0000
0010
0000
0000
0000
0010
0000
0000
0000
0010
0000
0000
0000
0010
0000
0000
,
0000
3010
0000
1100
0000
0000
0000
0000
0000
0000
0000
0000
0000
0000
0000
0000
0000
0000
0000
0000
0000
0000
0000
0000
,
00M1
0000
0010
0000
0100
1000
0001
0200
0000
0000
0000
0310
0000
1000
0100
0000
,
1000
0000
0010
0100
0001
0010
0100
1000
0100
0010
0000
0000
0001
0000
1000
0000
,
0010
1000
0001
0020
0000
0000
0000
0130
0000
1000
0010
0000
1000
0000
0100
1000
,
0010
0100
0001
1000
0100
0010
0000
0000
0101
0000
0010
0000
0001
1000
0010
2100
,
0000
0000
0000
3001
0000
0010
0101
0000
0010
0000
1000
0010
0100
1010
0100
0001
,
0100
1000
0000
0000
0011
0000
0100
0000
0010
1000
0001
1020
0000
0000
0000
0031
,
0000
1000
0011
0000
0100
0000
1000
0100
0010
2000
0010
3002
0010
0010
0013
0100
,
101M
0000
0000
0000
0100
0010
1000
0000
00M0
0000
1000
0100
0010
0001
0100
0000
,
0000
1000
0100
0001
0010
0001
1010
0000
,
0100
0010
0001
0000
00M0
0000
0001
0100
0010
0100
0001
0000
0000
0000
0100
0000
,
010M
0000
0100
0000
0100
0000
0100
0000
1100
0000
0000
0000
0001
0100
1000
0000
,
0M00
0000
1000
0010
0001
0010
1000
0000
0000
0000
0001
0000
0010
0000
1000
0000
,
0001
0100
2000
0000
0000
0000
3100
0000
,
0000
2002
0000
0000
0000
0000
0000
0000
,
0000
3003
0000
0000
;
