#TITLE:tribe groove;
#SUBTITLE:;
#ARTIST:nite system;
#TITLETRANSLIT:;
#SUBTITLETRANSLIT:;
#ARTISTTRANSLIT:;
#GENRE:;
#CREDIT:;
#MUSIC:tribe groove.ogg;
#BANNER:tribe groove.png;
#BACKGROUND:tribe groove-bg.png;
#CDTITLE:;
#SAMPLESTART:23.978;
#SAMPLELENGTH:15.256;
#SELECTABLE:YES;
#OFFSET:-1.094;
#BPMS:0.000=125.850;
#STOPS:;
#BGCHANGES:;
#FGCHANGES:;

//--------------- dance-single - ----------------
#NOTES:
     dance-single:
     :
     Hard:
     11:
     0,0,0,0,0:
0000
0000
0000
0000
,
0000
0000
0000
0000
,
0000
0000
0000
0000
,
0000
0000
0000
0000
,
1000
0000
0000
0100
0000
0000
0001
0000
0000
0100
0000
1000
0010
0000
0100
0000
,
0001
0000
0010
0000
1000
0000
0010
0000
0000
0001
0000
0000
1000
0000
0000
0000
,
0001
0000
0000
0100
0000
0000
1000
0000
0000
0100
0000
0001
0010
0000
0100
0000
,
1000
0000
0010
0000
0001
0000
0010
0000
0000
1000
0000
0000
0001
0000
0000
0000
,
1000
0000
0000
0100
0000
0000
0010
0000
0000
1000
0000
0010
0001
0000
0100
0000
,
0010
0000
0001
0000
0010
0000
1000
0000
0000
0100
0000
0000
0010
0000
0000
0000
,
0001
0000
0000
0100
0000
0000
1000
0000
0000
0100
0000
0010
1000
0000
0100
0000
,
0001
0000
0100
0000
0010
0000
0001
0000
0000
0100
0000
0000
0010
0000
0000
0000
,
1000
0000
0000
1000
0010
0000
0001
0000
1001
0000
0000
0010
0100
0000
1000
0000
,
0001
0000
0000
0010
1000
0000
0010
0000
0001
0000
0000
0100
0000
0000
0010
0000
,
1100
0000
0000
0100
0001
0000
1000
0000
0010
0001
0000
0010
1000
0000
0001
0000
,
0110
0000
0000
0000
0011
0000
0000
0000
0101
0000
0000
0010
1000
0000
0001
0000
,
1000
0000
0000
1000
0100
0000
0001
0000
1001
0000
0000
0100
0010
0000
1000
0000
,
0001
0000
0000
0100
1000
0000
0100
0000
0001
0000
0000
0010
0000
0000
0100
0000
,
1010
0000
0000
0010
0001
0000
1000
0000
0100
0001
0000
0100
1000
0000
0001
0000
,
0110
0000
0000
0000
0101
0000
0000
0000
0011
0000
0000
0100
1000
0000
0001
0000
,
1001
0000
0101
0011
,
0110
0000
0000
0000
0000
0000
0000
0000
1100
0000
0000
1010
0000
0000
0000
0000
,
1001
0000
1100
1010
,
0110
0000
0000
0000
0000
0000
0000
0000
0101
0000
0000
0011
0000
0000
0000
0000
,
1001
0000
0000
1000
1000
0000
0000
0100
,
0100
0000
0000
0000
0010
0000
0000
0010
,
0001
0000
0000
0001
0000
0000
0001
0000
0100
0000
0000
0000
0000
0000
0100
0000
,
0010
0000
0000
0010
,
1000
0000
1000
0100
0000
0100
0001
0000
0001
0010
0000
0010
,
1000
0000
0000
0000
1000
0000
0010
0000
0000
0000
0010
0000
0001
0000
0000
0000
0001
0000
0100
0000
0000
1000
0000
0000
,
0001
0000
0001
0100
0000
0100
1000
0000
1000
0010
0000
0010
,
0001
0000
0000
0000
0001
0000
0010
0000
0000
0000
0010
0000
1000
0000
0000
0000
0000
0000
0001
0000
0000
1000
0000
0000
,
0001
0000
0000
0010
0100
0000
0001
0000
0100
0000
0000
1000
0000
0000
0010
0000
,
0100
0000
0000
0001
1000
0000
0100
0000
0010
0000
0000
0100
1000
0000
0001
0000
,
0100
0000
0000
1000
0000
0000
0100
0000
0001
0000
0000
0010
0000
0000
0100
0000
,
1000
0000
0000
0010
0001
0000
1000
0000
0100
0001
0000
0010
0100
0000
1000
0000
,
0001
0000
0000
0100
0010
0000
0001
0000
0010
0000
0000
1000
0000
0000
0100
0000
,
1000
0000
0000
0001
0100
0000
0010
0000
0000
1000
0000
0100
0010
0000
0100
0000
,
1000
0000
0000
0010
0000
0000
0001
0000
1000
0000
0000
0100
0000
0000
0001
0000
,
0010
0000
0000
0001
0000
0000
1000
0000
0000
0010
0000
0000
0100
0000
0001
0000
;

//--------------- dance-single - ----------------
#NOTES:
     dance-single:
     :
     Challenge:
     14:
     0,0,0,0,0:
0000
0000
0000
0000
,
0000
0000
0000
0000
,
0000
0000
0000
0000
,
0000
0000
0000
0000
,
1000
0000
0100
1000
0001
0000
0100
0000
0001
0010
0000
0010
1000
0000
0001
0000
,
1000
0010
0100
1000
0100
0000
0001
0000
1000
0100
0000
0100
0001
0000
1000
0000
,
0001
0000
0100
0001
1000
0000
0100
0000
1000
0010
0000
0010
0001
0000
1000
0000
,
0001
0010
0100
0001
0100
0000
1000
0000
0001
0100
0000
0100
1000
0000
0001
0000
,
1100
0000
0001
0100
0001
0000
0010
0000
0100
0001
0000
0001
1000
0000
0010
0000
,
1000
1000
0000
0100
0001
0000
0010
0000
0100
0010
0000
0001
1000
0000
0001
0000
,
0101
0000
1000
0100
1000
0000
0010
0000
0100
1000
0000
1000
0001
0000
0010
0100
,
0010
0000
0000
0010
0000
0000
0000
0000
0000
1000
0000
0000
0100
0000
0000
0000
0000
0000
0001
0000
0000
0000
0000
0000
0100
0000
0000
0000
1000
0000
0000
0000
0001
0000
0000
0000
0100
0000
0000
0000
0000
0000
0010
0000
0000
0000
0000
0000
,
1000
0100
0001
1000
0010
0000
0010
0000
1000
0100
0000
0001
0100
0000
1000
0000
,
0001
0100
0000
0100
1000
0000
0010
1000
0100
0010
0000
0001
0100
0001
1000
0000
,
0100
0001
1000
0010
0001
0000
0100
0000
0010
1000
0000
0001
0010
0000
0100
0000
,
1010
0000
0001
0010
0011
0000
1000
0100
1100
1000
0000
0010
0010
0000
0001
0000
,
1000
0010
0001
1000
0100
0000
0100
0000
1000
0010
0000
0001
0010
0000
1000
0000
,
0001
0010
0000
0010
1000
0000
0100
1000
0010
0100
0000
0001
0010
0001
1000
0000
,
0010
0001
1000
0100
0001
0000
0010
0000
0100
1000
0000
0001
0100
0000
0010
0000
,
1100
0000
0001
0100
0101
0000
1000
0010
1010
1000
0000
0100
0100
0000
0001
0000
,
1001
0000
0000
0000
0000
0000
0011
0001
0001
0001
0000
0000
,
0110
0000
0000
0000
0000
0000
0000
0000
1100
0000
0000
0101
0000
0000
0000
0000
,
1001
0000
0000
0000
0000
0000
1010
1000
1000
1000
0000
0000
,
0110
0000
0000
0000
0000
0000
0000
0000
0101
0000
0000
1100
0000
0000
0000
0000
,
1001
0000
0000
1000
1100
0000
0000
0100
,
0110
0000
0000
0000
0011
0000
0000
0001
,
1001
0000
0000
1000
0000
0000
1000
0000
1010
0000
0000
0000
0000
0000
0001
0000
,
0101
0000
0000
1001
,
1100
1000
1000
1010
0010
0010
0110
0100
0100
0101
0001
0001
,
0011
0000
0010
0000
0010
0000
0110
0000
0100
0000
0100
0000
1100
0000
1000
0000
1000
0000
1001
0000
0000
0110
0000
0000
,
0101
0001
0001
0011
0010
0010
0110
0100
0100
1100
1000
1000
,
1010
0000
0010
0000
0010
0000
0110
0000
0100
0000
0100
0000
0101
0000
0000
0000
0000
0000
0110
0000
0000
1001
0000
0000
,
1000
0000
0100
0001
0100
0000
1000
0000
0001
0100
0000
0100
1000
0000
0001
0000
,
1000
0000
0100
1000
0010
0000
0100
0000
0001
0001
0000
0010
0010
0000
0001
0000
,
1000
0000
0010
0001
0010
0000
1000
0000
0001
0010
0000
0010
1000
0000
0001
0000
,
1000
0000
0010
1000
0100
0000
0010
0000
0001
0001
0000
0100
0100
0000
0001
0000
,
1000
0000
0100
0001
0100
0000
0010
0000
0001
1000
0000
1000
0010
0000
0001
0000
,
0100
0000
0010
1000
0001
0000
0010
0000
0100
0100
0000
1000
1000
0000
0001
0000
,
1000
0000
0000
0010
0000
0000
0001
0000
0010
0100
0000
0100
1000
0000
0001
0000
,
0010
0000
0000
0001
0000
0000
1000
0000
0000
0010
0000
0010
0001
0000
1000
0000
;
